<?xml version="1.0" standalone="no"?>
<!DOCTYPE svg PUBLIC "-//W3C//DTD SVG 1.1//EN" "http://www.w3.org/Graphics/SVG/1.1/DTD/svg11.dtd" >
<svg>
<metadata>
Created by FontForge 20120731 at Wed Jun 29 10:59:38 2016
 By ,,,
Copyright (c) 2004 Linotype Library GmbH, www.linotype.com. All rights reserved. This software may not be reproduced, used, displayed, modified, disclosed or transferred without the express written approval of Linotype Library GmbH. Avenir is a trademark of Heidelberger Druckmaschinen AG, exclusively licensed through Linotype Library GmbH, and may be registered in certain jurisdictions. This typeface is original artwork of Adrian Frutiger and Akira Kobayashi. The design may be protected in certain jurisdictions.
</metadata>
<defs>
<font id="AvenirNextLTPro-Cn" horiz-adv-x="225" >
  <font-face 
    font-family="AvenirNext LT Pro Cn"
    font-weight="400"
    font-stretch="normal"
    units-per-em="1000"
    panose-1="2 11 5 6 2 2 2 2 2 4"
    ascent="756"
    descent="-244"
    x-height="496"
    cap-height="708"
    bbox="-105 -250 846 953"
    underline-thickness="50"
    underline-position="-50"
    unicode-range="U+000D-FB02"
  />
<missing-glyph horiz-adv-x="512" 
d="M222 117h56v67h-56v-67zM225 234h46q0 52 6 72q6 19 43 52q37 34 50 60t13 60q0 59 -35 95t-89 36q-56 0 -92 -34t-43 -103l50 -8q11 95 82 95q31 0 53.5 -24.5t22.5 -60.5q0 -20 -9.5 -37t-40.5 -46q-31 -31 -46 -59q-13 -25 -13 -81zM462 50h-412v617h412v-617z
M512 718h-512v-718h512v718z" />
    <glyph glyph-name="IJ" unicode="IJ" horiz-adv-x="602" 
d="M151 0h-70v708h70v-708zM526 194q0 -211 -158 -211q-59 0 -97 32t-52 89l62 25q7 -35 29.5 -58.5t56.5 -23.5q49 0 69 39.5t20 117.5v504h70v-514z" />
    <glyph glyph-name="ij" unicode="ij" horiz-adv-x="440" 
d="M154 648q0 -21 -13 -34.5t-31 -13.5q-19 0 -31.5 13.5t-12.5 34.5q0 20 12.5 34t31.5 14t31.5 -14t12.5 -34zM143 0h-66v496h66v-496zM374 648q0 -21 -12.5 -34.5t-31.5 -13.5q-18 0 -30.5 13.5t-12.5 34.5q0 20 12.5 34t30.5 14q19 0 31.5 -14t12.5 -34zM364 -73
q0 -167 -127 -167q-19 0 -39 6l6 60q15 -5 29 -5q65 0 65 110v565h66v-569z" />
    <glyph glyph-name="napostrophe" unicode="&#x22;n" horiz-adv-x="478" 
d="M405 0h-66v320q0 134 -78 134q-48 0 -77 -49t-29 -119v-286h-66v371q0 85 -4 125h64q4 -50 4 -97h2q14 51 47 82t79 31q38 0 64 -16.5t38.5 -46t17 -60t4.5 -69.5v-320zM109 708l-49 -174h-50l41 174h58z" />
    <glyph glyph-name="fi" unicode="fi" horiz-adv-x="457" 
d="M250 766l-5 -55q-15 5 -29 5q-69 0 -69 -115v-105h84v-54h-84v-442h-65v442h-67v54h67v105q0 79 31.5 125t95.5 46q23 0 41 -6zM380 0h-67v496h67v-496zM391 648q0 -21 -13 -34.5t-31 -13.5q-19 0 -31.5 13.5t-12.5 34.5q0 20 12.5 34t31.5 14q18 0 31 -14t13 -34z" />
    <glyph glyph-name="fl" unicode="fl" horiz-adv-x="457" 
d="M250 766l-5 -55q-15 5 -29 5q-69 0 -69 -115v-105h84v-54h-84v-442h-65v442h-67v54h67v105q0 79 31.5 125t95.5 46q23 0 41 -6zM380 0h-67v756h67v-756z" />
    <glyph glyph-name=".notdef" horiz-adv-x="512" 
d="M222 117h56v67h-56v-67zM225 234h46q0 52 6 72q6 19 43 52q37 34 50 60t13 60q0 59 -35 95t-89 36q-56 0 -92 -34t-43 -103l50 -8q11 95 82 95q31 0 53.5 -24.5t22.5 -60.5q0 -20 -9.5 -37t-40.5 -46q-31 -31 -46 -59q-13 -25 -13 -81zM462 50h-412v617h412v-617z
M512 718h-512v-718h512v718z" />
    <glyph glyph-name=".null" horiz-adv-x="185" 
 />
    <glyph glyph-name=".null" horiz-adv-x="185" 
 />
    <glyph glyph-name="nonmarkingreturn" horiz-adv-x="333" 
 />
    <glyph glyph-name="CR" unicode="&#xd;" horiz-adv-x="0" 
 />
    <glyph glyph-name="space" unicode=" " horiz-adv-x="185" 
 />
    <glyph glyph-name="exclam" unicode="!" horiz-adv-x="294" 
d="M181 211h-67v497h67v-497zM194 43q0 -21 -13.5 -35.5t-33.5 -14.5q-19 0 -32.5 14.5t-13.5 35.5t13.5 35.5t32.5 14.5q20 0 33.5 -14.5t13.5 -35.5z" />
    <glyph glyph-name="quotedbl" unicode="&#x22;" horiz-adv-x="345" 
d="M265 461h-58v247h58v-247zM138 461h-58v247h58v-247z" />
    <glyph glyph-name="numbersign" unicode="#" horiz-adv-x="379" 
d="M353 430h-69l-13 -151h58v-58h-64l-18 -221h-52l19 221h-72l-19 -221h-52l18 221h-63v58h69l14 151h-64v58h69l19 220h52l-19 -220h72l19 220h52l-20 -220h64v-58zM233 430h-73l-13 -151h72z" />
    <glyph glyph-name="dollar" unicode="$" horiz-adv-x="470" 
d="M408 193q0 -85 -44 -137t-114 -55v-80h-37v80q-44 2 -87 21t-70 49l37 50q52 -59 120 -61v270q-71 29 -108 70t-37 120q0 80 41 129.5t106 56.5v80h37v-79q96 -2 148 -65l-35 -48q-42 55 -113 55v-263q77 -32 116.5 -72t39.5 -121zM213 400v247q-35 -5 -59.5 -37
t-24.5 -84q0 -53 21.5 -79.5t62.5 -46.5zM344 188q0 54 -23.5 81.5t-68.5 48.5v-258q39 2 65.5 37t26.5 91z" />
    <glyph glyph-name="percent" unicode="%" horiz-adv-x="631" 
d="M283 541q0 -80 -33 -130.5t-90 -50.5q-56 0 -89.5 50.5t-33.5 130.5q0 81 33 131.5t90 50.5t90 -51t33 -131zM227 541q0 58 -17.5 94.5t-49.5 36.5q-33 0 -50 -36t-17 -95q0 -57 17.5 -93.5t49.5 -36.5t49.5 36.5t17.5 93.5zM604 170q0 -80 -33 -130.5t-90 -50.5
t-90.5 50.5t-33.5 130.5t33.5 131t90.5 51t90 -51t33 -131zM547 170q0 59 -17 95t-49 36q-33 0 -50 -36t-17 -95q0 -57 17.5 -93.5t49.5 -36.5t49 36.5t17 93.5zM483 722l-277 -745l-49 15l278 745z" />
    <glyph glyph-name="ampersand" unicode="&#x26;" horiz-adv-x="520" 
d="M508 0h-80l-64 97q-50 -114 -156 -114q-75 0 -120 54t-45 148q0 127 121 209q-58 88 -58 167q0 75 40 120.5t102 45.5q60 0 97 -42t37 -111q0 -64 -35.5 -108t-100.5 -86l113 -169l62 169h68l-91 -220zM318 569q0 48 -19 75.5t-52 27.5q-34 0 -55.5 -30.5t-21.5 -78.5
q0 -66 48 -141q100 65 100 147zM328 148l-134 200q-88 -59 -88 -158q0 -67 30.5 -107t78.5 -40q39 0 68.5 30.5t44.5 74.5z" />
    <glyph glyph-name="quotesingle" unicode="'" horiz-adv-x="218" 
d="M138 461h-58v247h58v-247z" />
    <glyph glyph-name="parenleft" unicode="(" horiz-adv-x="250" 
d="M198 -139l-55 -26q-57 92 -88 212t-31 241t31 241t88 212l55 -26q-52 -84 -81 -199.5t-29 -227.5t29 -227.5t81 -199.5z" />
    <glyph glyph-name="parenright" unicode=")" horiz-adv-x="250" 
d="M52 -139q52 84 81 199.5t29 227.5t-29 227.5t-81 199.5l55 26q57 -92 88 -212t31 -241t-31 -241t-88 -212z" />
    <glyph glyph-name="asterisk" unicode="*" horiz-adv-x="423" 
d="M385 552l-128 -44l81 -125l-46 -33l-80 127l-79 -125l-47 33l81 123l-129 46l19 51l126 -47v150h58v-150l127 46z" />
    <glyph glyph-name="plus" unicode="+" horiz-adv-x="666" 
d="M363 558v-225h225v-60h-225v-225h-60v225h-225v60h225v225h60z" />
    <glyph glyph-name="comma" unicode="," horiz-adv-x="217" 
d="M158 117l-70 -248h-54l58 248h66z" />
    <glyph glyph-name="hyphen" unicode="-" horiz-adv-x="226" 
d="M188 235h-150v56h150v-56z" />
    <glyph glyph-name="period" unicode="." horiz-adv-x="217" 
d="M155 43q0 -22 -13.5 -36t-33.5 -14t-33 14t-13 36q0 20 13.5 35t32.5 15t33 -15t14 -35z" />
    <glyph glyph-name="slash" unicode="/" horiz-adv-x="254" 
d="M242 738l-177 -772l-50 9l177 773z" />
    <glyph glyph-name="zero" unicode="0" horiz-adv-x="470" 
d="M425 354q0 -69 -8 -128t-27.5 -116t-59 -89.5t-95.5 -32.5t-95.5 32.5t-59.5 89t-28 116t-8 128.5t8 128t28 115.5t59.5 89.5t95.5 33t95.5 -33t59 -89.5t27.5 -115.5t8 -128zM354 354q0 37 -2 71t-9 79t-19 77.5t-35 55t-54 22.5q-38 0 -64 -32t-37 -84.5t-15 -96.5
t-4 -92t4 -92t15 -97t37 -84.5t64 -31.5q31 0 54 22.5t35 54.5t19 77t9 79t2 72z" />
    <glyph glyph-name="one" unicode="1" horiz-adv-x="470" 
d="M306 0h-67v628l-130 -101l-33 54l167 127h63v-708z" />
    <glyph glyph-name="two" unicode="2" horiz-adv-x="470" 
d="M393 535q0 -42 -15.5 -84.5t-33 -71.5t-56.5 -86l-161 -231h259v-62h-335v66l193 275q78 112 78 189q0 56 -25.5 93t-73.5 37q-88 0 -108 -111l-66 8q13 79 59.5 121t118.5 42q80 0 123 -52.5t43 -132.5z" />
    <glyph glyph-name="three" unicode="3" horiz-adv-x="470" 
d="M408 193q0 -84 -50 -144.5t-137 -60.5q-69 0 -117 35t-68 101l62 18q14 -43 45 -68.5t75 -25.5q58 0 90 45t32 102q0 70 -38 108.5t-100 38.5h-21v56h22q54 0 87 37t33 100q0 49 -27 87t-78 38q-31 0 -57 -18.5t-40 -50.5l-60 20q21 53 65.5 81t95.5 28q76 0 122 -50
t46 -128q0 -61 -28.5 -109t-81.5 -60v-2q58 -11 93 -59.5t35 -118.5z" />
    <glyph glyph-name="four" unicode="4" horiz-adv-x="470" 
d="M436 169h-88v-169h-63v169h-254v65l225 474h92v-479h88v-60zM286 229v412h-2l-190 -412h192z" />
    <glyph glyph-name="five" unicode="5" horiz-adv-x="470" 
d="M406 222q0 -110 -50.5 -172t-133.5 -62q-64 0 -108.5 33t-64.5 93l60 22q34 -87 112 -87q53 0 85.5 46.5t32.5 124.5t-33.5 124t-95.5 46q-66 0 -117 -34l8 352h281v-61h-221l-7 -221q38 19 77 19q86 0 130.5 -60.5t44.5 -162.5z" />
    <glyph glyph-name="six" unicode="6" horiz-adv-x="470" 
d="M427 219q0 -106 -52 -168.5t-139 -62.5q-89 0 -140 62.5t-51 166.5q0 92 51 194l146 297h76l-154 -302l2 -1q35 38 90 38q69 0 120 -56t51 -168zM357 219q0 77 -30.5 123.5t-87.5 46.5q-55 0 -90 -49t-35 -123q0 -78 33 -124t90 -46q56 0 88 47.5t32 124.5z" />
    <glyph glyph-name="seven" unicode="7" horiz-adv-x="470" 
d="M401 649l-228 -649h-74l232 646h-277v62h347v-59z" />
    <glyph glyph-name="eight" unicode="8" horiz-adv-x="470" 
d="M424 193q0 -92 -51 -148.5t-137 -56.5q-85 0 -135.5 56.5t-50.5 148.5q0 71 30 118.5t84 65.5v2q-97 41 -97 161q0 78 44 129t125 51q80 0 125 -51t45 -129q0 -121 -96 -161v-2q114 -41 114 -184zM337 536q0 58 -27.5 94.5t-73.5 36.5q-48 0 -74 -36t-26 -95
q0 -55 27.5 -94t72.5 -39t73 39t28 94zM352 196q0 68 -32 110.5t-84 42.5t-84 -42.5t-32 -110.5q0 -66 31.5 -109t84.5 -43q54 0 85 42.5t31 109.5z" />
    <glyph glyph-name="nine" unicode="9" horiz-adv-x="470" 
d="M423 495q0 -90 -50 -196l-143 -299h-75l155 313l-2 1q-33 -35 -92 -35q-68 0 -118 54.5t-50 161.5q0 102 51.5 163.5t136.5 61.5q87 0 137 -60.5t50 -164.5zM353 497q0 74 -31.5 119.5t-86.5 45.5q-54 0 -85.5 -45.5t-31.5 -119.5q0 -73 30 -117.5t86 -44.5q53 0 86 46
t33 116z" />
    <glyph glyph-name="colon" unicode=":" horiz-adv-x="260" 
d="M177 50q0 -22 -13.5 -36t-33.5 -14t-33 14t-13 36q0 20 13.5 35t32.5 15t33 -15t14 -35zM177 446q0 -22 -13.5 -36t-33.5 -14t-33 14t-13 36q0 20 13.5 35t32.5 15t33 -15t14 -35z" />
    <glyph glyph-name="semicolon" unicode=";" horiz-adv-x="260" 
d="M177 446q0 -22 -13.5 -36t-33.5 -14t-33 14t-13 36q0 20 13.5 35t32.5 15t33 -15t14 -35zM171 117l-70 -248h-54l58 248h66z" />
    <glyph glyph-name="less" unicode="&#x3c;" horiz-adv-x="666" 
d="M588 564v-60l-429 -201l429 -201v-60l-510 238v46z" />
    <glyph glyph-name="equal" unicode="=" horiz-adv-x="666" 
d="M78 408h510v-60h-510v60zM78 258h510v-60h-510v60z" />
    <glyph glyph-name="greater" unicode="&#x3e;" horiz-adv-x="666" 
d="M78 504v60l510 -238v-46l-510 -238v60l429 201z" />
    <glyph glyph-name="question" unicode="?" horiz-adv-x="368" 
d="M343 553q0 -39 -13 -72t-27 -51.5t-41 -45.5q-33 -35 -44.5 -63t-11.5 -69v-39h-58v49q0 79 59 146l22 26q24 28 36 52.5t12 60.5q0 56 -24 87t-67 31q-42 0 -68.5 -33t-33.5 -81l-58 11q12 75 54.5 118.5t112.5 43.5q69 0 109.5 -45t40.5 -126zM229 43
q0 -21 -13.5 -35.5t-32.5 -14.5q-20 0 -33.5 14.5t-13.5 35.5t13.5 35.5t33.5 14.5q19 0 32.5 -14.5t13.5 -35.5z" />
    <glyph glyph-name="at" unicode="@" horiz-adv-x="640" 
d="M605 407q0 -106 -42 -176.5t-112 -70.5q-33 0 -52.5 19t-18.5 56h-1q-34 -75 -95 -75q-51 0 -78 43.5t-27 109.5q0 96 39.5 170.5t107.5 74.5q34 0 53.5 -20t23.5 -52h3l11 48h59l-36 -172q-11 -66 -11 -97q0 -45 33 -46q38 -1 62.5 54.5t24.5 132.5q0 122 -56.5 194.5
t-158.5 72.5q-105 0 -171 -94t-66 -226q0 -139 64 -227.5t177 -88.5q111 0 189 92l33 -47q-90 -101 -227 -101q-141 0 -218.5 103.5t-77.5 268.5q0 160 82.5 267t214.5 107q129 0 200 -85t71 -235zM389 409q0 89 -55 89q-42 0 -66.5 -58.5t-24.5 -129.5q0 -91 59 -91
q27 0 48 36t30 78t9 76z" />
    <glyph glyph-name="A" unicode="A" horiz-adv-x="464" 
d="M457 0h-73l-43 177h-218l-45 -177h-71l180 708h95zM331 233l-96 412h-4l-98 -412h198z" />
    <glyph glyph-name="B" unicode="B" horiz-adv-x="486" 
d="M446 193q0 -100 -56 -146.5t-128 -46.5h-181v708h160q72 0 126.5 -40.5t54.5 -132.5q0 -66 -28.5 -105.5t-71.5 -54.5v-2q47 -9 85.5 -54.5t38.5 -125.5zM357 525q0 65 -35 94.5t-88 29.5h-87v-251h89q49 0 85 32t36 95zM377 197q0 73 -40 109t-91 36h-99v-283h99
q58 0 94.5 34.5t36.5 103.5z" />
    <glyph glyph-name="C" unicode="C" horiz-adv-x="479" 
d="M461 80q-58 -97 -168 -97q-113 0 -178 104t-65 267t65.5 267t177.5 104q111 0 166 -87l-45 -46q-44 69 -118 69q-84 0 -128.5 -86.5t-44.5 -220.5q0 -132 45.5 -219.5t128.5 -87.5q37 0 68.5 21t51.5 57z" />
    <glyph glyph-name="D" unicode="D" horiz-adv-x="541" 
d="M490 353q0 -171 -69 -262t-188 -91h-152v708h153q119 0 187.5 -91.5t68.5 -263.5zM421 353q0 144 -52.5 219t-136.5 75h-82v-586h82q84 0 136.5 75t52.5 217z" />
    <glyph glyph-name="E" unicode="E" horiz-adv-x="418" 
d="M376 0h-295v708h285v-62h-217v-249h203v-59h-203v-275h227v-63z" />
    <glyph glyph-name="F" unicode="F" horiz-adv-x="396" 
d="M364 645h-214v-253h199v-61h-199v-331h-69v708h283v-63z" />
    <glyph glyph-name="G" unicode="G" horiz-adv-x="535" 
d="M469 44q-65 -57 -168 -57q-117 0 -184 99.5t-67 268.5q0 163 65 266.5t177 103.5t167 -87l-45 -46q-45 70 -119 70q-83 0 -127.5 -87t-44.5 -220q0 -137 46 -221t132 -84q66 0 100 31v240h-101v61h169v-338z" />
    <glyph glyph-name="H" unicode="H" horiz-adv-x="573" 
d="M492 0h-70v336h-271v-336h-70v708h70v-310h271v310h70v-708z" />
    <glyph glyph-name="I" unicode="I" horiz-adv-x="232" 
d="M151 0h-70v708h70v-708z" />
    <glyph glyph-name="J" unicode="J" horiz-adv-x="379" 
d="M303 194q0 -211 -158 -211q-59 0 -97 32t-52 89l62 25q7 -35 29.5 -58.5t56.5 -23.5q49 0 69 39.5t20 117.5v504h70v-514z" />
    <glyph glyph-name="K" unicode="K" horiz-adv-x="482" 
d="M471 0h-84l-236 363h-1v-363h-69v708h69v-318h1l222 318h81l-238 -327z" />
    <glyph glyph-name="L" unicode="L" horiz-adv-x="357" 
d="M353 0h-272v708h70v-643h202v-65z" />
    <glyph glyph-name="M" unicode="M" horiz-adv-x="714" 
d="M633 0h-69v615h-3l-174 -615h-65l-173 615h-3v-615h-65v708h104l169 -598h4l167 598h108v-708z" />
    <glyph glyph-name="N" unicode="N" horiz-adv-x="561" 
d="M480 0h-84l-247 589h-3v-589h-65v708h87l245 -589h3v589h64v-708z" />
    <glyph glyph-name="O" unicode="O" horiz-adv-x="570" 
d="M519 355q0 -168 -62.5 -270t-170.5 -102q-109 0 -172 102t-63 270t62 269t173 101q108 0 170.5 -101.5t62.5 -268.5zM446 355q0 134 -42 220t-118 86q-79 0 -120.5 -85.5t-41.5 -220.5t42 -221.5t120 -86.5q77 0 118.5 87t41.5 221z" />
    <glyph glyph-name="P" unicode="P" horiz-adv-x="460" 
d="M428 516q0 -94 -50.5 -147t-123.5 -53h-104v-316h-69v708h167q73 0 126.5 -45.5t53.5 -146.5zM359 515q0 67 -32 100t-83 33h-94v-273h95q50 0 82 36t32 104z" />
    <glyph glyph-name="Q" unicode="Q" horiz-adv-x="573" 
d="M545 0h-260q-105 0 -169.5 98t-64.5 262q0 163 65 264t171 101t170.5 -101.5t64.5 -261.5q0 -101 -34.5 -186t-86.5 -113v-2h144v-61zM449 360q0 128 -44 213t-118 85q-75 0 -119 -84.5t-44 -213.5q0 -128 44.5 -212t119.5 -84t118 86.5t43 209.5z" />
    <glyph glyph-name="R" unicode="R" horiz-adv-x="476" 
d="M444 0h-75l-128 328h-91v-328h-69v708h170q78 0 130 -44.5t52 -142.5q0 -82 -38 -127.5t-89 -53.5zM365 518q0 70 -35.5 100.5t-89.5 30.5h-90v-266h93q57 0 89.5 36t32.5 99z" />
    <glyph glyph-name="S" unicode="S" horiz-adv-x="434" 
d="M388 181q0 -91 -51.5 -144.5t-128.5 -53.5q-53 0 -99 22.5t-74 61.5l43 49q49 -69 129 -69q49 0 81 35t32 96q0 54 -32 88.5t-89 63.5q-68 34 -106 78.5t-38 121.5q0 93 53 144t127 51q102 0 151 -68l-43 -49q-38 54 -106 54q-47 0 -80.5 -33.5t-33.5 -97.5q0 -54 29 -86
t83 -59q70 -35 111.5 -81.5t41.5 -123.5z" />
    <glyph glyph-name="T" unicode="T" horiz-adv-x="342" 
d="M342 648h-137v-648h-69v648h-136v60h342v-60z" />
    <glyph glyph-name="U" unicode="U" horiz-adv-x="550" 
d="M477 248q0 -121 -48 -193t-155 -72q-201 0 -201 265v460h70v-451q0 -210 132 -210t132 210v451h70v-460z" />
    <glyph glyph-name="V" unicode="V" horiz-adv-x="456" 
d="M450 708l-178 -708h-91l-175 708h76l146 -629h2l146 629h74z" />
    <glyph glyph-name="W" unicode="W" horiz-adv-x="728" 
d="M713 708l-140 -708h-92l-116 606h-2l-115 -606h-92l-139 708h71l116 -619h2l118 619h84l120 -619h2l115 619h68z" />
    <glyph glyph-name="X" unicode="X" horiz-adv-x="453" 
d="M445 0h-76l-143 314l-143 -314h-74l179 373l-161 335h74l127 -280l126 280h72l-160 -336z" />
    <glyph glyph-name="Y" unicode="Y" horiz-adv-x="422" 
d="M422 708l-178 -417v-291h-68v291l-176 417h76l134 -345l137 345h75z" />
    <glyph glyph-name="Z" unicode="Z" horiz-adv-x="397" 
d="M363 0h-334v60l259 586h-248v62h321v-61l-257 -584h259v-63z" />
    <glyph glyph-name="bracketleft" unicode="[" horiz-adv-x="250" 
d="M198 -156h-158v888h158v-54h-93v-780h93v-54z" />
    <glyph glyph-name="backslash" unicode="\" horiz-adv-x="254" 
d="M16 738l50 10l177 -773l-50 -9z" />
    <glyph glyph-name="bracketright" unicode="]" horiz-adv-x="250" 
d="M52 -156v54h93v780h-93v54h158v-888h-158z" />
    <glyph glyph-name="asciicircum" unicode="^" horiz-adv-x="666" 
d="M80 275l229 433h48l229 -433h-62l-191 361l-191 -361h-62z" />
    <glyph glyph-name="underscore" unicode="_" horiz-adv-x="500" 
d="M0 -125v50h500v-50h-500z" />
    <glyph glyph-name="grave" unicode="`" 
d="M162 569h-56l-106 144h72z" />
    <glyph glyph-name="a" unicode="a" horiz-adv-x="404" 
d="M342 0h-57q-3 32 -3 93h-2q-25 -106 -120 -106q-47 0 -83 37t-36 109q0 51 18.5 86.5t49.5 53t62 24.5t66 7h39v26q0 63 -23.5 94t-65.5 31q-55 0 -93 -53l-35 41q22 32 59 50.5t75 18.5q76 0 110 -50t34 -150v-206q0 -54 5 -106zM277 218v34h-40q-133 0 -133 -113
q0 -48 21.5 -73t51.5 -25q36 0 59.5 29.5t32 67.5t8.5 80z" />
    <glyph glyph-name="b" unicode="b" horiz-adv-x="466" 
d="M419 250q0 -119 -41.5 -192.5t-115.5 -73.5q-91 0 -119 105h-2v-89h-64v756h66v-345h1q12 46 43 73.5t75 27.5q75 0 116 -71.5t41 -190.5zM351 248q0 92 -26 149.5t-78 57.5q-51 0 -78.5 -58t-27.5 -149t27.5 -148.5t78.5 -57.5q52 0 78 57t26 149z" />
    <glyph glyph-name="c" unicode="c" horiz-adv-x="336" 
d="M328 35q-40 -51 -110 -51q-83 0 -127 72t-44 192q0 121 45 192.5t127 71.5q69 0 108 -47l-35 -48q-26 37 -72 37q-51 0 -78 -56.5t-27 -149.5t27 -147.5t81 -54.5q48 0 75 40z" />
    <glyph glyph-name="d" unicode="d" horiz-adv-x="466" 
d="M389 0h-64v89h-2q-28 -105 -119 -105q-73 0 -115 74t-42 192q0 119 40.5 190.5t115.5 71.5q44 0 75.5 -27t42.5 -73h2v344h66v-756zM325 248q0 91 -27.5 149t-78.5 58q-52 0 -78 -57t-26 -150q0 -92 26 -149t78 -57q51 0 78.5 57.5t27.5 148.5z" />
    <glyph glyph-name="e" unicode="e" horiz-adv-x="423" 
d="M381 234h-267q1 -86 29 -138t81 -52q63 0 92 75l50 -29q-42 -106 -144 -106q-82 0 -128.5 70t-46.5 193q0 118 47.5 191.5t126.5 73.5q83 0 121.5 -67t38.5 -175v-36zM314 289q0 77 -24 121.5t-71 44.5q-35 0 -60 -30.5t-34.5 -66t-9.5 -69.5h199z" />
    <glyph glyph-name="f" unicode="f" horiz-adv-x="237" 
d="M250 766l-5 -55q-15 5 -29 5q-69 0 -69 -115v-105h84v-54h-84v-442h-65v442h-67v54h67v105q0 79 31.5 125t95.5 46q23 0 41 -6z" />
    <glyph glyph-name="g" unicode="g" horiz-adv-x="466" 
d="M389 7q0 -247 -176 -247q-49 0 -91.5 22.5t-68.5 60.5l43 46q44 -69 119 -69q62 0 86 48.5t24 138.5v82h-2q-28 -105 -119 -105q-73 0 -115 74t-42 192q0 119 40.5 190.5t115.5 71.5q44 0 76 -27t43 -73h3v84h64v-489zM325 248q0 91 -27.5 149t-78.5 58q-52 0 -78 -57
t-26 -150q0 -92 26 -149t78 -57q51 0 78.5 57.5t27.5 148.5z" />
    <glyph glyph-name="h" unicode="h" horiz-adv-x="467" 
d="M394 0h-67v320q0 134 -77 134q-48 0 -77.5 -49.5t-29.5 -118.5v-286h-66v756h66v-354h2q13 49 46 79.5t79 30.5q38 0 64 -16.5t38.5 -46t17 -60t4.5 -69.5v-320z" />
    <glyph glyph-name="i" unicode="i" horiz-adv-x="220" 
d="M154 648q0 -21 -13 -34.5t-31 -13.5q-19 0 -31.5 13.5t-12.5 34.5q0 20 12.5 34t31.5 14t31.5 -14t12.5 -34zM143 0h-66v496h66v-496z" />
    <glyph glyph-name="j" unicode="j" horiz-adv-x="221" 
d="M155 648q0 -21 -12.5 -34.5t-31.5 -13.5q-18 0 -30.5 13.5t-12.5 34.5q0 20 12.5 34t30.5 14q19 0 31.5 -14t12.5 -34zM145 -73q0 -167 -127 -167q-20 0 -39 6l6 60q15 -5 29 -5q65 0 65 110v565h66v-569z" />
    <glyph glyph-name="k" unicode="k" horiz-adv-x="400" 
d="M395 0h-80l-170 250h-2v-250h-66v756h66v-479h2l160 219h79l-178 -230z" />
    <glyph glyph-name="l" unicode="l" horiz-adv-x="220" 
d="M143 0h-66v756h66v-756z" />
    <glyph glyph-name="m" unicode="m" horiz-adv-x="713" 
d="M147 399q12 51 44 82t80 31q93 0 112 -114h2q13 48 47 81t84 33q124 0 124 -192v-320h-67v320q0 134 -78 134q-47 0 -75 -49t-28 -119v-286h-66v320q0 27 -2.5 47.5t-10 42t-23.5 33t-40 11.5q-48 0 -76 -49t-28 -119v-286h-65v371q0 85 -4 125h64q4 -50 4 -97h2z" />
    <glyph glyph-name="n" unicode="n" horiz-adv-x="470" 
d="M397 0h-66v320q0 134 -78 134q-48 0 -77 -49t-29 -119v-286h-66v371q0 85 -4 125h64q4 -50 4 -97h2q14 51 47 82t79 31q38 0 64 -16.5t38.5 -46t17 -60t4.5 -69.5v-320z" />
    <glyph glyph-name="o" unicode="o" horiz-adv-x="440" 
d="M393 247q0 -118 -46.5 -190.5t-126.5 -72.5q-79 0 -126 72.5t-47 190.5q0 120 46 192.5t127 72.5q80 0 126.5 -72.5t46.5 -192.5zM325 248q0 92 -27 149.5t-78 57.5q-52 0 -78.5 -57.5t-26.5 -149.5t26.5 -148.5t78.5 -56.5t78.5 56.5t26.5 148.5z" />
    <glyph glyph-name="p" unicode="p" horiz-adv-x="466" 
d="M419 247q0 -119 -41 -191t-116 -72q-43 0 -74.5 27.5t-43.5 73.5h-1v-325h-66v736h64v-89h2q28 105 119 105q73 0 115 -73.5t42 -191.5zM351 249q0 92 -26 149t-78 57q-51 0 -78.5 -57.5t-27.5 -148.5t27.5 -149t78.5 -58q52 0 78 57t26 150z" />
    <glyph glyph-name="q" unicode="q" horiz-adv-x="466" 
d="M389 -240h-66v325h-2q-12 -46 -42.5 -73.5t-74.5 -27.5q-75 0 -116 72t-41 191q0 118 41.5 191.5t114.5 73.5q93 0 120 -104h2v88h64v-736zM325 249q0 91 -27.5 148.5t-78.5 57.5q-52 0 -78 -57t-26 -149t26 -149.5t78 -57.5q51 0 78.5 58t27.5 149z" />
    <glyph glyph-name="r" unicode="r" horiz-adv-x="274" 
d="M147 388q13 62 41.5 92.5t67.5 30.5q8 0 12 -1l-2 -68q-10 2 -16 2q-47 0 -75 -58t-28 -133v-253h-66v371q0 85 -4 125h64q4 -50 4 -108h2z" />
    <glyph glyph-name="s" unicode="s" horiz-adv-x="340" 
d="M305 453l-39 -43q-29 49 -83 49q-32 0 -52.5 -24t-20.5 -61t18.5 -56t61.5 -35q111 -43 111 -145q0 -72 -39.5 -113t-102.5 -41q-86 0 -135 72l40 43q38 -59 96 -59q35 0 56.5 25.5t21.5 67.5q0 23 -7 40t-23 29t-27.5 17.5t-35.5 15.5q-46 17 -72.5 47.5t-26.5 88.5
q0 61 39.5 101t97.5 40q80 0 122 -59z" />
    <glyph glyph-name="t" unicode="t" horiz-adv-x="250" 
d="M238 0q-26 -13 -60 -13q-95 0 -95 132v323h-65v54h64v137h65v-137h88v-54h-88v-311q0 -86 52 -86q18 0 36 8z" />
    <glyph glyph-name="u" unicode="u" horiz-adv-x="470" 
d="M73 496h66v-320q0 -134 78 -134q48 0 77 49t29 119v286h66v-371q0 -85 4 -125h-64q-4 50 -4 97h-2q-14 -51 -47 -82t-79 -31q-38 0 -64 16.5t-38.5 46t-17 60t-4.5 69.5v320z" />
    <glyph glyph-name="v" unicode="v" horiz-adv-x="375" 
d="M358 496l-130 -496h-78l-133 496h70l103 -426h2l98 426h68z" />
    <glyph glyph-name="w" unicode="w" horiz-adv-x="575" 
d="M551 496l-103 -496h-78l-84 403h-1l-85 -403h-75l-101 496h67l76 -420h1l87 420h64l88 -420h1l76 420h67z" />
    <glyph glyph-name="x" unicode="x" horiz-adv-x="378" 
d="M362 0h-75l-99 208l-98 -208h-73l132 261l-121 235h74l87 -187l86 187h72l-119 -234z" />
    <glyph glyph-name="y" unicode="y" horiz-adv-x="375" 
d="M358 496l-156 -601q-18 -68 -46.5 -101.5t-78.5 -33.5q-27 0 -51 8l9 59q18 -6 37 -6q27 0 42 19t25 56l22 86l-144 514h70l107 -419h2l95 419h67z" />
    <glyph glyph-name="z" unicode="z" horiz-adv-x="333" 
d="M303 0h-277v58l207 381h-191v57h260v-56l-206 -383h207v-57z" />
    <glyph glyph-name="braceleft" unicode="{" horiz-adv-x="250" 
d="M206 -156h-51q-100 0 -100 141v175q0 56 -14 77.5t-41 21.5v58q27 0 41 21.5t14 77.5v175q0 141 100 141h51v-54h-35q-54 0 -54 -90v-181q0 -105 -63 -118v-2q63 -13 63 -118v-181q0 -90 54 -90h35v-54z" />
    <glyph glyph-name="bar" unicode="|" horiz-adv-x="222" 
d="M81 750h60v-1000h-60v1000z" />
    <glyph glyph-name="braceright" unicode="}" horiz-adv-x="250" 
d="M44 -156v54h35q54 0 54 90v181q0 105 63 118v2q-63 13 -63 118v181q0 90 -54 90h-35v54h51q100 0 100 -141v-175q0 -56 14 -77.5t41 -21.5v-58q-27 0 -41 -21.5t-14 -77.5v-175q0 -141 -100 -141h-51z" />
    <glyph glyph-name="asciitilde" unicode="~" horiz-adv-x="666" 
d="M535 368l42 -40q-60 -93 -136 -93q-55 0 -111 36q-63 40 -103 40q-56 0 -96 -73l-42 40q19 27 34.5 44t43.5 33t58 16q57 0 110 -35q64 -41 103 -41q53 0 97 73z" />
    <glyph glyph-name="uni00A0" unicode="&#xa0;" horiz-adv-x="185" 
 />
    <glyph glyph-name="exclamdown" unicode="&#xa1;" horiz-adv-x="294" 
d="M113 294h67v-497h-67v497zM100 462q0 21 13.5 35.5t33.5 14.5q19 0 32.5 -14.5t13.5 -35.5t-13.5 -35.5t-32.5 -14.5q-20 0 -33.5 14.5t-13.5 35.5z" />
    <glyph glyph-name="cent" unicode="&#xa2;" horiz-adv-x="470" 
d="M389 49q-38 -57 -112 -59v-62h-39v62q-80 5 -122.5 75t-42.5 182q0 111 43 182t122 77v67h39v-67q69 -1 111 -45l-31 -51q-31 34 -80 37v-400q50 1 83 48zM239 49v398q-53 -5 -79 -61t-26 -139t26 -137.5t79 -60.5z" />
    <glyph glyph-name="sterling" unicode="&#xa3;" horiz-adv-x="470" 
d="M427 684l-37 -50q-29 31 -78 31q-113 0 -113 -166v-105h135v-52h-135v-281h203v-61h-366v61h95v281h-87v52h87v113q0 93 45 156.5t134 63.5q70 0 117 -43z" />
    <glyph glyph-name="currency" unicode="&#xa4;" horiz-adv-x="860" 
d="M636 468q51 -67 51 -159q0 -96 -55 -164q15 -16 46.5 -47t47.5 -46q-7 -7 -21 -21.5t-22 -22.5q-11 11 -30 30.5t-35 35t-30 29.5q-67 -51 -157 -51t-158 53l-97 -97q-28 30 -43 44l96 96q-53 64 -53 161q0 91 50 157q-31 30 -93 92q15 14 44 43l92 -92q70 55 162 55
q93 0 160 -54q14 13 29 28.5t33.5 34l28.5 28.5q15 -14 44 -43zM431 496q-81 0 -131.5 -54t-50.5 -133q0 -80 50.5 -134.5t131.5 -54.5t131.5 54.5t50.5 134.5q0 79 -50.5 133t-131.5 54z" />
    <glyph glyph-name="yen" unicode="&#xa5;" horiz-adv-x="470" 
d="M443 708l-148 -324h116v-48h-144v-111h144v-48h-144v-177h-67v177h-143v48h143v111h-143v49h119l-150 323h71l139 -323l138 323h69z" />
    <glyph glyph-name="brokenbar" unicode="&#xa6;" horiz-adv-x="222" 
d="M81 675h60v-350h-60v350zM81 175h60v-350h-60v350z" />
    <glyph glyph-name="section" unicode="&#xa7;" horiz-adv-x="480" 
d="M356 282q0 22 -7.5 39t-24 30.5t-30.5 21.5t-40 20l-40 19q-37 -7 -64.5 -33.5t-27.5 -71.5t24 -68t72 -42l45 -18q38 5 65.5 31.5t27.5 71.5zM185 148q-66 28 -95.5 61.5t-29.5 94.5q0 53 32 88.5t74 48.5q-42 23 -62.5 52t-20.5 77q0 71 50 114.5t125 43.5
q103 0 150 -70l-42 -40q-32 54 -109 54q-44 0 -76.5 -27t-32.5 -77q0 -22 7 -38t25 -29.5t31.5 -21t42.5 -21.5l30 -14q67 -32 99.5 -67.5t32.5 -90.5t-31 -90t-76 -46q85 -43 85 -127q0 -79 -52 -120.5t-124 -41.5q-109 0 -170 74l40 46q50 -63 130 -63q48 0 79.5 26
t31.5 75q0 41 -27 66t-82 48z" />
    <glyph glyph-name="dieresis" unicode="&#xa8;" 
d="M226 648q0 -19 -12 -32t-30 -13q-17 0 -29.5 13t-12.5 32t12.5 32t29.5 13q18 0 30 -13t12 -32zM83 648q0 -19 -12.5 -32t-29.5 -13q-19 0 -30.5 12.5t-11.5 32.5q0 19 12 32t30 13q17 0 29.5 -13t12.5 -32z" />
    <glyph glyph-name="copyright" unicode="&#xa9;" horiz-adv-x="640" 
d="M394 235l41 -45q-37 -60 -104 -60q-71 0 -112 62.5t-41 164.5q0 103 40.5 165t111.5 62q70 0 104 -55l-40 -45q-20 39 -66 39q-40 0 -61.5 -46t-21.5 -120q0 -73 21.5 -118.5t61.5 -45.5q43 0 66 42zM320 -20q-127 0 -205.5 102t-78.5 273t78.5 273t205.5 102t205.5 -102
t78.5 -273t-78.5 -273t-205.5 -102zM320 686q-106 0 -169 -92.5t-63 -238.5t63 -238.5t169 -92.5t169 92.5t63 238.5t-63 238.5t-169 92.5z" />
    <glyph glyph-name="ordfeminine" unicode="&#xaa;" horiz-adv-x="300" 
d="M242 411h-41q-4 30 -4 49h-1q-14 -58 -71 -58q-29 0 -51 22t-22 67q0 58 36 82t85 24h20v13q0 67 -50 67q-33 0 -55 -30l-26 31q32 43 86 43q50 0 70.5 -31.5t20.5 -94.5v-122q0 -41 3 -62zM194 541v17h-22q-72 0 -72 -61q0 -26 11 -39.5t28 -13.5q28 0 41.5 30t13.5 67z
" />
    <glyph glyph-name="guillemotleft" unicode="&#xab;" horiz-adv-x="348" 
d="M34 249l101 213l45 -25l-88 -188l88 -188l-45 -25zM168 249l101 213l45 -25l-88 -188l88 -188l-45 -25z" />
    <glyph glyph-name="logicalnot" unicode="&#xac;" horiz-adv-x="666" 
d="M588 408v-278h-60v218h-450v60h510z" />
    <glyph glyph-name="uni00AD" unicode="&#xad;" horiz-adv-x="226" 
d="M188 235h-150v56h150v-56z" />
    <glyph glyph-name="registered" unicode="&#xae;" horiz-adv-x="480" 
d="M327 372h-44l-38 106h-32v-106h-40v255h74q32 0 52.5 -18.5t20.5 -56.5q0 -49 -37 -66zM278 550q0 40 -37 40h-28v-83h28q16 0 26.5 11t10.5 32zM240 274q-76 0 -123 61t-47 164t47 164t123 61t123 -61t47 -164t-47 -164t-123 -61zM240 698q-64 0 -101.5 -55.5
t-37.5 -143.5t37.5 -143.5t101.5 -55.5t101.5 55.5t37.5 143.5t-37.5 143.5t-101.5 55.5z" />
    <glyph glyph-name="macron" unicode="&#xaf;" 
d="M237 614h-249v52h249v-52z" />
    <glyph glyph-name="degree" unicode="&#xb0;" horiz-adv-x="320" 
d="M278 566q0 -64 -32 -111.5t-86 -47.5t-86.5 47t-32.5 112t32 111t87 46q54 0 86 -46t32 -111zM235 566q0 49 -21.5 82.5t-53.5 33.5q-33 0 -54 -33.5t-21 -82.5q0 -51 21 -84.5t54 -33.5q32 0 53.5 33.5t21.5 84.5z" />
    <glyph glyph-name="plusminus" unicode="&#xb1;" horiz-adv-x="666" 
d="M78 347v60h225v156h60v-156h225v-60h-225v-151h-60v151h-225zM78 48v60h510v-60h-510z" />
    <glyph glyph-name="twosuperior" unicode="&#xb2;" horiz-adv-x="314" 
d="M280 600q0 -26 -11 -52.5t-22.5 -43.5t-36.5 -50l-98 -126h161v-53h-230v55l127 165q46 59 46 102q0 31 -14.5 51t-41.5 20q-24 0 -40.5 -17t-20.5 -48l-61 6q9 54 42 82.5t84 28.5q55 0 85.5 -33.5t30.5 -86.5z" />
    <glyph glyph-name="threesuperior" unicode="&#xb3;" horiz-adv-x="314" 
d="M291 399q0 -55 -35.5 -92.5t-92.5 -37.5q-48 0 -81 23.5t-46 68.5l55 14q19 -54 70 -54q33 0 51 24.5t18 55.5q0 38 -22 58t-59 20h-16v48h17q32 0 51 20t19 54q0 27 -15 48t-44 21q-39 0 -56 -42l-55 16q14 38 45.5 58t68.5 20q51 0 83 -31t32 -82q0 -38 -18 -67
t-49 -37v-1q36 -8 57.5 -36t21.5 -69z" />
    <glyph glyph-name="acute" unicode="&#xb4;" 
d="M225 713l-106 -144h-56l90 144h72z" />
    <glyph glyph-name="mu" unicode="&#xb5;" horiz-adv-x="556" 
d="M72 -228v696h66v-259q0 -88 28 -124.5t99 -36.5q62 0 102 48t40 132v240h66v-365q0 -18 5 -103h-71v76h-2q-22 -36 -67 -62t-90 -26q-69 0 -110 29v-245h-66z" />
    <glyph glyph-name="paragraph" unicode="&#xb6;" horiz-adv-x="600" 
d="M513 708v-834h-66v780h-124v-780h-66v442q-91 0 -150 53.5t-59 132.5q0 97 61 151.5t167 54.5h237z" />
    <glyph glyph-name="periodcentered" unicode="&#xb7;" horiz-adv-x="217" 
d="M155 260q0 -22 -13.5 -36t-33.5 -14t-33 14t-13 36q0 20 13.5 35t32.5 15t33 -15t14 -35z" />
    <glyph glyph-name="cedilla" unicode="&#xb8;" 
d="M145 0l-43 -75q12 4 32 4q30 0 52.5 -18t22.5 -52q0 -46 -32 -66.5t-76 -20.5q-50 0 -86 18l15 36q28 -14 66 -14q19 0 38.5 11t19.5 33q0 39 -49 39q-21 0 -40 -8l-16 15l57 98h39z" />
    <glyph glyph-name="onesuperior" unicode="&#xb9;" horiz-adv-x="314" 
d="M217 274h-60v368l-85 -57l-29 45l118 78h56v-434z" />
    <glyph glyph-name="ordmasculine" unicode="&#xba;" horiz-adv-x="300" 
d="M261 561q0 -72 -29.5 -116t-80.5 -44q-50 0 -79 44t-29 116q0 73 29 117t79 44q51 0 80.5 -44t29.5 -117zM208 562q0 51 -14.5 83t-42.5 32t-42 -31.5t-14 -83.5t14 -84t42 -32q57 0 57 116z" />
    <glyph glyph-name="guillemotright" unicode="&#xbb;" horiz-adv-x="348" 
d="M314 249l-101 -213l-45 25l88 188l-88 188l45 25zM180 249l-101 -213l-45 25l88 188l-88 188l45 25z" />
    <glyph glyph-name="onequarter" unicode="&#xbc;" horiz-adv-x="728" 
d="M677 98h-52v-98h-56v98h-163v54l139 282h80v-285h52v-51zM570 149v228h-1l-107 -228h108zM530 722l-277 -745l-49 15l278 745zM217 274h-60v368l-85 -57l-29 45l118 78h56v-434z" />
    <glyph glyph-name="onehalf" unicode="&#xbd;" horiz-adv-x="728" 
d="M689 326q0 -26 -11 -53t-22 -43t-37 -51l-100 -130h163v-49h-226v51l126 166q47 60 47 106q0 32 -14.5 52.5t-43.5 20.5q-25 0 -42 -17t-21 -49l-56 6q9 53 41.5 80.5t81.5 27.5q54 0 84 -33.5t30 -84.5zM530 722l-277 -745l-49 15l278 745zM217 274h-60v368l-85 -57
l-29 45l118 78h56v-434z" />
    <glyph glyph-name="threequarters" unicode="&#xbe;" horiz-adv-x="728" 
d="M677 98h-52v-98h-56v98h-163v54l139 282h80v-285h52v-51zM570 149v228h-1l-107 -228h108zM291 399q0 -55 -35.5 -92.5t-92.5 -37.5q-48 0 -81 23.5t-46 68.5l55 14q19 -54 70 -54q33 0 51 24.5t18 55.5q0 38 -22 58t-59 20h-16v48h17q32 0 51 20t19 54q0 27 -15 48
t-44 21q-39 0 -56 -42l-55 16q14 38 45.5 58t68.5 20q51 0 83 -31t32 -82q0 -38 -18 -67t-49 -37v-1q36 -8 57.5 -36t21.5 -69zM530 722l-277 -745l-49 15l278 745z" />
    <glyph glyph-name="questiondown" unicode="&#xbf;" horiz-adv-x="368" 
d="M19 -48q0 39 13 72t27 51.5t41 45.5q33 35 44.5 63t11.5 69v39h58v-49q0 -79 -59 -146l-22 -26q-24 -28 -36 -52.5t-12 -60.5q0 -56 24 -87t67 -31q42 0 68.5 33t33.5 81l58 -11q-12 -75 -54.5 -118.5t-112.5 -43.5q-69 0 -109.5 45t-40.5 126zM133 462q0 21 13.5 35.5
t32.5 14.5q20 0 33.5 -14.5t13.5 -35.5t-13.5 -35.5t-33.5 -14.5q-19 0 -32.5 14.5t-13.5 35.5z" />
    <glyph glyph-name="Agrave" unicode="&#xc0;" horiz-adv-x="464" 
d="M457 0h-73l-43 177h-218l-45 -177h-71l180 708h95zM331 233l-96 412h-4l-98 -412h198zM274 764h-56l-106 144h72z" />
    <glyph glyph-name="Aacute" unicode="&#xc1;" horiz-adv-x="464" 
d="M457 0h-73l-43 177h-218l-45 -177h-71l180 708h95zM331 233l-96 412h-4l-98 -412h198zM363 908l-106 -144h-56l90 144h72z" />
    <glyph glyph-name="Acircumflex" unicode="&#xc2;" horiz-adv-x="464" 
d="M457 0h-73l-43 177h-218l-45 -177h-71l180 708h95zM331 233l-96 412h-4l-98 -412h198zM372 764h-66l-72 105l-72 -105h-65l103 144h70z" />
    <glyph glyph-name="Atilde" unicode="&#xc3;" horiz-adv-x="464" 
d="M457 0h-73l-43 177h-218l-45 -177h-71l180 708h95zM331 233l-96 412h-4l-98 -412h198zM364 880q-3 -48 -21.5 -73t-47.5 -25q-28 0 -63 24q-36 24 -53 24q-26 0 -34 -49h-37q3 46 21.5 73.5t47.5 27.5q26 0 63 -24t54 -24q15 0 22 10t11 36h37z" />
    <glyph glyph-name="Adieresis" unicode="&#xc4;" horiz-adv-x="464" 
d="M457 0h-73l-43 177h-218l-45 -177h-71l180 708h95zM331 233l-96 412h-4l-98 -412h198zM207 843q0 -19 -12.5 -32t-29.5 -13q-19 0 -30.5 12.5t-11.5 32.5q0 19 12 32t30 13q17 0 29.5 -13t12.5 -32zM350 843q0 -19 -12 -32t-30 -13q-17 0 -29.5 13t-12.5 32t12.5 32
t29.5 13q18 0 30 -13t12 -32z" />
    <glyph glyph-name="Aring" unicode="&#xc5;" horiz-adv-x="464" 
d="M457 0h-73l-43 177h-218l-45 -177h-71l180 708h95zM331 233l-96 412h-4l-98 -412h198zM329 851q0 -43 -27 -72t-67 -29t-66 29t-26 72q0 44 26 73t66 29t67 -29t27 -73zM291 851q0 28 -15 47.5t-41 19.5q-25 0 -40 -19.5t-15 -47.5t15 -47t40 -19q26 0 41 19t15 47z" />
    <glyph glyph-name="AE" unicode="&#xc6;" horiz-adv-x="628" 
d="M585 0h-279v174h-177l-62 -174h-74l260 708h324v-62h-206v-249h191v-59h-191v-275h214v-63zM306 231v416h-9l-149 -416h158z" />
    <glyph glyph-name="Ccedilla" unicode="&#xc7;" horiz-adv-x="479" 
d="M461 80q-58 -97 -168 -97l-33 -58q12 4 32 4q30 0 52.5 -18t22.5 -52q0 -46 -32 -66.5t-76 -20.5q-50 0 -86 18l15 36q28 -14 66 -14q19 0 38.5 11t19.5 33q0 39 -49 39q-21 0 -40 -8l-16 15l49 84q-96 17 -151 118t-55 250q0 163 65.5 267t177.5 104q111 0 166 -87
l-45 -46q-44 69 -118 69q-84 0 -128.5 -86.5t-44.5 -220.5q0 -132 45.5 -219.5t128.5 -87.5q37 0 68.5 21t51.5 57z" />
    <glyph glyph-name="Egrave" unicode="&#xc8;" horiz-adv-x="418" 
d="M376 0h-295v708h285v-62h-217v-249h203v-59h-203v-275h227v-63zM280 764h-56l-106 144h72z" />
    <glyph glyph-name="Eacute" unicode="&#xc9;" horiz-adv-x="418" 
d="M376 0h-295v708h285v-62h-217v-249h203v-59h-203v-275h227v-63zM338 908l-106 -144h-56l90 144h72z" />
    <glyph glyph-name="Ecircumflex" unicode="&#xca;" horiz-adv-x="418" 
d="M376 0h-295v708h285v-62h-217v-249h203v-59h-203v-275h227v-63zM361 764h-66l-72 105l-72 -105h-65l103 144h70z" />
    <glyph glyph-name="Edieresis" unicode="&#xcb;" horiz-adv-x="418" 
d="M376 0h-295v708h285v-62h-217v-249h203v-59h-203v-275h227v-63zM194 843q0 -19 -12.5 -32t-29.5 -13q-19 0 -30.5 12.5t-11.5 32.5q0 19 12 32t30 13q17 0 29.5 -13t12.5 -32zM337 843q0 -19 -12 -32t-30 -13q-17 0 -29.5 13t-12.5 32t12.5 32t29.5 13q18 0 30 -13
t12 -32z" />
    <glyph glyph-name="Igrave" unicode="&#xcc;" horiz-adv-x="232" 
d="M151 0h-70v708h70v-708zM150 764h-56l-106 144h72z" />
    <glyph glyph-name="Iacute" unicode="&#xcd;" horiz-adv-x="232" 
d="M151 0h-70v708h70v-708zM245 908l-106 -144h-56l90 144h72z" />
    <glyph glyph-name="Icircumflex" unicode="&#xce;" horiz-adv-x="232" 
d="M151 0h-70v708h70v-708zM254 764h-66l-72 105l-72 -105h-65l103 144h70z" />
    <glyph glyph-name="Idieresis" unicode="&#xcf;" horiz-adv-x="232" 
d="M151 0h-70v708h70v-708zM88 843q0 -19 -12.5 -32t-29.5 -13q-19 0 -30.5 12.5t-11.5 32.5q0 19 12 32t30 13q17 0 29.5 -13t12.5 -32zM231 843q0 -19 -12 -32t-30 -13q-17 0 -29.5 13t-12.5 32t12.5 32t29.5 13q18 0 30 -13t12 -32z" />
    <glyph glyph-name="Eth" unicode="&#xd0;" horiz-adv-x="540" 
d="M488 354q0 -171 -69 -262.5t-188 -91.5h-150v341h-62v49h62v318h150q119 0 188 -91.5t69 -262.5zM422 354q0 144 -53.5 219t-139.5 75h-80v-258h142v-49h-142v-281h80q86 0 139.5 75t53.5 219z" />
    <glyph glyph-name="Ntilde" unicode="&#xd1;" horiz-adv-x="561" 
d="M480 0h-84l-247 589h-3v-589h-65v708h87l245 -589h3v589h64v-708zM409 880q-3 -48 -21.5 -73t-47.5 -25q-28 0 -63 24q-36 24 -53 24q-26 0 -34 -49h-37q3 46 21.5 73.5t47.5 27.5q26 0 63 -24t54 -24q15 0 22 10t11 36h37z" />
    <glyph glyph-name="Ograve" unicode="&#xd2;" horiz-adv-x="570" 
d="M519 355q0 -168 -62.5 -270t-170.5 -102q-109 0 -172 102t-63 270t62 269t173 101q108 0 170.5 -101.5t62.5 -268.5zM446 355q0 134 -42 220t-118 86q-79 0 -120.5 -85.5t-41.5 -220.5t42 -221.5t120 -86.5q77 0 118.5 87t41.5 221zM346 764h-56l-106 144h72z" />
    <glyph glyph-name="Oacute" unicode="&#xd3;" horiz-adv-x="570" 
d="M519 355q0 -168 -62.5 -270t-170.5 -102q-109 0 -172 102t-63 270t62 269t173 101q108 0 170.5 -101.5t62.5 -268.5zM446 355q0 134 -42 220t-118 86q-79 0 -120.5 -85.5t-41.5 -220.5t42 -221.5t120 -86.5q77 0 118.5 87t41.5 221zM390 908l-106 -144h-56l90 144h72z
" />
    <glyph glyph-name="Ocircumflex" unicode="&#xd4;" horiz-adv-x="570" 
d="M519 355q0 -168 -62.5 -270t-170.5 -102q-109 0 -172 102t-63 270t62 269t173 101q108 0 170.5 -101.5t62.5 -268.5zM446 355q0 134 -42 220t-118 86q-79 0 -120.5 -85.5t-41.5 -220.5t42 -221.5t120 -86.5q77 0 118.5 87t41.5 221zM423 764h-66l-72 105l-72 -105h-65
l103 144h70z" />
    <glyph glyph-name="Otilde" unicode="&#xd5;" horiz-adv-x="570" 
d="M519 355q0 -168 -62.5 -270t-170.5 -102q-109 0 -172 102t-63 270t62 269t173 101q108 0 170.5 -101.5t62.5 -268.5zM446 355q0 134 -42 220t-118 86q-79 0 -120.5 -85.5t-41.5 -220.5t42 -221.5t120 -86.5q77 0 118.5 87t41.5 221zM413 880q-3 -48 -21.5 -73t-47.5 -25
q-28 0 -63 24q-36 24 -53 24q-26 0 -34 -49h-37q3 46 21.5 73.5t47.5 27.5q26 0 63 -24t54 -24q15 0 22 10t11 36h37z" />
    <glyph glyph-name="Odieresis" unicode="&#xd6;" horiz-adv-x="570" 
d="M519 355q0 -168 -62.5 -270t-170.5 -102q-109 0 -172 102t-63 270t62 269t173 101q108 0 170.5 -101.5t62.5 -268.5zM446 355q0 134 -42 220t-118 86q-79 0 -120.5 -85.5t-41.5 -220.5t42 -221.5t120 -86.5q77 0 118.5 87t41.5 221zM256 843q0 -19 -12.5 -32t-29.5 -13
q-19 0 -30.5 12.5t-11.5 32.5q0 19 12 32t30 13q17 0 29.5 -13t12.5 -32zM399 843q0 -19 -12 -32t-30 -13q-17 0 -29.5 13t-12.5 32t12.5 32t29.5 13q18 0 30 -13t12 -32z" />
    <glyph glyph-name="multiply" unicode="&#xd7;" horiz-adv-x="666" 
d="M174 505l159 -159l158 159l43 -42l-159 -160l159 -159l-43 -43l-158 159l-159 -159l-42 43l159 159l-159 160z" />
    <glyph glyph-name="Oslash" unicode="&#xd8;" horiz-adv-x="569" 
d="M497 719l-45 -89q67 -103 67 -275q0 -168 -62.5 -270t-170.5 -102q-82 0 -139 59l-37 -75l-44 21l50 94q-65 101 -65 273q0 168 62 269t173 101q80 0 135 -57l34 72zM446 355q0 120 -34 203l-230 -452q41 -59 104 -59q77 0 118.5 87t41.5 221zM124 355q0 -125 34 -206
l228 455q-40 57 -100 57q-79 0 -120.5 -85.5t-41.5 -220.5z" />
    <glyph glyph-name="Ugrave" unicode="&#xd9;" horiz-adv-x="550" 
d="M477 248q0 -121 -48 -193t-155 -72q-201 0 -201 265v460h70v-451q0 -210 132 -210t132 210v451h70v-460zM326 764h-56l-106 144h72z" />
    <glyph glyph-name="Uacute" unicode="&#xda;" horiz-adv-x="550" 
d="M477 248q0 -121 -48 -193t-155 -72q-201 0 -201 265v460h70v-451q0 -210 132 -210t132 210v451h70v-460zM387 908l-106 -144h-56l90 144h72z" />
    <glyph glyph-name="Ucircumflex" unicode="&#xdb;" horiz-adv-x="550" 
d="M477 248q0 -121 -48 -193t-155 -72q-201 0 -201 265v460h70v-451q0 -210 132 -210t132 210v451h70v-460zM413 764h-66l-72 105l-72 -105h-65l103 144h70z" />
    <glyph glyph-name="Udieresis" unicode="&#xdc;" horiz-adv-x="550" 
d="M477 248q0 -121 -48 -193t-155 -72q-201 0 -201 265v460h70v-451q0 -210 132 -210t132 210v451h70v-460zM247 843q0 -19 -12.5 -32t-29.5 -13q-19 0 -30.5 12.5t-11.5 32.5q0 19 12 32t30 13q17 0 29.5 -13t12.5 -32zM390 843q0 -19 -12 -32t-30 -13q-17 0 -29.5 13
t-12.5 32t12.5 32t29.5 13q18 0 30 -13t12 -32z" />
    <glyph glyph-name="Yacute" unicode="&#xdd;" horiz-adv-x="422" 
d="M422 708l-178 -417v-291h-68v291l-176 417h76l134 -345l137 345h75zM329 908l-106 -144h-56l90 144h72z" />
    <glyph glyph-name="Thorn" unicode="&#xde;" horiz-adv-x="486" 
d="M94 0v708h69v-155h69q99 0 152.5 -47.5t53.5 -141.5t-54.5 -142t-153.5 -48h-67v-174h-69zM163 492v-258h58q147 0 147 130q0 128 -147 128h-58z" />
    <glyph glyph-name="germandbls" unicode="&#xdf;" horiz-adv-x="452" 
d="M409 215q0 -98 -42.5 -160t-131.5 -62q-26 0 -48 5v56q20 -4 37 -4q62 0 91.5 47t29.5 121q0 80 -34.5 126.5t-98.5 46.5h-14v57h14q49 0 80.5 38.5t31.5 99.5q0 51 -22 87.5t-67 36.5q-99 0 -99 -183v-527h-65v527q0 241 165 241q73 0 111.5 -50t38.5 -129
q0 -66 -32.5 -110.5t-79.5 -54.5v-1q60 -9 97.5 -62.5t37.5 -145.5z" />
    <glyph glyph-name="agrave" unicode="&#xe0;" horiz-adv-x="404" 
d="M342 0h-57q-3 32 -3 93h-2q-25 -106 -120 -106q-47 0 -83 37t-36 109q0 51 18.5 86.5t49.5 53t62 24.5t66 7h39v26q0 63 -23.5 94t-65.5 31q-55 0 -93 -53l-35 41q22 32 59 50.5t75 18.5q76 0 110 -50t34 -150v-206q0 -54 5 -106zM277 218v34h-40q-133 0 -133 -113
q0 -48 21.5 -73t51.5 -25q36 0 59.5 29.5t32 67.5t8.5 80zM236 569h-56l-106 144h72z" />
    <glyph glyph-name="aacute" unicode="&#xe1;" horiz-adv-x="404" 
d="M342 0h-57q-3 32 -3 93h-2q-25 -106 -120 -106q-47 0 -83 37t-36 109q0 51 18.5 86.5t49.5 53t62 24.5t66 7h39v26q0 63 -23.5 94t-65.5 31q-55 0 -93 -53l-35 41q22 32 59 50.5t75 18.5q76 0 110 -50t34 -150v-206q0 -54 5 -106zM277 218v34h-40q-133 0 -133 -113
q0 -48 21.5 -73t51.5 -25q36 0 59.5 29.5t32 67.5t8.5 80zM324 713l-106 -144h-56l90 144h72z" />
    <glyph glyph-name="acircumflex" unicode="&#xe2;" horiz-adv-x="404" 
d="M342 0h-57q-3 32 -3 93h-2q-25 -106 -120 -106q-47 0 -83 37t-36 109q0 51 18.5 86.5t49.5 53t62 24.5t66 7h39v26q0 63 -23.5 94t-65.5 31q-55 0 -93 -53l-35 41q22 32 59 50.5t75 18.5q76 0 110 -50t34 -150v-206q0 -54 5 -106zM277 218v34h-40q-133 0 -133 -113
q0 -48 21.5 -73t51.5 -25q36 0 59.5 29.5t32 67.5t8.5 80zM336 569h-66l-72 105l-72 -105h-65l103 144h70z" />
    <glyph glyph-name="atilde" unicode="&#xe3;" horiz-adv-x="404" 
d="M342 0h-57q-3 32 -3 93h-2q-25 -106 -120 -106q-47 0 -83 37t-36 109q0 51 18.5 86.5t49.5 53t62 24.5t66 7h39v26q0 63 -23.5 94t-65.5 31q-55 0 -93 -53l-35 41q22 32 59 50.5t75 18.5q76 0 110 -50t34 -150v-206q0 -54 5 -106zM277 218v34h-40q-133 0 -133 -113
q0 -48 21.5 -73t51.5 -25q36 0 59.5 29.5t32 67.5t8.5 80zM329 685q-3 -48 -21.5 -73t-47.5 -25q-28 0 -63 24q-36 24 -53 24q-26 0 -34 -49h-37q3 46 21.5 73.5t47.5 27.5q26 0 63 -24t54 -24q15 0 22 10t11 36h37z" />
    <glyph glyph-name="adieresis" unicode="&#xe4;" horiz-adv-x="404" 
d="M342 0h-57q-3 32 -3 93h-2q-25 -106 -120 -106q-47 0 -83 37t-36 109q0 51 18.5 86.5t49.5 53t62 24.5t66 7h39v26q0 63 -23.5 94t-65.5 31q-55 0 -93 -53l-35 41q22 32 59 50.5t75 18.5q76 0 110 -50t34 -150v-206q0 -54 5 -106zM277 218v34h-40q-133 0 -133 -113
q0 -48 21.5 -73t51.5 -25q36 0 59.5 29.5t32 67.5t8.5 80zM315 648q0 -19 -12 -32t-30 -13q-17 0 -29.5 13t-12.5 32t12.5 32t29.5 13q18 0 30 -13t12 -32zM172 648q0 -19 -12.5 -32t-29.5 -13q-19 0 -30.5 12.5t-11.5 32.5q0 19 12 32t30 13q17 0 29.5 -13t12.5 -32z" />
    <glyph glyph-name="aring" unicode="&#xe5;" horiz-adv-x="404" 
d="M342 0h-57q-3 32 -3 93h-2q-25 -106 -120 -106q-47 0 -83 37t-36 109q0 51 18.5 86.5t49.5 53t62 24.5t66 7h39v26q0 63 -23.5 94t-65.5 31q-55 0 -93 -53l-35 41q22 32 59 50.5t75 18.5q76 0 110 -50t34 -150v-206q0 -54 5 -106zM277 218v34h-40q-133 0 -133 -113
q0 -48 21.5 -73t51.5 -25q36 0 59.5 29.5t32 67.5t8.5 80zM294 656q0 -43 -27 -72t-67 -29t-66 29t-26 72q0 44 26 73t66 29t67 -29t27 -73zM256 656q0 28 -15 47.5t-41 19.5q-25 0 -40 -19.5t-15 -47.5t15 -47t40 -19q26 0 41 19t15 47z" />
    <glyph glyph-name="ae" unicode="&#xe6;" horiz-adv-x="649" 
d="M607 234h-267q1 -86 29 -138t81 -52q63 0 92 75l50 -29q-42 -106 -144 -106q-57 0 -93 33t-48 95q-10 -61 -47 -94.5t-97 -33.5q-49 0 -85.5 36.5t-36.5 108.5q0 38 13 67.5t32.5 46.5t46.5 28t52 14.5t52 3.5h39v28q0 65 -24 101.5t-65 36.5q-55 0 -93 -53l-35 41
q22 32 59 50.5t75 18.5q106 0 122 -113q32 113 132 113q83 0 121.5 -66.5t38.5 -174.5v-37zM277 207v29h-40q-133 0 -133 -101q0 -48 21.5 -71t51.5 -23q52 0 76 49.5t24 116.5zM341 289h199q0 77 -24 121.5t-71 44.5q-35 0 -60 -30.5t-34.5 -66t-9.5 -69.5z" />
    <glyph glyph-name="ccedilla" unicode="&#xe7;" horiz-adv-x="336" 
d="M328 35q-37 -48 -103 -51l-34 -59q12 4 32 4q30 0 52.5 -18t22.5 -52q0 -46 -32 -66.5t-76 -20.5q-50 0 -86 18l15 36q28 -14 66 -14q19 0 38.5 11t19.5 33q0 39 -49 39q-21 0 -40 -8l-16 15l49 85q-68 13 -104 83t-36 178q0 121 45 192.5t127 71.5q69 0 108 -47l-35 -48
q-26 37 -72 37q-51 0 -78 -56.5t-27 -149.5t27 -147.5t81 -54.5q48 0 75 40z" />
    <glyph glyph-name="egrave" unicode="&#xe8;" horiz-adv-x="423" 
d="M381 234h-267q1 -86 29 -138t81 -52q63 0 92 75l50 -29q-42 -106 -144 -106q-82 0 -128.5 70t-46.5 193q0 118 47.5 191.5t126.5 73.5q83 0 121.5 -67t38.5 -175v-36zM314 289q0 77 -24 121.5t-71 44.5q-35 0 -60 -30.5t-34.5 -66t-9.5 -69.5h199zM271 569h-56l-106 144
h72z" />
    <glyph glyph-name="eacute" unicode="&#xe9;" horiz-adv-x="423" 
d="M381 234h-267q1 -86 29 -138t81 -52q63 0 92 75l50 -29q-42 -106 -144 -106q-82 0 -128.5 70t-46.5 193q0 118 47.5 191.5t126.5 73.5q83 0 121.5 -67t38.5 -175v-36zM314 289q0 77 -24 121.5t-71 44.5q-35 0 -60 -30.5t-34.5 -66t-9.5 -69.5h199zM337 713l-106 -144h-56
l90 144h72z" />
    <glyph glyph-name="ecircumflex" unicode="&#xea;" horiz-adv-x="423" 
d="M381 234h-267q1 -86 29 -138t81 -52q63 0 92 75l50 -29q-42 -106 -144 -106q-82 0 -128.5 70t-46.5 193q0 118 47.5 191.5t126.5 73.5q83 0 121.5 -67t38.5 -175v-36zM314 289q0 77 -24 121.5t-71 44.5q-35 0 -60 -30.5t-34.5 -66t-9.5 -69.5h199zM364 569h-66l-72 105
l-72 -105h-65l103 144h70z" />
    <glyph glyph-name="edieresis" unicode="&#xeb;" horiz-adv-x="423" 
d="M381 234h-267q1 -86 29 -138t81 -52q63 0 92 75l50 -29q-42 -106 -144 -106q-82 0 -128.5 70t-46.5 193q0 118 47.5 191.5t126.5 73.5q83 0 121.5 -67t38.5 -175v-36zM314 289q0 77 -24 121.5t-71 44.5q-35 0 -60 -30.5t-34.5 -66t-9.5 -69.5h199zM338 648q0 -19 -12 -32
t-30 -13q-17 0 -29.5 13t-12.5 32t12.5 32t29.5 13q18 0 30 -13t12 -32zM195 648q0 -19 -12.5 -32t-29.5 -13q-19 0 -30.5 12.5t-11.5 32.5q0 19 12 32t30 13q17 0 29.5 -13t12.5 -32z" />
    <glyph glyph-name="igrave" unicode="&#xec;" horiz-adv-x="220" 
d="M143 0h-66v496h66v-496zM143 569h-56l-106 144h72z" />
    <glyph glyph-name="iacute" unicode="&#xed;" horiz-adv-x="220" 
d="M143 0h-66v496h66v-496zM238 713l-106 -144h-56l90 144h72z" />
    <glyph glyph-name="icircumflex" unicode="&#xee;" horiz-adv-x="220" 
d="M143 0h-66v496h66v-496zM248 569h-66l-72 105l-72 -105h-65l103 144h70z" />
    <glyph glyph-name="idieresis" unicode="&#xef;" horiz-adv-x="220" 
d="M143 0h-66v496h66v-496zM224 648q0 -19 -12 -32t-30 -13q-17 0 -29.5 13t-12.5 32t12.5 32t29.5 13q18 0 30 -13t12 -32zM81 648q0 -19 -12.5 -32t-29.5 -13q-19 0 -30.5 12.5t-11.5 32.5q0 19 12 32t30 13q17 0 29.5 -13t12.5 -32z" />
    <glyph glyph-name="eth" unicode="&#xf0;" horiz-adv-x="440" 
d="M391 247q0 -118 -47 -191t-125 -73t-125.5 73t-47.5 192q0 116 45.5 187.5t122.5 71.5q42 0 68 -28l2 2q-36 91 -95 160l-96 -57l-28 31l97 57q-32 38 -79 73l52 29q46 -38 79 -78l88 52l31 -30l-94 -54q57 -70 104.5 -184.5t47.5 -232.5zM326 248q0 92 -27.5 150.5
t-78.5 58.5t-78.5 -58t-27.5 -151q0 -92 27.5 -150t78.5 -58t78.5 58t27.5 150z" />
    <glyph glyph-name="ntilde" unicode="&#xf1;" horiz-adv-x="470" 
d="M397 0h-66v320q0 134 -78 134q-48 0 -77 -49t-29 -119v-286h-66v371q0 85 -4 125h64q4 -50 4 -97h2q14 51 47 82t79 31q38 0 64 -16.5t38.5 -46t17 -60t4.5 -69.5v-320zM363 685q-3 -48 -21.5 -73t-47.5 -25q-28 0 -63 24q-36 24 -53 24q-26 0 -34 -49h-37
q3 46 21.5 73.5t47.5 27.5q26 0 63 -24t54 -24q15 0 22 10t11 36h37z" />
    <glyph glyph-name="ograve" unicode="&#xf2;" horiz-adv-x="440" 
d="M393 247q0 -118 -46.5 -190.5t-126.5 -72.5q-79 0 -126 72.5t-47 190.5q0 120 46 192.5t127 72.5q80 0 126.5 -72.5t46.5 -192.5zM325 248q0 92 -27 149.5t-78 57.5q-52 0 -78.5 -57.5t-26.5 -149.5t26.5 -148.5t78.5 -56.5t78.5 56.5t26.5 148.5zM263 569h-56l-106 144
h72z" />
    <glyph glyph-name="oacute" unicode="&#xf3;" horiz-adv-x="440" 
d="M393 247q0 -118 -46.5 -190.5t-126.5 -72.5q-79 0 -126 72.5t-47 190.5q0 120 46 192.5t127 72.5q80 0 126.5 -72.5t46.5 -192.5zM325 248q0 92 -27 149.5t-78 57.5q-52 0 -78.5 -57.5t-26.5 -149.5t26.5 -148.5t78.5 -56.5t78.5 56.5t26.5 148.5zM345 713l-106 -144h-56
l90 144h72z" />
    <glyph glyph-name="ocircumflex" unicode="&#xf4;" horiz-adv-x="440" 
d="M393 247q0 -118 -46.5 -190.5t-126.5 -72.5q-79 0 -126 72.5t-47 190.5q0 120 46 192.5t127 72.5q80 0 126.5 -72.5t46.5 -192.5zM325 248q0 92 -27 149.5t-78 57.5q-52 0 -78.5 -57.5t-26.5 -149.5t26.5 -148.5t78.5 -56.5t78.5 56.5t26.5 148.5zM358 569h-66l-72 105
l-72 -105h-65l103 144h70z" />
    <glyph glyph-name="otilde" unicode="&#xf5;" horiz-adv-x="440" 
d="M393 247q0 -118 -46.5 -190.5t-126.5 -72.5q-79 0 -126 72.5t-47 190.5q0 120 46 192.5t127 72.5q80 0 126.5 -72.5t46.5 -192.5zM325 248q0 92 -27 149.5t-78 57.5q-52 0 -78.5 -57.5t-26.5 -149.5t26.5 -148.5t78.5 -56.5t78.5 56.5t26.5 148.5zM348 685
q-3 -48 -21.5 -73t-47.5 -25q-28 0 -63 24q-36 24 -53 24q-26 0 -34 -49h-37q3 46 21.5 73.5t47.5 27.5q26 0 63 -24t54 -24q15 0 22 10t11 36h37z" />
    <glyph glyph-name="odieresis" unicode="&#xf6;" horiz-adv-x="440" 
d="M393 247q0 -118 -46.5 -190.5t-126.5 -72.5q-79 0 -126 72.5t-47 190.5q0 120 46 192.5t127 72.5q80 0 126.5 -72.5t46.5 -192.5zM325 248q0 92 -27 149.5t-78 57.5q-52 0 -78.5 -57.5t-26.5 -149.5t26.5 -148.5t78.5 -56.5t78.5 56.5t26.5 148.5zM334 648q0 -19 -12 -32
t-30 -13q-17 0 -29.5 13t-12.5 32t12.5 32t29.5 13q18 0 30 -13t12 -32zM191 648q0 -19 -12.5 -32t-29.5 -13q-19 0 -30.5 12.5t-11.5 32.5q0 19 12 32t30 13q17 0 29.5 -13t12.5 -32z" />
    <glyph glyph-name="divide" unicode="&#xf7;" horiz-adv-x="666" 
d="M588 333v-60h-510v60h510zM387 465q0 -22 -15.5 -38t-38.5 -16t-38.5 16t-15.5 38t15.5 38t38.5 16t38.5 -16t15.5 -38zM387 141q0 -22 -15.5 -38t-38.5 -16t-38.5 16t-15.5 38t15.5 38t38.5 16t38.5 -16t15.5 -38z" />
    <glyph glyph-name="oslash" unicode="&#xf8;" horiz-adv-x="440" 
d="M378 512l-33 -69q48 -74 48 -196q0 -119 -46.5 -191.5t-126.5 -72.5q-54 0 -95 36l-27 -56l-40 18l37 72q-48 71 -48 194q0 120 46 192.5t127 72.5q54 0 95 -36l24 54zM113 248q0 -79 20 -134l151 309q-25 34 -64 34q-53 0 -80 -58t-27 -151zM327 248q0 76 -19 131
l-152 -307q26 -32 64 -32q53 0 80 58t27 150z" />
    <glyph glyph-name="ugrave" unicode="&#xf9;" horiz-adv-x="470" 
d="M73 496h66v-320q0 -134 78 -134q48 0 77 49t29 119v286h66v-371q0 -85 4 -125h-64q-4 50 -4 97h-2q-14 -51 -47 -82t-79 -31q-38 0 -64 16.5t-38.5 46t-17 60t-4.5 69.5v320zM284 569h-56l-106 144h72z" />
    <glyph glyph-name="uacute" unicode="&#xfa;" horiz-adv-x="470" 
d="M73 496h66v-320q0 -134 78 -134q48 0 77 49t29 119v286h66v-371q0 -85 4 -125h-64q-4 50 -4 97h-2q-14 -51 -47 -82t-79 -31q-38 0 -64 16.5t-38.5 46t-17 60t-4.5 69.5v320zM343 713l-106 -144h-56l90 144h72z" />
    <glyph glyph-name="ucircumflex" unicode="&#xfb;" horiz-adv-x="470" 
d="M73 496h66v-320q0 -134 78 -134q48 0 77 49t29 119v286h66v-371q0 -85 4 -125h-64q-4 50 -4 97h-2q-14 -51 -47 -82t-79 -31q-38 0 -64 16.5t-38.5 46t-17 60t-4.5 69.5v320zM371 569h-66l-72 105l-72 -105h-65l103 144h70z" />
    <glyph glyph-name="udieresis" unicode="&#xfc;" horiz-adv-x="470" 
d="M73 496h66v-320q0 -134 78 -134q48 0 77 49t29 119v286h66v-371q0 -85 4 -125h-64q-4 50 -4 97h-2q-14 -51 -47 -82t-79 -31q-38 0 -64 16.5t-38.5 46t-17 60t-4.5 69.5v320zM347 648q0 -19 -12 -32t-30 -13q-17 0 -29.5 13t-12.5 32t12.5 32t29.5 13q18 0 30 -13t12 -32
zM204 648q0 -19 -12.5 -32t-29.5 -13q-19 0 -30.5 12.5t-11.5 32.5q0 19 12 32t30 13q17 0 29.5 -13t12.5 -32z" />
    <glyph glyph-name="yacute" unicode="&#xfd;" horiz-adv-x="375" 
d="M358 496l-156 -601q-18 -68 -46.5 -101.5t-78.5 -33.5q-27 0 -51 8l9 59q18 -6 37 -6q27 0 42 19t25 56l22 86l-144 514h70l107 -419h2l95 419h67zM311 713l-106 -144h-56l90 144h72z" />
    <glyph glyph-name="thorn" unicode="&#xfe;" horiz-adv-x="466" 
d="M419 247q0 -119 -41 -191.5t-116 -72.5q-43 0 -74.5 28t-43.5 74h-1v-325h-66v996h64v-349h2q28 105 119 105q73 0 115 -73.5t42 -191.5zM351 249q0 92 -26 149t-78 57q-51 0 -78.5 -57.5t-27.5 -148.5t27.5 -149t78.5 -58q52 0 78 57t26 150z" />
    <glyph glyph-name="ydieresis" unicode="&#xff;" horiz-adv-x="375" 
d="M358 496l-156 -601q-18 -68 -46.5 -101.5t-78.5 -33.5q-27 0 -51 8l9 59q18 -6 37 -6q27 0 42 19t25 56l22 86l-144 514h70l107 -419h2l95 419h67zM309 648q0 -19 -12 -32t-30 -13q-17 0 -29.5 13t-12.5 32t12.5 32t29.5 13q18 0 30 -13t12 -32zM166 648q0 -19 -12.5 -32
t-29.5 -13q-19 0 -30.5 12.5t-11.5 32.5q0 19 12 32t30 13q17 0 29.5 -13t12.5 -32z" />
    <glyph glyph-name="Amacron" unicode="&#x100;" horiz-adv-x="464" 
d="M457 0h-73l-43 177h-218l-45 -177h-71l180 708h95zM331 233l-96 412h-4l-98 -412h198zM360 809h-249v52h249v-52z" />
    <glyph glyph-name="amacron" unicode="&#x101;" horiz-adv-x="404" 
d="M342 0h-57q-3 32 -3 93h-2q-25 -106 -120 -106q-47 0 -83 37t-36 109q0 51 18.5 86.5t49.5 53t62 24.5t66 7h39v26q0 63 -23.5 94t-65.5 31q-55 0 -93 -53l-35 41q22 32 59 50.5t75 18.5q76 0 110 -50t34 -150v-206q0 -54 5 -106zM277 218v34h-40q-133 0 -133 -113
q0 -48 21.5 -73t51.5 -25q36 0 59.5 29.5t32 67.5t8.5 80zM324 614h-249v52h249v-52z" />
    <glyph glyph-name="Abreve" unicode="&#x102;" horiz-adv-x="464" 
d="M457 0h-73l-43 177h-218l-45 -177h-71l180 708h95zM331 233l-96 412h-4l-98 -412h198zM367 900q-8 -66 -43.5 -99t-88.5 -33q-52 0 -87.5 33t-41.5 99h50q6 -39 28 -59t51 -20q68 0 82 79h50z" />
    <glyph glyph-name="abreve" unicode="&#x103;" horiz-adv-x="404" 
d="M342 0h-57q-3 32 -3 93h-2q-25 -106 -120 -106q-47 0 -83 37t-36 109q0 51 18.5 86.5t49.5 53t62 24.5t66 7h39v26q0 63 -23.5 94t-65.5 31q-55 0 -93 -53l-35 41q22 32 59 50.5t75 18.5q76 0 110 -50t34 -150v-206q0 -54 5 -106zM277 218v34h-40q-133 0 -133 -113
q0 -48 21.5 -73t51.5 -25q36 0 59.5 29.5t32 67.5t8.5 80zM330 705q-8 -66 -43.5 -99t-88.5 -33q-52 0 -87.5 33t-41.5 99h50q6 -39 28 -59t51 -20q68 0 82 79h50z" />
    <glyph glyph-name="Aogonek" unicode="&#x104;" horiz-adv-x="464" 
d="M451 -147l17 -36q-34 -36 -79 -36q-38 0 -62 22t-24 59q0 67 82 138h-1l-43 177h-218l-45 -177h-71l180 708h95l175 -708h-28q-38 -41 -54.5 -67.5t-16.5 -53.5q0 -21 13.5 -34.5t32.5 -13.5q28 0 47 22zM331 233l-96 412h-4l-98 -412h198z" />
    <glyph glyph-name="aogonek" unicode="&#x105;" horiz-adv-x="404" 
d="M342 0h-11q-38 -41 -54.5 -67.5t-16.5 -53.5q0 -21 13.5 -34.5t32.5 -13.5q28 0 47 22l17 -36q-34 -36 -79 -36q-38 0 -62 22t-24 59q0 67 82 138h-2q-3 32 -3 93h-2q-25 -106 -120 -106q-47 0 -83 36t-36 108q0 51 18.5 87t49.5 53.5t62 25t66 7.5h39v27q0 124 -89 124
q-55 0 -93 -53l-35 41q22 32 59 50.5t75 18.5q76 0 110 -50t34 -150v-206q0 -54 5 -106zM277 218v34h-40q-133 0 -133 -113q0 -48 21.5 -73t51.5 -25q36 0 59.5 29.5t32 67.5t8.5 80z" />
    <glyph glyph-name="Cacute" unicode="&#x106;" horiz-adv-x="479" 
d="M461 80q-58 -97 -168 -97q-113 0 -178 104t-65 267t65.5 267t177.5 104q111 0 166 -87l-45 -46q-44 69 -118 69q-84 0 -128.5 -86.5t-44.5 -220.5q0 -132 45.5 -219.5t128.5 -87.5q37 0 68.5 21t51.5 57zM397 908l-106 -144h-56l90 144h72z" />
    <glyph glyph-name="cacute" unicode="&#x107;" horiz-adv-x="336" 
d="M328 35q-40 -51 -110 -51q-83 0 -127 72t-44 192q0 121 45 192.5t127 71.5q69 0 108 -47l-35 -48q-26 37 -72 37q-51 0 -78 -56.5t-27 -149.5t27 -147.5t81 -54.5q48 0 75 40zM324 713l-106 -144h-56l90 144h72z" />
    <glyph glyph-name="Ccircumflex" unicode="&#x108;" horiz-adv-x="479" 
d="M461 80q-58 -97 -168 -97q-113 0 -178 104t-65 267t65.5 267t177.5 104q111 0 166 -87l-45 -46q-44 69 -118 69q-84 0 -128.5 -86.5t-44.5 -220.5q0 -132 45.5 -219.5t128.5 -87.5q37 0 68.5 21t51.5 57zM432 764h-66l-72 105l-72 -105h-65l103 144h70z" />
    <glyph glyph-name="ccircumflex" unicode="&#x109;" horiz-adv-x="336" 
d="M328 35q-40 -51 -110 -51q-83 0 -127 72t-44 192q0 121 45 192.5t127 71.5q69 0 108 -47l-35 -48q-26 37 -72 37q-51 0 -78 -56.5t-27 -149.5t27 -147.5t81 -54.5q48 0 75 40zM357 569h-66l-72 105l-72 -105h-65l103 144h70z" />
    <glyph glyph-name="Cdotaccent" unicode="&#x10a;" horiz-adv-x="479" 
d="M461 80q-58 -97 -168 -97q-113 0 -178 104t-65 267t65.5 267t177.5 104q111 0 166 -87l-45 -46q-44 69 -118 69q-84 0 -128.5 -86.5t-44.5 -220.5q0 -132 45.5 -219.5t128.5 -87.5q37 0 68.5 21t51.5 57zM338 843q0 -21 -13 -34.5t-31 -13.5q-19 0 -31.5 13.5t-12.5 34.5
q0 20 12.5 34t31.5 14t31.5 -14t12.5 -34z" />
    <glyph glyph-name="cdotaccent" unicode="&#x10b;" horiz-adv-x="336" 
d="M328 35q-40 -51 -110 -51q-83 0 -127 72t-44 192q0 121 45 192.5t127 71.5q69 0 108 -47l-35 -48q-26 37 -72 37q-51 0 -78 -56.5t-27 -149.5t27 -147.5t81 -54.5q48 0 75 40zM263 648q0 -21 -13 -34.5t-31 -13.5q-19 0 -31.5 13.5t-12.5 34.5q0 20 12.5 34t31.5 14
t31.5 -14t12.5 -34z" />
    <glyph glyph-name="Ccaron" unicode="&#x10c;" horiz-adv-x="479" 
d="M461 80q-58 -97 -168 -97q-113 0 -178 104t-65 267t65.5 267t177.5 104q111 0 166 -87l-45 -46q-44 69 -118 69q-84 0 -128.5 -86.5t-44.5 -220.5q0 -132 45.5 -219.5t128.5 -87.5q37 0 68.5 21t51.5 57zM432 907l-102 -144h-70l-103 144h65l72 -105l72 105h66z" />
    <glyph glyph-name="ccaron" unicode="&#x10d;" horiz-adv-x="336" 
d="M328 35q-40 -51 -110 -51q-83 0 -127 72t-44 192q0 121 45 192.5t127 71.5q69 0 108 -47l-35 -48q-26 37 -72 37q-51 0 -78 -56.5t-27 -149.5t27 -147.5t81 -54.5q48 0 75 40zM355 712l-102 -144h-70l-103 144h65l72 -105l72 105h66z" />
    <glyph glyph-name="Dcaron" unicode="&#x10e;" horiz-adv-x="541" 
d="M490 353q0 -171 -69 -262t-188 -91h-152v708h153q119 0 187.5 -91.5t68.5 -263.5zM421 353q0 144 -52.5 219t-136.5 75h-82v-586h82q84 0 136.5 75t52.5 217zM373 907l-102 -144h-70l-103 144h65l72 -105l72 105h66z" />
    <glyph glyph-name="dcaron" unicode="&#x10f;" horiz-adv-x="519" 
d="M389 0h-64v89h-2q-28 -105 -119 -105q-73 0 -115 74t-42 192q0 119 40.5 190.5t115.5 71.5q44 0 75.5 -27t42.5 -73h2v344h66v-756zM325 248q0 91 -27.5 149t-78.5 58q-52 0 -78 -57t-26 -150q0 -92 26 -149t78 -57q51 0 78.5 57.5t27.5 148.5zM524 708l-49 -174h-50
l41 174h58z" />
    <glyph glyph-name="Dcroat" unicode="&#x110;" horiz-adv-x="540" 
d="M488 354q0 -171 -69 -262.5t-188 -91.5h-150v341h-62v49h62v318h150q119 0 188 -91.5t69 -262.5zM422 354q0 144 -53.5 219t-139.5 75h-80v-258h142v-49h-142v-281h80q86 0 139.5 75t53.5 219z" />
    <glyph glyph-name="dcroat" unicode="&#x111;" horiz-adv-x="466" 
d="M389 0h-64v89h-2q-28 -106 -119 -106q-73 0 -115 74.5t-42 192.5q0 119 40.5 190.5t115.5 71.5q44 0 75.5 -27t42.5 -73h2v163h-146v43h146v138h66v-138h46v-43h-46v-575zM325 248q0 91 -27.5 149t-78.5 58q-52 0 -78 -57t-26 -150q0 -92 26 -149t78 -57q51 0 78.5 57.5
t27.5 148.5z" />
    <glyph glyph-name="Emacron" unicode="&#x112;" horiz-adv-x="418" 
d="M376 0h-295v708h285v-62h-217v-249h203v-59h-203v-275h227v-63zM350 809h-249v52h249v-52z" />
    <glyph glyph-name="emacron" unicode="&#x113;" horiz-adv-x="423" 
d="M381 234h-267q1 -86 29 -138t81 -52q63 0 92 75l50 -29q-42 -106 -144 -106q-82 0 -128.5 70t-46.5 193q0 118 47.5 191.5t126.5 73.5q83 0 121.5 -67t38.5 -175v-36zM314 289q0 77 -24 121.5t-71 44.5q-35 0 -60 -30.5t-34.5 -66t-9.5 -69.5h199zM351 614h-249v52h249
v-52z" />
    <glyph glyph-name="Ebreve" unicode="&#x114;" horiz-adv-x="418" 
d="M376 0h-295v708h285v-62h-217v-249h203v-59h-203v-275h227v-63zM354 900q-8 -66 -43.5 -99t-88.5 -33q-52 0 -87.5 33t-41.5 99h50q6 -39 28 -59t51 -20q68 0 82 79h50z" />
    <glyph glyph-name="ebreve" unicode="&#x115;" horiz-adv-x="423" 
d="M381 234h-267q1 -86 29 -138t81 -52q63 0 92 75l50 -29q-42 -106 -144 -106q-82 0 -128.5 70t-46.5 193q0 118 47.5 191.5t126.5 73.5q83 0 121.5 -67t38.5 -175v-36zM314 289q0 77 -24 121.5t-71 44.5q-35 0 -60 -30.5t-34.5 -66t-9.5 -69.5h199zM356 705
q-8 -66 -43.5 -99t-88.5 -33q-52 0 -87.5 33t-41.5 99h50q6 -39 28 -59t51 -20q68 0 82 79h50z" />
    <glyph glyph-name="Edotaccent" unicode="&#x116;" horiz-adv-x="418" 
d="M376 0h-295v708h285v-62h-217v-249h203v-59h-203v-275h227v-63zM271 843q0 -21 -13 -34.5t-31 -13.5q-19 0 -31.5 13.5t-12.5 34.5q0 20 12.5 34t31.5 14t31.5 -14t12.5 -34z" />
    <glyph glyph-name="edotaccent" unicode="&#x117;" horiz-adv-x="423" 
d="M381 234h-267q1 -86 29 -138t81 -52q63 0 92 75l50 -29q-42 -106 -144 -106q-82 0 -128.5 70t-46.5 193q0 118 47.5 191.5t126.5 73.5q83 0 121.5 -67t38.5 -175v-36zM314 289q0 77 -24 121.5t-71 44.5q-35 0 -60 -30.5t-34.5 -66t-9.5 -69.5h199zM265 648
q0 -21 -13 -34.5t-31 -13.5q-19 0 -31.5 13.5t-12.5 34.5q0 20 12.5 34t31.5 14t31.5 -14t12.5 -34z" />
    <glyph glyph-name="Eogonek" unicode="&#x118;" horiz-adv-x="418" 
d="M377 -147l17 -36q-34 -36 -79 -36q-38 0 -62 22t-24 59q0 67 82 138h-230v708h285v-62h-217v-249h203v-59h-203v-275h227v-63h-21q-38 -41 -54.5 -67.5t-16.5 -53.5q0 -21 13.5 -34.5t32.5 -13.5q28 0 47 22z" />
    <glyph glyph-name="eogonek" unicode="&#x119;" horiz-adv-x="423" 
d="M305 -147l17 -36q-34 -36 -79 -36q-38 0 -62 22t-24 59q0 58 63 121q-81 1 -127 71.5t-46 192.5q0 118 47.5 191.5t126.5 73.5q83 0 121.5 -67t38.5 -175v-36h-267q1 -86 29 -138.5t81 -52.5q63 0 92 75l50 -29q-30 -74 -90 -96q-64 -70 -64 -114q0 -21 13.5 -34.5
t32.5 -13.5q28 0 47 22zM314 289q0 77 -24 121.5t-71 44.5q-35 0 -60 -30.5t-34.5 -66t-9.5 -69.5h199z" />
    <glyph glyph-name="Ecaron" unicode="&#x11a;" horiz-adv-x="418" 
d="M376 0h-295v708h285v-62h-217v-249h203v-59h-203v-275h227v-63zM359 907l-102 -144h-70l-103 144h65l72 -105l72 105h66z" />
    <glyph glyph-name="ecaron" unicode="&#x11b;" horiz-adv-x="423" 
d="M381 234h-267q1 -86 29 -138t81 -52q63 0 92 75l50 -29q-42 -106 -144 -106q-82 0 -128.5 70t-46.5 193q0 118 47.5 191.5t126.5 73.5q83 0 121.5 -67t38.5 -175v-36zM314 289q0 77 -24 121.5t-71 44.5q-35 0 -60 -30.5t-34.5 -66t-9.5 -69.5h199zM359 712l-102 -144h-70
l-103 144h65l72 -105l72 105h66z" />
    <glyph glyph-name="Gcircumflex" unicode="&#x11c;" horiz-adv-x="535" 
d="M469 44q-65 -57 -168 -57q-117 0 -184 99.5t-67 268.5q0 163 65 266.5t177 103.5t167 -87l-45 -46q-45 70 -119 70q-83 0 -127.5 -87t-44.5 -220q0 -137 46 -221t132 -84q66 0 100 31v240h-101v61h169v-338zM432 764h-66l-72 105l-72 -105h-65l103 144h70z" />
    <glyph glyph-name="gcircumflex" unicode="&#x11d;" horiz-adv-x="466" 
d="M389 7q0 -247 -176 -247q-49 0 -91.5 22.5t-68.5 60.5l43 46q44 -69 119 -69q62 0 86 48.5t24 138.5v82h-2q-28 -105 -119 -105q-73 0 -115 74t-42 192q0 119 40.5 190.5t115.5 71.5q44 0 76 -27t43 -73h3v84h64v-489zM325 248q0 91 -27.5 149t-78.5 58q-52 0 -78 -57
t-26 -150q0 -92 26 -149t78 -57q51 0 78.5 57.5t27.5 148.5zM372 569h-66l-72 105l-72 -105h-65l103 144h70z" />
    <glyph glyph-name="Gbreve" unicode="&#x11e;" horiz-adv-x="535" 
d="M469 44q-65 -57 -168 -57q-117 0 -184 99.5t-67 268.5q0 163 65 266.5t177 103.5t167 -87l-45 -46q-45 70 -119 70q-83 0 -127.5 -87t-44.5 -220q0 -137 46 -221t132 -84q66 0 100 31v240h-101v61h169v-338zM423 900q-8 -66 -43.5 -99t-88.5 -33q-52 0 -87.5 33t-41.5 99
h50q6 -39 28 -59t51 -20q68 0 82 79h50z" />
    <glyph glyph-name="gbreve" unicode="&#x11f;" horiz-adv-x="466" 
d="M389 7q0 -247 -176 -247q-49 0 -91.5 22.5t-68.5 60.5l43 46q44 -69 119 -69q62 0 86 48.5t24 138.5v82h-2q-28 -105 -119 -105q-73 0 -115 74t-42 192q0 119 40.5 190.5t115.5 71.5q44 0 76 -27t43 -73h3v84h64v-489zM325 248q0 91 -27.5 149t-78.5 58q-52 0 -78 -57
t-26 -150q0 -92 26 -149t78 -57q51 0 78.5 57.5t27.5 148.5zM366 705q-8 -66 -43.5 -99t-88.5 -33q-52 0 -87.5 33t-41.5 99h50q6 -39 28 -59t51 -20q68 0 82 79h50z" />
    <glyph glyph-name="Gdotaccent" unicode="&#x120;" horiz-adv-x="535" 
d="M469 44q-65 -57 -168 -57q-117 0 -184 99.5t-67 268.5q0 163 65 266.5t177 103.5t167 -87l-45 -46q-45 70 -119 70q-83 0 -127.5 -87t-44.5 -220q0 -137 46 -221t132 -84q66 0 100 31v240h-101v61h169v-338zM338 843q0 -21 -13 -34.5t-31 -13.5q-19 0 -31.5 13.5
t-12.5 34.5q0 20 12.5 34t31.5 14t31.5 -14t12.5 -34z" />
    <glyph glyph-name="gdotaccent" unicode="&#x121;" horiz-adv-x="466" 
d="M389 7q0 -247 -176 -247q-49 0 -91.5 22.5t-68.5 60.5l43 46q44 -69 119 -69q62 0 86 48.5t24 138.5v82h-2q-28 -105 -119 -105q-73 0 -115 74t-42 192q0 119 40.5 190.5t115.5 71.5q44 0 76 -27t43 -73h3v84h64v-489zM325 248q0 91 -27.5 149t-78.5 58q-52 0 -78 -57
t-26 -150q0 -92 26 -149t78 -57q51 0 78.5 57.5t27.5 148.5zM276 648q0 -21 -13 -34.5t-31 -13.5q-19 0 -31.5 13.5t-12.5 34.5q0 20 12.5 34t31.5 14t31.5 -14t12.5 -34z" />
    <glyph glyph-name="Gcommaaccent" unicode="&#x122;" horiz-adv-x="535" 
d="M469 44q-65 -57 -168 -57q-117 0 -184 99.5t-67 268.5q0 163 65 266.5t177 103.5t167 -87l-45 -46q-45 70 -119 70q-83 0 -127.5 -87t-44.5 -220q0 -137 46 -221t132 -84q66 0 100 31v240h-101v61h169v-338zM329 -45l-49 -174h-50l41 174h58z" />
    <glyph glyph-name="gcommaaccent" unicode="&#x123;" horiz-adv-x="466" 
d="M389 7q0 -247 -176 -247q-49 0 -91.5 22.5t-68.5 60.5l43 46q44 -69 119 -69q62 0 86 48.5t24 138.5v82h-2q-28 -105 -119 -105q-73 0 -115 74t-42 192q0 119 40.5 190.5t115.5 71.5q44 0 76 -27t43 -73h3v84h64v-489zM325 248q0 91 -27.5 149t-78.5 58q-52 0 -78 -57
t-26 -150q0 -92 26 -149t78 -57q51 0 78.5 57.5t27.5 148.5zM194 569l49 174h50l-41 -174h-58z" />
    <glyph glyph-name="Hcircumflex" unicode="&#x124;" horiz-adv-x="573" 
d="M492 0h-70v336h-271v-336h-70v708h70v-310h271v310h70v-708zM426 764h-66l-72 105l-72 -105h-65l103 144h70z" />
    <glyph glyph-name="hcircumflex" unicode="&#x125;" horiz-adv-x="467" 
d="M394 0h-67v320q0 134 -77 134q-48 0 -77.5 -49.5t-29.5 -118.5v-286h-66v756h66v-354h2q13 49 46 79.5t79 30.5q38 0 64 -16.5t38.5 -46t17 -60t4.5 -69.5v-320zM368 796h-66l-72 105l-72 -105h-65l103 144h70z" />
    <glyph glyph-name="Hbar" unicode="&#x126;" horiz-adv-x="573" 
d="M492 0h-70v336h-271v-336h-70v708h70v-155h271v155h70v-708zM151 398h271v112h-271v-112z" />
    <glyph glyph-name="hbar" unicode="&#x127;" horiz-adv-x="467" 
d="M280 575h-137v-173h2q13 49 46 79.5t79 30.5q38 0 64 -16.5t38.5 -46t17 -60t4.5 -69.5v-320h-67v320q0 134 -77 134q-48 0 -77.5 -49.5t-29.5 -118.5v-286h-66v575h-55v43h55v138h66v-138h137v-43z" />
    <glyph glyph-name="Itilde" unicode="&#x128;" horiz-adv-x="232" 
d="M151 0h-70v708h70v-708zM246 880q-3 -48 -21.5 -73t-47.5 -25q-28 0 -63 24q-36 24 -53 24q-26 0 -34 -49h-37q3 46 21.5 73.5t47.5 27.5q26 0 63 -24t54 -24q15 0 22 10t11 36h37z" />
    <glyph glyph-name="itilde" unicode="&#x129;" horiz-adv-x="220" 
d="M143 0h-66v496h66v-496zM238 685q-3 -48 -21.5 -73t-47.5 -25q-28 0 -63 24q-36 24 -53 24q-26 0 -34 -49h-37q3 46 21.5 73.5t47.5 27.5q26 0 63 -24t54 -24q15 0 22 10t11 36h37z" />
    <glyph glyph-name="Imacron" unicode="&#x12a;" horiz-adv-x="232" 
d="M151 0h-70v708h70v-708zM241 809h-249v52h249v-52z" />
    <glyph glyph-name="imacron" unicode="&#x12b;" horiz-adv-x="220" 
d="M143 0h-66v496h66v-496zM236 614h-249v52h249v-52z" />
    <glyph glyph-name="Iogonek" unicode="&#x12e;" horiz-adv-x="232" 
d="M169 -147l17 -36q-34 -36 -79 -36q-38 0 -62 22t-24 59q0 67 82 138h-22v708h70v-708h-4q-38 -41 -54.5 -67.5t-16.5 -53.5q0 -21 13.5 -34.5t32.5 -13.5q28 0 47 22z" />
    <glyph glyph-name="iogonek" unicode="&#x12f;" horiz-adv-x="220" 
d="M158 -147l17 -36q-34 -36 -79 -36q-38 0 -62 22t-24 59q0 67 82 138h-15v496h66v-496h-7q-38 -41 -54.5 -67.5t-16.5 -53.5q0 -21 13.5 -34.5t32.5 -13.5q28 0 47 22zM154 648q0 -21 -13 -34.5t-31 -13.5q-19 0 -31.5 13.5t-12.5 34.5q0 20 12.5 34t31.5 14t31.5 -14
t12.5 -34z" />
    <glyph glyph-name="Idotaccent" unicode="&#x130;" horiz-adv-x="232" 
d="M151 0h-70v708h70v-708zM160 843q0 -21 -13 -34.5t-31 -13.5q-19 0 -31.5 13.5t-12.5 34.5q0 20 12.5 34t31.5 14t31.5 -14t12.5 -34z" />
    <glyph glyph-name="dotlessi" unicode="&#x131;" horiz-adv-x="220" 
d="M143 0h-66v496h66v-496z" />
    <glyph glyph-name="Jcircumflex" unicode="&#x134;" horiz-adv-x="379" 
d="M303 194q0 -211 -158 -211q-59 0 -97 32t-52 89l62 25q7 -35 29.5 -58.5t56.5 -23.5q49 0 69 39.5t20 117.5v504h70v-514zM405 764h-66l-72 105l-72 -105h-65l103 144h70z" />
    <glyph glyph-name="jcircumflex" unicode="&#x135;" horiz-adv-x="221" 
d="M145 -73q0 -167 -127 -167q-20 0 -39 6l6 60q15 -5 29 -5q65 0 65 110v565h66v-569zM250 569h-66l-72 105l-72 -105h-65l103 144h70z" />
    <glyph glyph-name="Kcommaaccent" unicode="&#x136;" horiz-adv-x="482" 
d="M471 0h-84l-236 363h-1v-363h-69v708h69v-318h1l222 318h81l-238 -327zM291 -45l-49 -174h-50l41 174h58z" />
    <glyph glyph-name="kcommaaccent" unicode="&#x137;" horiz-adv-x="400" 
d="M395 0h-80l-170 250h-2v-250h-66v756h66v-479h2l160 219h79l-178 -230zM253 -45l-49 -174h-50l41 174h58z" />
    <glyph glyph-name="Lacute" unicode="&#x139;" horiz-adv-x="357" 
d="M353 0h-272v708h70v-643h202v-65zM248 908l-106 -144h-56l90 144h72z" />
    <glyph glyph-name="lacute" unicode="&#x13a;" horiz-adv-x="220" 
d="M143 0h-66v756h66v-756zM239 941l-106 -144h-56l90 144h72z" />
    <glyph glyph-name="Lcommaaccent" unicode="&#x13b;" horiz-adv-x="357" 
d="M353 0h-272v708h70v-643h202v-65zM247 -45l-49 -174h-50l41 174h58z" />
    <glyph glyph-name="lcommaaccent" unicode="&#x13c;" horiz-adv-x="220" 
d="M143 0h-66v756h66v-756zM144 -45l-49 -174h-50l41 174h58z" />
    <glyph glyph-name="Lcaron" unicode="&#x13d;" horiz-adv-x="357" 
d="M353 0h-272v708h70v-643h202v-65zM285 708l-49 -174h-50l41 174h58z" />
    <glyph glyph-name="lcaron" unicode="&#x13e;" horiz-adv-x="273" 
d="M143 0h-66v756h66v-756zM288 708l-49 -174h-50l41 174h58z" />
    <glyph glyph-name="Ldot" unicode="&#x13f;" horiz-adv-x="357" 
d="M353 0h-272v708h70v-643h202v-65zM284 428q0 -21 -13 -34.5t-31 -13.5q-19 0 -31.5 13.5t-12.5 34.5q0 20 12.5 34t31.5 14t31.5 -14t12.5 -34z" />
    <glyph glyph-name="ldot" unicode="&#x140;" horiz-adv-x="287" 
d="M143 0h-66v756h66v-756zM283 458q0 -21 -13 -34.5t-31 -13.5q-19 0 -31.5 13.5t-12.5 34.5q0 20 12.5 34t31.5 14t31.5 -14t12.5 -34z" />
    <glyph glyph-name="Lslash" unicode="&#x141;" horiz-adv-x="355" 
d="M351 0h-270v236l-43 -45v66l43 45v406h69v-354l131 133v-66l-131 -133v-225h201v-63z" />
    <glyph glyph-name="lslash" unicode="&#x142;" horiz-adv-x="223" 
d="M196 437l-51 -55v-382h-67v331l-43 -46v63l43 45v363h67v-312l51 55v-62z" />
    <glyph glyph-name="Nacute" unicode="&#x143;" horiz-adv-x="561" 
d="M480 0h-84l-247 589h-3v-589h-65v708h87l245 -589h3v589h64v-708zM386 908l-106 -144h-56l90 144h72z" />
    <glyph glyph-name="nacute" unicode="&#x144;" horiz-adv-x="470" 
d="M397 0h-66v320q0 134 -78 134q-48 0 -77 -49t-29 -119v-286h-66v371q0 85 -4 125h64q4 -50 4 -97h2q14 51 47 82t79 31q38 0 64 -16.5t38.5 -46t17 -60t4.5 -69.5v-320zM348 713l-106 -144h-56l90 144h72z" />
    <glyph glyph-name="Ncommaaccent" unicode="&#x145;" horiz-adv-x="561" 
d="M480 0h-84l-247 589h-3v-589h-65v708h87l245 -589h3v589h64v-708zM309 -45l-49 -174h-50l41 174h58z" />
    <glyph glyph-name="ncommaaccent" unicode="&#x146;" horiz-adv-x="470" 
d="M397 0h-66v320q0 134 -78 134q-48 0 -77 -49t-29 -119v-286h-66v371q0 85 -4 125h64q4 -50 4 -97h2q14 51 47 82t79 31q38 0 64 -16.5t38.5 -46t17 -60t4.5 -69.5v-320zM267 -45l-49 -174h-50l41 174h58z" />
    <glyph glyph-name="Ncaron" unicode="&#x147;" horiz-adv-x="561" 
d="M480 0h-84l-247 589h-3v-589h-65v708h87l245 -589h3v589h64v-708zM419 907l-102 -144h-70l-103 144h65l72 -105l72 105h66z" />
    <glyph glyph-name="ncaron" unicode="&#x148;" horiz-adv-x="470" 
d="M397 0h-66v320q0 134 -78 134q-48 0 -77 -49t-29 -119v-286h-66v371q0 85 -4 125h64q4 -50 4 -97h2q14 51 47 82t79 31q38 0 64 -16.5t38.5 -46t17 -60t4.5 -69.5v-320zM377 712l-102 -144h-70l-103 144h65l72 -105l72 105h66z" />
    <glyph glyph-name="Omacron" unicode="&#x14c;" horiz-adv-x="570" 
d="M519 355q0 -168 -62.5 -270t-170.5 -102q-109 0 -172 102t-63 270t62 269t173 101q108 0 170.5 -101.5t62.5 -268.5zM446 355q0 134 -42 220t-118 86q-79 0 -120.5 -85.5t-41.5 -220.5t42 -221.5t120 -86.5q77 0 118.5 87t41.5 221zM410 809h-249v52h249v-52z" />
    <glyph glyph-name="omacron" unicode="&#x14d;" horiz-adv-x="440" 
d="M393 247q0 -118 -46.5 -190.5t-126.5 -72.5q-79 0 -126 72.5t-47 190.5q0 120 46 192.5t127 72.5q80 0 126.5 -72.5t46.5 -192.5zM325 248q0 92 -27 149.5t-78 57.5q-52 0 -78.5 -57.5t-26.5 -149.5t26.5 -148.5t78.5 -56.5t78.5 56.5t26.5 148.5zM345 614h-249v52h249
v-52z" />
    <glyph glyph-name="Obreve" unicode="&#x14e;" horiz-adv-x="570" 
d="M519 355q0 -168 -62.5 -270t-170.5 -102q-109 0 -172 102t-63 270t62 269t173 101q108 0 170.5 -101.5t62.5 -268.5zM446 355q0 134 -42 220t-118 86q-79 0 -120.5 -85.5t-41.5 -220.5t42 -221.5t120 -86.5q77 0 118.5 87t41.5 221zM416 900q-8 -66 -43.5 -99t-88.5 -33
q-52 0 -87.5 33t-41.5 99h50q6 -39 28 -59t51 -20q68 0 82 79h50z" />
    <glyph glyph-name="obreve" unicode="&#x14f;" horiz-adv-x="440" 
d="M393 247q0 -118 -46.5 -190.5t-126.5 -72.5q-79 0 -126 72.5t-47 190.5q0 120 46 192.5t127 72.5q80 0 126.5 -72.5t46.5 -192.5zM325 248q0 92 -27 149.5t-78 57.5q-52 0 -78.5 -57.5t-26.5 -149.5t26.5 -148.5t78.5 -56.5t78.5 56.5t26.5 148.5zM351 705
q-8 -66 -43.5 -99t-88.5 -33q-52 0 -87.5 33t-41.5 99h50q6 -39 28 -59t51 -20q68 0 82 79h50z" />
    <glyph glyph-name="Ohungarumlaut" unicode="&#x150;" horiz-adv-x="570" 
d="M519 355q0 -168 -62.5 -270t-170.5 -102q-109 0 -172 102t-63 270t62 269t173 101q108 0 170.5 -101.5t62.5 -268.5zM446 355q0 134 -42 220t-118 86q-79 0 -120.5 -85.5t-41.5 -220.5t42 -221.5t120 -86.5q77 0 118.5 87t41.5 221zM348 908l-106 -144h-56l90 144h72z
M482 908l-106 -144h-56l90 144h72z" />
    <glyph glyph-name="ohungarumlaut" unicode="&#x151;" horiz-adv-x="440" 
d="M393 247q0 -118 -46.5 -190.5t-126.5 -72.5q-79 0 -126 72.5t-47 190.5q0 120 46 192.5t127 72.5q80 0 126.5 -72.5t46.5 -192.5zM325 248q0 92 -27 149.5t-78 57.5q-52 0 -78.5 -57.5t-26.5 -149.5t26.5 -148.5t78.5 -56.5t78.5 56.5t26.5 148.5zM281 713l-106 -144h-56
l90 144h72zM415 713l-106 -144h-56l90 144h72z" />
    <glyph glyph-name="OE" unicode="&#x152;" horiz-adv-x="672" 
d="M630 0h-321q-120 0 -189 91.5t-69 263.5q0 171 69 262t189 91h312v-62h-205v-249h191v-59h-191v-275h214v-63zM349 61v586h-38q-84 0 -136.5 -75t-52.5 -217q0 -144 52.5 -219t136.5 -75h38z" />
    <glyph glyph-name="oe" unicode="&#x153;" horiz-adv-x="696" 
d="M653 234h-266q1 -86 29 -138t81 -52q61 0 92 75l50 -29q-42 -106 -144 -106t-138 108q-37 -108 -137 -108q-79 0 -126 72.5t-47 190.5q0 120 46 192.5t127 72.5q49 0 85.5 -29t53.5 -81q16 51 51 80.5t83 29.5q83 0 121.5 -66.5t38.5 -174.5v-37zM324 248
q0 92 -26.5 149.5t-77.5 57.5q-52 0 -78.5 -57.5t-26.5 -149.5t26.5 -148.5t78.5 -56.5t78 56.5t26 148.5zM587 289q0 77 -24 121.5t-71 44.5q-35 0 -60 -30.5t-34.5 -66t-9.5 -69.5h199z" />
    <glyph glyph-name="Racute" unicode="&#x154;" horiz-adv-x="476" 
d="M444 0h-75l-128 328h-91v-328h-69v708h170q78 0 130 -44.5t52 -142.5q0 -82 -38 -127.5t-89 -53.5zM365 518q0 70 -35.5 100.5t-89.5 30.5h-90v-266h93q57 0 89.5 36t32.5 99zM340 908l-106 -144h-56l90 144h72z" />
    <glyph glyph-name="racute" unicode="&#x155;" horiz-adv-x="274" 
d="M147 388q13 62 41.5 92.5t67.5 30.5q8 0 12 -1l-2 -68q-10 2 -16 2q-47 0 -75 -58t-28 -133v-253h-66v371q0 85 -4 125h64q4 -50 4 -108h2zM252 713l-106 -144h-56l90 144h72z" />
    <glyph glyph-name="Rcommaaccent" unicode="&#x156;" horiz-adv-x="476" 
d="M444 0h-75l-128 328h-91v-328h-69v708h170q78 0 130 -44.5t52 -142.5q0 -82 -38 -127.5t-89 -53.5zM365 518q0 70 -35.5 100.5t-89.5 30.5h-90v-266h93q57 0 89.5 36t32.5 99zM278 -45l-49 -174h-50l41 174h58z" />
    <glyph glyph-name="rcommaaccent" unicode="&#x157;" horiz-adv-x="274" 
d="M147 388q13 62 41.5 92.5t67.5 30.5q8 0 12 -1l-2 -68q-10 2 -16 2q-47 0 -75 -58t-28 -133v-253h-66v371q0 85 -4 125h64q4 -50 4 -108h2zM148 -45l-49 -174h-50l41 174h58z" />
    <glyph glyph-name="Rcaron" unicode="&#x158;" horiz-adv-x="476" 
d="M444 0h-75l-128 328h-91v-328h-69v708h170q78 0 130 -44.5t52 -142.5q0 -82 -38 -127.5t-89 -53.5zM365 518q0 70 -35.5 100.5t-89.5 30.5h-90v-266h93q57 0 89.5 36t32.5 99zM368 907l-102 -144h-70l-103 144h65l72 -105l72 105h66z" />
    <glyph glyph-name="rcaron" unicode="&#x159;" horiz-adv-x="274" 
d="M147 388q13 62 41.5 92.5t67.5 30.5q8 0 12 -1l-2 -68q-10 2 -16 2q-47 0 -75 -58t-28 -133v-253h-66v371q0 85 -4 125h64q4 -50 4 -108h2zM309 712l-102 -144h-70l-103 144h65l72 -105l72 105h66z" />
    <glyph glyph-name="Sacute" unicode="&#x15a;" horiz-adv-x="434" 
d="M388 181q0 -91 -51.5 -144.5t-128.5 -53.5q-53 0 -99 22.5t-74 61.5l43 49q49 -69 129 -69q49 0 81 35t32 96q0 54 -32 88.5t-89 63.5q-68 34 -106 78.5t-38 121.5q0 93 53 144t127 51q102 0 151 -68l-43 -49q-38 54 -106 54q-47 0 -80.5 -33.5t-33.5 -97.5q0 -54 29 -86
t83 -59q70 -35 111.5 -81.5t41.5 -123.5zM331 908l-106 -144h-56l90 144h72z" />
    <glyph glyph-name="sacute" unicode="&#x15b;" horiz-adv-x="340" 
d="M305 453l-39 -43q-29 49 -83 49q-32 0 -52.5 -24t-20.5 -61t18.5 -56t61.5 -35q111 -43 111 -145q0 -72 -39.5 -113t-102.5 -41q-86 0 -135 72l40 43q38 -59 96 -59q35 0 56.5 25.5t21.5 67.5q0 23 -7 40t-23 29t-27.5 17.5t-35.5 15.5q-46 17 -72.5 47.5t-26.5 88.5
q0 61 39.5 101t97.5 40q80 0 122 -59zM286 713l-106 -144h-56l90 144h72z" />
    <glyph glyph-name="Scircumflex" unicode="&#x15c;" horiz-adv-x="434" 
d="M388 181q0 -91 -51.5 -144.5t-128.5 -53.5q-53 0 -99 22.5t-74 61.5l43 49q49 -69 129 -69q49 0 81 35t32 96q0 54 -32 88.5t-89 63.5q-68 34 -106 78.5t-38 121.5q0 93 53 144t127 51q102 0 151 -68l-43 -49q-38 54 -106 54q-47 0 -80.5 -33.5t-33.5 -97.5q0 -54 29 -86
t83 -59q70 -35 111.5 -81.5t41.5 -123.5zM375 764h-66l-72 105l-72 -105h-65l103 144h70z" />
    <glyph glyph-name="scircumflex" unicode="&#x15d;" horiz-adv-x="340" 
d="M305 453l-39 -43q-29 49 -83 49q-32 0 -52.5 -24t-20.5 -61t18.5 -56t61.5 -35q111 -43 111 -145q0 -72 -39.5 -113t-102.5 -41q-86 0 -135 72l40 43q38 -59 96 -59q35 0 56.5 25.5t21.5 67.5q0 23 -7 40t-23 29t-27.5 17.5t-35.5 15.5q-46 17 -72.5 47.5t-26.5 88.5
q0 61 39.5 101t97.5 40q80 0 122 -59zM324 569h-66l-72 105l-72 -105h-65l103 144h70z" />
    <glyph glyph-name="Scedilla" unicode="&#x15e;" horiz-adv-x="434" 
d="M388 181q0 -82 -42 -134t-109 -62l-34 -60q12 4 32 4q30 0 52.5 -18t22.5 -52q0 -46 -32 -66.5t-76 -20.5q-50 0 -86 18l15 36q28 -14 66 -14q19 0 38.5 11t19.5 33q0 39 -49 39q-21 0 -40 -8l-16 15l47 81q-105 5 -162 84l43 49q49 -69 129 -69q49 0 81 35t32 96
q0 54 -32 88.5t-89 63.5q-68 34 -106 78.5t-38 121.5q0 93 53 144t127 51q102 0 151 -68l-43 -49q-38 54 -106 54q-47 0 -80.5 -33.5t-33.5 -97.5q0 -54 29 -86t83 -59q70 -35 111.5 -81.5t41.5 -123.5z" />
    <glyph glyph-name="scedilla" unicode="&#x15f;" horiz-adv-x="340" 
d="M305 453l-39 -43q-29 49 -83 49q-32 0 -52.5 -24t-20.5 -61t18.5 -56t61.5 -35q111 -43 111 -145q0 -60 -29 -99.5t-77 -50.5l-36 -63q12 4 32 4q30 0 52.5 -18t22.5 -52q0 -46 -32 -66.5t-76 -20.5q-50 0 -86 18l15 36q28 -14 66 -14q19 0 38.5 11t19.5 33q0 39 -49 39
q-21 0 -40 -8l-16 15l47 82q-83 3 -129 72l40 43q38 -59 96 -59q35 0 56.5 25.5t21.5 67.5q0 23 -7 40t-23 29t-27.5 17.5t-35.5 15.5q-46 17 -72.5 47.5t-26.5 88.5q0 61 39.5 101t97.5 40q80 0 122 -59z" />
    <glyph glyph-name="Scaron" unicode="&#x160;" horiz-adv-x="434" 
d="M388 181q0 -91 -51.5 -144.5t-128.5 -53.5q-53 0 -99 22.5t-74 61.5l43 49q49 -69 129 -69q49 0 81 35t32 96q0 54 -32 88.5t-89 63.5q-68 34 -106 78.5t-38 121.5q0 93 53 144t127 51q102 0 151 -68l-43 -49q-38 54 -106 54q-47 0 -80.5 -33.5t-33.5 -97.5q0 -54 29 -86
t83 -59q70 -35 111.5 -81.5t41.5 -123.5zM375 907l-102 -144h-70l-103 144h65l72 -105l72 105h66z" />
    <glyph glyph-name="scaron" unicode="&#x161;" horiz-adv-x="340" 
d="M305 453l-39 -43q-29 49 -83 49q-32 0 -52.5 -24t-20.5 -61t18.5 -56t61.5 -35q111 -43 111 -145q0 -72 -39.5 -113t-102.5 -41q-86 0 -135 72l40 43q38 -59 96 -59q35 0 56.5 25.5t21.5 67.5q0 23 -7 40t-23 29t-27.5 17.5t-35.5 15.5q-46 17 -72.5 47.5t-26.5 88.5
q0 61 39.5 101t97.5 40q80 0 122 -59zM321 712l-102 -144h-70l-103 144h65l72 -105l72 105h66z" />
    <glyph glyph-name="Tcommaaccent" unicode="&#x162;" horiz-adv-x="342" 
d="M342 648h-137v-648h-69v648h-136v60h342v-60zM203 -45l-49 -174h-50l41 174h58z" />
    <glyph glyph-name="tcommaaccent" unicode="&#x163;" horiz-adv-x="250" 
d="M238 0q-26 -13 -60 -13q-95 0 -95 132v323h-65v54h64v137h65v-137h88v-54h-88v-311q0 -86 52 -86q18 0 36 8zM192 -45l-49 -174h-50l41 174h58z" />
    <glyph glyph-name="Tcaron" unicode="&#x164;" horiz-adv-x="342" 
d="M342 648h-137v-648h-69v648h-136v60h342v-60zM309 907l-102 -144h-70l-103 144h65l72 -105l72 105h66z" />
    <glyph glyph-name="tcaron" unicode="&#x165;" horiz-adv-x="276" 
d="M238 0q-26 -13 -60 -13q-95 0 -95 132v323h-65v54h64v137h65v-137h88v-54h-88v-311q0 -86 52 -86q18 0 36 8zM285 731l-49 -174h-50l41 174h58z" />
    <glyph glyph-name="Tbar" unicode="&#x166;" horiz-adv-x="337" 
d="M295 496h-92v-496h-69v496h-97v43h97v109h-136v60h342v-60h-137v-109h92v-43z" />
    <glyph glyph-name="tbar" unicode="&#x167;" horiz-adv-x="250" 
d="M220 270h-73v-139q0 -86 52 -86q18 0 36 8l3 -53q-26 -13 -60 -13q-95 0 -95 132v151h-52v43h52v129h-65v54h64v137h65v-137h88v-54h-88v-129h73v-43z" />
    <glyph glyph-name="Utilde" unicode="&#x168;" horiz-adv-x="550" 
d="M477 248q0 -121 -48 -193t-155 -72q-201 0 -201 265v460h70v-451q0 -210 132 -210t132 210v451h70v-460zM401 880q-3 -48 -21.5 -73t-47.5 -25q-28 0 -63 24q-36 24 -53 24q-26 0 -34 -49h-37q3 46 21.5 73.5t47.5 27.5q26 0 63 -24t54 -24q15 0 22 10t11 36h37z" />
    <glyph glyph-name="utilde" unicode="&#x169;" horiz-adv-x="470" 
d="M73 496h66v-320q0 -134 78 -134q48 0 77 49t29 119v286h66v-371q0 -85 4 -125h-64q-4 50 -4 97h-2q-14 -51 -47 -82t-79 -31q-38 0 -64 16.5t-38.5 46t-17 60t-4.5 69.5v320zM359 685q-3 -48 -21.5 -73t-47.5 -25q-28 0 -63 24q-36 24 -53 24q-26 0 -34 -49h-37
q3 46 21.5 73.5t47.5 27.5q26 0 63 -24t54 -24q15 0 22 10t11 36h37z" />
    <glyph glyph-name="Umacron" unicode="&#x16a;" horiz-adv-x="550" 
d="M477 248q0 -121 -48 -193t-155 -72q-201 0 -201 265v460h70v-451q0 -210 132 -210t132 210v451h70v-460zM399 809h-249v52h249v-52z" />
    <glyph glyph-name="umacron" unicode="&#x16b;" horiz-adv-x="470" 
d="M73 496h66v-320q0 -134 78 -134q48 0 77 49t29 119v286h66v-371q0 -85 4 -125h-64q-4 50 -4 97h-2q-14 -51 -47 -82t-79 -31q-38 0 -64 16.5t-38.5 46t-17 60t-4.5 69.5v320zM356 614h-249v52h249v-52z" />
    <glyph glyph-name="Ubreve" unicode="&#x16c;" horiz-adv-x="550" 
d="M477 248q0 -121 -48 -193t-155 -72q-201 0 -201 265v460h70v-451q0 -210 132 -210t132 210v451h70v-460zM406 900q-8 -66 -43.5 -99t-88.5 -33q-52 0 -87.5 33t-41.5 99h50q6 -39 28 -59t51 -20q68 0 82 79h50z" />
    <glyph glyph-name="ubreve" unicode="&#x16d;" horiz-adv-x="470" 
d="M73 496h66v-320q0 -134 78 -134q48 0 77 49t29 119v286h66v-371q0 -85 4 -125h-64q-4 50 -4 97h-2q-14 -51 -47 -82t-79 -31q-38 0 -64 16.5t-38.5 46t-17 60t-4.5 69.5v320zM362 705q-8 -66 -43.5 -99t-88.5 -33q-52 0 -87.5 33t-41.5 99h50q6 -39 28 -59t51 -20
q68 0 82 79h50z" />
    <glyph glyph-name="Uring" unicode="&#x16e;" horiz-adv-x="550" 
d="M477 248q0 -121 -48 -193t-155 -72q-201 0 -201 265v460h70v-451q0 -210 132 -210t132 210v451h70v-460zM367 851q0 -43 -27 -72t-67 -29t-66 29t-26 72q0 44 26 73t66 29t67 -29t27 -73zM329 851q0 28 -15 47.5t-41 19.5q-25 0 -40 -19.5t-15 -47.5t15 -47t40 -19
q26 0 41 19t15 47z" />
    <glyph glyph-name="uring" unicode="&#x16f;" horiz-adv-x="470" 
d="M73 496h66v-320q0 -134 78 -134q48 0 77 49t29 119v286h66v-371q0 -85 4 -125h-64q-4 50 -4 97h-2q-14 -51 -47 -82t-79 -31q-38 0 -64 16.5t-38.5 46t-17 60t-4.5 69.5v320zM324 656q0 -43 -27 -72t-67 -29t-66 29t-26 72q0 44 26 73t66 29t67 -29t27 -73zM286 656
q0 28 -15 47.5t-41 19.5q-25 0 -40 -19.5t-15 -47.5t15 -47t40 -19q26 0 41 19t15 47z" />
    <glyph glyph-name="Uhungarumlaut" unicode="&#x170;" horiz-adv-x="550" 
d="M477 248q0 -121 -48 -193t-155 -72q-201 0 -201 265v460h70v-451q0 -210 132 -210t132 210v451h70v-460zM336 908l-106 -144h-56l90 144h72zM470 908l-106 -144h-56l90 144h72z" />
    <glyph glyph-name="uhungarumlaut" unicode="&#x171;" horiz-adv-x="470" 
d="M73 496h66v-320q0 -134 78 -134q48 0 77 49t29 119v286h66v-371q0 -85 4 -125h-64q-4 50 -4 97h-2q-14 -51 -47 -82t-79 -31q-38 0 -64 16.5t-38.5 46t-17 60t-4.5 69.5v320zM292 713l-106 -144h-56l90 144h72zM426 713l-106 -144h-56l90 144h72z" />
    <glyph glyph-name="Uogonek" unicode="&#x172;" horiz-adv-x="550" 
d="M477 248q0 -231 -157 -261q-59 -65 -59 -108q0 -21 13.5 -34.5t32.5 -13.5q28 0 47 22l17 -36q-34 -36 -79 -36q-38 0 -62 22t-24 59q0 58 63 121q-196 4 -196 265v460h70v-451q0 -210 132 -210t132 210v451h70v-460z" />
    <glyph glyph-name="uogonek" unicode="&#x173;" horiz-adv-x="468" 
d="M393 0h-21q-38 -41 -54.5 -67.5t-16.5 -53.5q0 -21 13.5 -34.5t32.5 -13.5q28 0 47 22l17 -36q-34 -36 -79 -36q-38 0 -62 22t-24 59q0 67 82 138h-1q-2 42 -2 97h-2q-14 -51 -47 -82.5t-79 -31.5q-124 0 -124 193v320h66v-320q0 -133 78 -133q48 0 77 49t29 119v285h66
v-370q0 -84 4 -126z" />
    <glyph glyph-name="Wcircumflex" unicode="&#x174;" horiz-adv-x="728" 
d="M713 708l-140 -708h-92l-116 606h-2l-115 -606h-92l-139 708h71l116 -619h2l118 619h84l120 -619h2l115 619h68zM504 764h-66l-72 105l-72 -105h-65l103 144h70z" />
    <glyph glyph-name="wcircumflex" unicode="&#x175;" horiz-adv-x="575" 
d="M551 496l-103 -496h-78l-84 403h-1l-85 -403h-75l-101 496h67l76 -420h1l87 420h64l88 -420h1l76 420h67zM425 569h-66l-72 105l-72 -105h-65l103 144h70z" />
    <glyph glyph-name="Ycircumflex" unicode="&#x176;" horiz-adv-x="422" 
d="M422 708l-178 -417v-291h-68v291l-176 417h76l134 -345l137 345h75zM348 764h-66l-72 105l-72 -105h-65l103 144h70z" />
    <glyph glyph-name="ycircumflex" unicode="&#x177;" horiz-adv-x="375" 
d="M358 496l-156 -601q-18 -68 -46.5 -101.5t-78.5 -33.5q-27 0 -51 8l9 59q18 -6 37 -6q27 0 42 19t25 56l22 86l-144 514h70l107 -419h2l95 419h67zM333 569h-66l-72 105l-72 -105h-65l103 144h70z" />
    <glyph glyph-name="Ydieresis" unicode="&#x178;" horiz-adv-x="422" 
d="M422 708l-178 -417v-291h-68v291l-176 417h76l134 -345l137 345h75zM182 843q0 -19 -12.5 -32t-29.5 -13q-19 0 -30.5 12.5t-11.5 32.5q0 19 12 32t30 13q17 0 29.5 -13t12.5 -32zM325 843q0 -19 -12 -32t-30 -13q-17 0 -29.5 13t-12.5 32t12.5 32t29.5 13q18 0 30 -13
t12 -32z" />
    <glyph glyph-name="Zacute" unicode="&#x179;" horiz-adv-x="397" 
d="M363 0h-334v60l259 586h-248v62h321v-61l-257 -584h259v-63zM309 908l-106 -144h-56l90 144h72z" />
    <glyph glyph-name="zacute" unicode="&#x17a;" horiz-adv-x="333" 
d="M303 0h-277v58l207 381h-191v57h260v-56l-206 -383h207v-57zM280 713l-106 -144h-56l90 144h72z" />
    <glyph glyph-name="Zdotaccent" unicode="&#x17b;" horiz-adv-x="397" 
d="M363 0h-334v60l259 586h-248v62h321v-61l-257 -584h259v-63zM246 843q0 -21 -13 -34.5t-31 -13.5q-19 0 -31.5 13.5t-12.5 34.5q0 20 12.5 34t31.5 14t31.5 -14t12.5 -34z" />
    <glyph glyph-name="zdotaccent" unicode="&#x17c;" horiz-adv-x="333" 
d="M303 0h-277v58l207 381h-191v57h260v-56l-206 -383h207v-57zM219 648q0 -21 -13 -34.5t-31 -13.5q-19 0 -31.5 13.5t-12.5 34.5q0 20 12.5 34t31.5 14t31.5 -14t12.5 -34z" />
    <glyph glyph-name="Zcaron" unicode="&#x17d;" horiz-adv-x="397" 
d="M363 0h-334v60l259 586h-248v62h321v-61l-257 -584h259v-63zM339 907l-102 -144h-70l-103 144h65l72 -105l72 105h66z" />
    <glyph glyph-name="zcaron" unicode="&#x17e;" horiz-adv-x="333" 
d="M303 0h-277v58l207 381h-191v57h260v-56l-206 -383h207v-57zM312 712l-102 -144h-70l-103 144h65l72 -105l72 105h66z" />
    <glyph glyph-name="florin" unicode="&#x192;" horiz-adv-x="470" 
d="M435 700l-21 -53q-21 16 -49 16q-37 0 -55 -26.5t-26 -72.5l-24 -145h105v-51h-113l-62 -371q-22 -140 -125 -140q-35 0 -56 11l15 56q14 -8 31 -8q20 0 33 7.5t21 25.5t12 34t9 47l55 338h-96v51h102l23 137q8 50 21 83.5t44 58t78 24.5q49 0 78 -22z" />
    <glyph glyph-name="Scommaaccent" unicode="&#x218;" horiz-adv-x="434" 
d="M388 181q0 -91 -51.5 -144.5t-128.5 -53.5q-53 0 -99 22.5t-74 61.5l43 49q49 -69 129 -69q49 0 81 35t32 96q0 54 -32 88.5t-89 63.5q-68 34 -106 78.5t-38 121.5q0 93 53 144t127 51q102 0 151 -68l-43 -49q-38 54 -106 54q-47 0 -80.5 -33.5t-33.5 -97.5q0 -54 29 -86
t83 -59q70 -35 111.5 -81.5t41.5 -123.5zM242 -45l-49 -174h-50l41 174h58z" />
    <glyph glyph-name="scommaaccent" unicode="&#x219;" horiz-adv-x="340" 
d="M305 453l-39 -43q-29 49 -83 49q-32 0 -52.5 -24t-20.5 -61t18.5 -56t61.5 -35q111 -43 111 -145q0 -72 -39.5 -113t-102.5 -41q-86 0 -135 72l40 43q38 -59 96 -59q35 0 56.5 25.5t21.5 67.5q0 23 -7 40t-23 29t-27.5 17.5t-35.5 15.5q-46 17 -72.5 47.5t-26.5 88.5
q0 61 39.5 101t97.5 40q80 0 122 -59zM189 -45l-49 -174h-50l41 174h58z" />
    <glyph glyph-name="uni021A" unicode="&#x21a;" horiz-adv-x="342" 
d="M342 648h-137v-648h-69v648h-136v60h342v-60zM205 -45l-49 -174h-50l41 174h58z" />
    <glyph glyph-name="uni021B" unicode="&#x21b;" horiz-adv-x="250" 
d="M238 0q-26 -13 -60 -13q-95 0 -95 132v323h-65v54h64v137h65v-137h88v-54h-88v-311q0 -86 52 -86q18 0 36 8zM194 -45l-49 -174h-50l41 174h58z" />
    <glyph glyph-name="circumflex" unicode="&#x2c6;" 
d="M250 569h-66l-72 105l-72 -105h-65l103 144h70z" />
    <glyph glyph-name="caron" unicode="&#x2c7;" 
d="M250 712l-102 -144h-70l-103 144h65l72 -105l72 105h66z" />
    <glyph glyph-name="uni02C9" unicode="&#x2c9;" 
d="M237 809h-249v52h249v-52z" />
    <glyph glyph-name="breve" unicode="&#x2d8;" 
d="M243 705q-8 -66 -43.5 -99t-88.5 -33q-52 0 -87.5 33t-41.5 99h50q6 -39 28 -59t51 -20q68 0 82 79h50z" />
    <glyph glyph-name="dotaccent" unicode="&#x2d9;" 
d="M156 648q0 -21 -13 -34.5t-31 -13.5q-19 0 -31.5 13.5t-12.5 34.5q0 20 12.5 34t31.5 14t31.5 -14t12.5 -34z" />
    <glyph glyph-name="ring" unicode="&#x2da;" 
d="M206 656q0 -43 -27 -72t-67 -29t-66 29t-26 72q0 44 26 73t66 29t67 -29t27 -73zM168 656q0 28 -15 47.5t-41 19.5q-25 0 -40 -19.5t-15 -47.5t15 -47t40 -19q26 0 41 19t15 47z" />
    <glyph glyph-name="ogonek" unicode="&#x2db;" 
d="M183 -147l17 -36q-34 -36 -79 -36q-38 0 -62 22t-24 59q0 67 82 138h44q-38 -41 -54.5 -67.5t-16.5 -53.5q0 -21 13.5 -34.5t32.5 -13.5q28 0 47 22z" />
    <glyph glyph-name="tilde" unicode="&#x2dc;" 
d="M240 685q-3 -48 -21.5 -73t-47.5 -25q-28 0 -63 24q-36 24 -53 24q-26 0 -34 -49h-37q3 46 21.5 73.5t47.5 27.5q26 0 63 -24t54 -24q15 0 22 10t11 36h37z" />
    <glyph glyph-name="hungarumlaut" unicode="&#x2dd;" 
d="M151 713l-106 -144h-56l90 144h72zM285 713l-106 -144h-56l90 144h72z" />
    <glyph glyph-name="uni0394" unicode="&#x394;" horiz-adv-x="670" 
d="M657 0h-642l281 712h74zM561 62l-229 583l-226 -583h455z" />
    <glyph glyph-name="uni03A9" unicode="&#x3a9;" horiz-adv-x="744" 
d="M685 0h-251v181q89 15 136.5 78.5t47.5 155.5q0 106 -72.5 175.5t-179.5 69.5t-179.5 -69.5t-72.5 -175.5q0 -92 48 -156t136 -78v-181h-251v58h197v82q-92 26 -144.5 102t-52.5 174q0 131 94 218t226 87t225 -86.5t93 -217.5q0 -99 -52 -175t-145 -102v-82h197v-58z" />
    <glyph glyph-name="uni03BC" unicode="&#x3bc;" horiz-adv-x="556" 
d="M72 -228v696h66v-259q0 -88 28 -124.5t99 -36.5q62 0 102 48t40 132v240h66v-365q0 -18 5 -103h-71v76h-2q-22 -36 -67 -62t-90 -26q-69 0 -110 29v-245h-66z" />
    <glyph glyph-name="pi" unicode="&#x3c0;" horiz-adv-x="563" 
d="M530 11q-37 -17 -64 -17q-23 0 -38.5 7t-23.5 16t-12 27t-5 31t-1 36v298h-220v-409h-64v409h-70v59h494v-59h-76v-305q0 -18 1.5 -27.5t10.5 -18t26 -8.5q20 0 42 10v-49z" />
    <glyph glyph-name="endash" unicode="&#x2013;" horiz-adv-x="360" 
d="M336 233h-312v56h312v-56z" />
    <glyph glyph-name="emdash" unicode="&#x2014;" horiz-adv-x="460" 
d="M436 233h-412v56h412v-56z" />
    <glyph glyph-name="quoteleft" unicode="&#x2018;" horiz-adv-x="189" 
d="M145 708l-42 -238h-59l51 238h50z" />
    <glyph glyph-name="quoteright" unicode="&#x2019;" horiz-adv-x="189" 
d="M145 708l-51 -238h-50l42 238h59z" />
    <glyph glyph-name="quotesinglbase" unicode="&#x201a;" horiz-adv-x="187" 
d="M143 108l-49 -238h-50l41 238h58z" />
    <glyph glyph-name="quotedblleft" unicode="&#x201c;" horiz-adv-x="317" 
d="M273 708l-43 -238h-59l51 238h51zM145 708l-42 -238h-59l51 238h50z" />
    <glyph glyph-name="quotedblright" unicode="&#x201d;" horiz-adv-x="315" 
d="M271 708l-50 -238h-51l42 238h59zM145 708l-50 -238h-51l42 238h59z" />
    <glyph glyph-name="quotedblbase" unicode="&#x201e;" horiz-adv-x="313" 
d="M143 108l-48 -238h-51l41 238h58zM269 108l-49 -238h-50l41 238h58z" />
    <glyph glyph-name="dagger" unicode="&#x2020;" horiz-adv-x="375" 
d="M362 447h-144v-574h-59v574h-144v56h144v205h59v-205h144v-56z" />
    <glyph glyph-name="daggerdbl" unicode="&#x2021;" horiz-adv-x="375" 
d="M362 70h-144v-197h-59v197h-144v56h144v329h-144v55h144v198h59v-198h144v-55h-144v-329h144v-56z" />
    <glyph glyph-name="bullet" unicode="&#x2022;" horiz-adv-x="500" 
d="M73 354q0 74 51.5 125.5t125.5 51.5t125.5 -51.5t51.5 -125.5t-51.5 -125.5t-125.5 -51.5t-125.5 51.5t-51.5 125.5z" />
    <glyph glyph-name="ellipsis" unicode="&#x2026;" horiz-adv-x="900" 
d="M197 43q0 -22 -13.5 -36t-33.5 -14t-33 14t-13 36q0 20 13.5 35t32.5 15t33 -15t14 -35zM797 43q0 -22 -13.5 -36t-33.5 -14t-33 14t-13 36q0 20 13.5 35t32.5 15t33 -15t14 -35zM497 43q0 -22 -13.5 -36t-33.5 -14t-33 14t-13 36q0 20 13.5 35t32.5 15t33 -15t14 -35z
" />
    <glyph glyph-name="perthousand" unicode="&#x2030;" horiz-adv-x="880" 
d="M278 548q0 -77 -31.5 -125.5t-86.5 -48.5q-54 0 -86 48.5t-32 125.5q0 78 31.5 126.5t86.5 48.5q54 0 86 -49t32 -126zM224 548q0 56 -16.5 91t-47.5 35t-47.5 -35t-16.5 -91q0 -55 16.5 -90t47.5 -35q30 0 47 35t17 90zM568 162q0 -77 -31.5 -125.5t-86.5 -48.5
q-54 0 -86 48.5t-32 125.5q0 78 31.5 126.5t86.5 48.5q54 0 86 -49t32 -126zM514 162q0 56 -16.5 91t-47.5 35t-47.5 -35t-16.5 -91q0 -55 16.5 -90t47.5 -35q30 0 47 35t17 90zM846 162q0 -77 -31.5 -125.5t-86.5 -48.5q-54 0 -86 48.5t-32 125.5q0 78 31.5 126.5
t86.5 48.5q54 0 86 -49t32 -126zM792 162q0 56 -16.5 91t-47.5 35t-47.5 -35t-16.5 -91q0 -55 16.5 -90t47.5 -35q30 0 47 35t17 90zM468 722l-277 -745l-49 15l278 745z" />
    <glyph glyph-name="guilsinglleft" unicode="&#x2039;" horiz-adv-x="214" 
d="M34 249l101 213l45 -25l-88 -188l88 -188l-45 -25z" />
    <glyph glyph-name="guilsinglright" unicode="&#x203a;" horiz-adv-x="214" 
d="M180 249l-101 -213l-45 25l88 188l-88 188l45 25z" />
    <glyph glyph-name="fraction" unicode="&#x2044;" horiz-adv-x="100" 
d="M217 722l-277 -745l-45 15l278 745z" />
    <glyph glyph-name="Euro" unicode="&#x20ac;" horiz-adv-x="470" 
d="M425 649q-34 18 -86 18q-69 0 -116 -53t-63 -153h223l-13 -48h-218q-4 -23 -4 -63q0 -23 2 -53h200l-11 -48h-183q12 -96 59 -151t116 -55q53 0 98 27l12 -57q-48 -29 -117 -29q-98 0 -158.5 72t-77.5 193h-63l12 48h48q-3 23 -3 53q0 39 4 63h-59l11 48h52
q24 130 87.5 196.5t159.5 66.5q60 0 104 -20z" />
    <glyph glyph-name="afii61289" unicode="&#x2113;" horiz-adv-x="500" 
d="M415 41q-59 -55 -130 -55q-57 0 -92 33t-35 95v114l-58 -62h-2l-26 37l86 84v259q0 81 36.5 128t92.5 47q49 0 79.5 -34.5t30.5 -93.5q0 -142 -171 -318v-150q0 -47 22 -67t53 -20q46 0 88 38h2zM340 588q0 38 -15 61.5t-38 23.5q-25 0 -43 -30t-18 -86v-222
q114 132 114 253z" />
    <glyph glyph-name="trademark" unicode="&#x2122;" horiz-adv-x="760" 
d="M677 296h-53v343h-2l-100 -343h-41l-99 343h-2v-343h-53v412h87l89 -315l88 315h86v-412zM273 658h-85v-362h-60v362h-84v50h229v-50z" />
    <glyph glyph-name="Omega" unicode="&#x2126;" horiz-adv-x="744" 
d="M685 0h-251v181q89 15 136.5 78.5t47.5 155.5q0 106 -72.5 175.5t-179.5 69.5t-179.5 -69.5t-72.5 -175.5q0 -92 48 -156t136 -78v-181h-251v58h197v82q-92 26 -144.5 102t-52.5 174q0 131 94 218t226 87t225 -86.5t93 -217.5q0 -99 -52 -175t-145 -102v-82h197v-58z" />
    <glyph glyph-name="estimated" unicode="&#x212e;" horiz-adv-x="604" 
d="M561 259h-404v-181q59 -59 145 -59q122 0 193 120l35 -21q-46 -72 -98 -103.5t-130 -31.5q-115 0 -186.5 79t-71.5 197q0 119 71 197.5t187 78.5q115 0 186.5 -77t72.5 -199zM157 295h291v145q-63 60 -147 60t-144 -60v-145z" />
    <glyph glyph-name="partialdiff" unicode="&#x2202;" horiz-adv-x="496" 
d="M455 363q0 -50 -4.5 -96t-19.5 -99t-38.5 -91t-65.5 -63.5t-97 -25.5q-90 0 -144.5 66t-54.5 158q0 90 52.5 151.5t141.5 61.5q97 0 166 -84q0 9 0.5 26t0.5 26q0 46 -9 90.5t-28.5 87t-56 69t-85.5 26.5q-52 0 -112 -46l-36 43q67 58 145 58q68 0 118.5 -33t76.5 -88.5
t38 -114t12 -122.5zM386 278q-68 91 -155 91q-64 0 -100.5 -46.5t-36.5 -112.5t36.5 -117.5t100.5 -51.5q41 0 72 23.5t47.5 61.5t25 75.5t10.5 76.5z" />
    <glyph glyph-name="Delta" unicode="&#x2206;" horiz-adv-x="670" 
d="M657 0h-642l281 712h74zM561 62l-229 583l-226 -583h455z" />
    <glyph glyph-name="product" unicode="&#x220f;" horiz-adv-x="711" 
d="M641 -214h-66v938h-438v-938h-66v1000h570v-1000z" />
    <glyph glyph-name="summation" unicode="&#x2211;" horiz-adv-x="604" 
d="M578 -214h-553v55l329 448l-315 441v56h527v-62h-442l309 -435l-328 -442h473v-61z" />
    <glyph glyph-name="minus" unicode="&#x2212;" horiz-adv-x="666" 
d="M588 333v-60h-510v60h510z" />
    <glyph glyph-name="uni2215" unicode="&#x2215;" horiz-adv-x="100" 
d="M217 722l-277 -745l-45 15l278 745z" />
    <glyph glyph-name="uni2219" unicode="&#x2219;" horiz-adv-x="217" 
d="M155 260q0 -22 -13.5 -36t-33.5 -14t-33 14t-13 36q0 20 13.5 35t32.5 15t33 -15t14 -35z" />
    <glyph glyph-name="radical" unicode="&#x221a;" horiz-adv-x="493" 
d="M502 786l-210 -1000h-66l-164 340l-46 -22l-24 50l100 48l158 -332l189 916h63z" />
    <glyph glyph-name="infinity" unicode="&#x221e;" horiz-adv-x="741" 
d="M700 252q0 -64 -38.5 -106t-101.5 -42q-36 0 -73.5 18.5t-59 36.5t-56.5 52q-9 -7 -33 -28.5t-36.5 -31t-34 -23t-42.5 -19t-44 -5.5q-62 0 -101 41.5t-39 103.5q0 63 38 105.5t100 42.5q28 0 53.5 -8.5t54.5 -30.5t40.5 -32t43.5 -41q5 5 22.5 21.5t24.5 23t23 20.5
t27.5 20t27 14t31 11t31.5 3q63 0 102.5 -41.5t39.5 -104.5zM643 249q0 40 -22 66t-61 26q-9 0 -18.5 -1.5t-19 -6t-17.5 -8.5t-18.5 -11.5t-16.5 -11.5t-17 -14t-15 -13.5t-15.5 -14t-13.5 -12.5q33 -29 47.5 -41t46.5 -28.5t60 -16.5q37 0 58.5 24.5t21.5 62.5zM333 249
q-3 2 -18 15t-21 18t-20.5 16.5t-24 17t-22.5 12t-25 9.5t-24 3q-37 0 -58.5 -26.5t-21.5 -63.5q0 -39 22.5 -63.5t61.5 -24.5q62 0 151 87z" />
    <glyph glyph-name="integral" unicode="&#x222b;" horiz-adv-x="543" 
d="M406 736q0 -16 -10.5 -25t-26.5 -9q-20 0 -32.5 20t-19.5 20q-10 0 -17 -9.5t-10.5 -25.5t-5.5 -34t-2.5 -39t0 -36.5t1 -30t0.5 -16.5v-504q0 -122 -16 -173q-28 -87 -106 -87q-24 0 -42 12t-18 35q0 13 9.5 22.5t23.5 9.5q15 0 23.5 -9.5t14 -19t12.5 -9.5q32 0 32 159
l1 21v495q0 8 -1 43.5t0 53.5t3.5 52t10.5 53t20.5 40t34.5 31t51 10q27 0 48.5 -12.5t21.5 -37.5z" />
    <glyph glyph-name="approxequal" unicode="&#x2248;" horiz-adv-x="666" 
d="M596 402q-6 -58 -37 -97.5t-86 -39.5q-48 0 -145 37q-98 36 -133 36q-32 0 -53 -23.5t-26 -56.5h-45q8 60 38 99.5t86 39.5q45 0 143 -36q97 -37 136 -37q62 0 79 78h43zM596 232q-7 -59 -37.5 -98.5t-86.5 -39.5q-49 0 -144 37q-98 36 -133 36q-32 0 -53 -23.5
t-26 -56.5h-45q9 60 38 100t85 40q44 0 144 -36q95 -37 136 -37q61 0 78 78h44z" />
    <glyph glyph-name="notequal" unicode="&#x2260;" horiz-adv-x="666" 
d="M584 120h-287l-76 -144l-52 27l62 117h-149v60h181l68 130h-249v60h282l77 147l52 -28l-63 -119h154v-60h-186l-69 -130h255v-60z" />
    <glyph glyph-name="lessequal" unicode="&#x2264;" horiz-adv-x="666" 
d="M584 108l-502 188v65l502 189v-65l-419 -157l419 -155v-65zM584 6h-502v59h502v-59z" />
    <glyph glyph-name="greaterequal" unicode="&#x2265;" horiz-adv-x="666" 
d="M584 296l-502 -188v65l420 155l-420 157v65l502 -189v-65zM584 6h-502v59h502v-59z" />
    <glyph glyph-name="lozenge" unicode="&#x25ca;" horiz-adv-x="593" 
d="M498 356l-171 -391h-63l-169 391l169 391h63zM433 356l-137 325l-136 -325l136 -325z" />
    <glyph glyph-name="uniF8FF" unicode="&#xf8ff;" horiz-adv-x="512" 
d="M222 117h56v67h-56v-67zM225 234h46q0 52 6 72q6 19 43 52q37 34 50 60t13 60q0 59 -35 95t-89 36q-56 0 -92 -34t-43 -103l50 -8q11 95 82 95q31 0 53.5 -24.5t22.5 -60.5q0 -20 -9.5 -37t-40.5 -46q-31 -31 -46 -59q-13 -25 -13 -81zM462 50h-412v617h412v-617z
M512 718h-512v-718h512v718z" />
    <glyph glyph-name="ydieresis.sc" horiz-adv-x="350" 
d="M349 550l-142 -324v-226h-66v226l-140 324h74l100 -251l102 251h72zM290 689q0 -19 -12 -32t-30 -13q-17 0 -29.5 13t-12.5 32t12.5 32t29.5 13q18 0 30 -13t12 -32zM147 689q0 -19 -12.5 -32t-29.5 -13q-19 0 -30.5 12.5t-11.5 32.5q0 19 12 32t30 13q17 0 29.5 -13
t12.5 -32z" />
    <glyph glyph-name="n.sc" horiz-adv-x="482" 
d="M404 0h-82l-176 437h-3v-437h-65v550h86l175 -440h2v440h63v-550z" />
    <glyph glyph-name="umacron.sc" horiz-adv-x="471" 
d="M399 192q0 -93 -38.5 -149.5t-125.5 -56.5q-163 0 -163 206v358h68v-351q0 -152 96 -152t96 152v351h67v-358zM361 655h-249v52h249v-52z" />
    <glyph glyph-name="ohungarumlaut.sc" horiz-adv-x="475" 
d="M426 275q0 -130 -50 -209.5t-138 -79.5t-138.5 80t-50.5 209q0 130 49.5 209.5t139.5 79.5q88 0 138 -79.5t50 -209.5zM356 275q0 102 -31.5 166.5t-86.5 64.5q-56 0 -87.5 -64t-31.5 -167q0 -102 31.5 -165.5t87.5 -63.5t87 63.5t31 165.5zM305 754l-106 -144h-56
l90 144h72zM439 754l-106 -144h-56l90 144h72z" />
    <glyph glyph-name="iogonek.sc" horiz-adv-x="223" 
d="M167 -147l17 -36q-34 -36 -79 -36q-38 0 -62 22t-24 59q0 67 82 138h-23v550h67v-550q-37 -41 -52 -64q-19 -30 -19 -57q0 -21 13.5 -34.5t32.5 -13.5q28 0 47 22z" />
    <glyph glyph-name="p.sc" horiz-adv-x="384" 
d="M361 398q0 -74 -41 -116t-101 -42h-74v-240h-67v550h137q59 0 102.5 -36.5t43.5 -115.5zM294 397q0 49 -23 72t-62 23h-64v-196h65q38 0 61 25.5t23 75.5z" />
    <glyph glyph-name="macron.sc" 
d="M237 655h-249v52h249v-52z" />
    <glyph glyph-name="ugrave.sc" horiz-adv-x="471" 
d="M399 192q0 -93 -38.5 -149.5t-125.5 -56.5q-163 0 -163 206v358h68v-351q0 -152 96 -152t96 152v351h67v-358zM272 610h-56l-106 144h72z" />
    <glyph glyph-name="oe.sc" horiz-adv-x="539" 
d="M497 0h-256q-97 0 -152 71.5t-55 203.5t55 203.5t152 71.5h249v-60h-160v-177h149v-57h-149v-196h167v-60zM265 59v431h-23q-62 0 -101 -54t-39 -161t39 -161.5t101 -54.5h23z" />
    <glyph glyph-name="udieresis.sc" horiz-adv-x="471" 
d="M399 192q0 -93 -38.5 -149.5t-125.5 -56.5q-163 0 -163 206v358h68v-351q0 -152 96 -152t96 152v351h67v-358zM350 689q0 -19 -12 -32t-30 -13q-17 0 -29.5 13t-12.5 32t12.5 32t29.5 13q18 0 30 -13t12 -32zM207 689q0 -19 -12.5 -32t-29.5 -13q-19 0 -30.5 12.5
t-11.5 32.5q0 19 12 32t30 13q17 0 29.5 -13t12.5 -32z" />
    <glyph glyph-name="grave.sc" 
d="M162 610h-56l-106 144h72z" />
    <glyph glyph-name="hungarumlaut.cap" 
d="M151 908l-106 -144h-56l90 144h72zM285 908l-106 -144h-56l90 144h72z" />
    <glyph glyph-name="otilde.sc" horiz-adv-x="475" 
d="M426 275q0 -130 -50 -209.5t-138 -79.5t-138.5 80t-50.5 209q0 130 49.5 209.5t139.5 79.5q88 0 138 -79.5t50 -209.5zM356 275q0 102 -31.5 166.5t-86.5 64.5q-56 0 -87.5 -64t-31.5 -167q0 -102 31.5 -165.5t87.5 -63.5t87 63.5t31 165.5zM366 726q-3 -48 -21.5 -73
t-47.5 -25q-28 0 -63 24q-36 24 -53 24q-26 0 -34 -49h-37q3 46 21.5 73.5t47.5 27.5q26 0 63 -24t54 -24q15 0 22 10t11 36h37z" />
    <glyph glyph-name="imacron.sc" horiz-adv-x="223" 
d="M145 0h-67v550h67v-550zM237 655h-249v52h249v-52z" />
    <glyph glyph-name="ocircumflex.sc" horiz-adv-x="475" 
d="M426 275q0 -130 -50 -209.5t-138 -79.5t-138.5 80t-50.5 209q0 130 49.5 209.5t139.5 79.5q88 0 138 -79.5t50 -209.5zM356 275q0 102 -31.5 166.5t-86.5 64.5q-56 0 -87.5 -64t-31.5 -167q0 -102 31.5 -165.5t87.5 -63.5t87 63.5t31 165.5zM376 610h-66l-72 105
l-72 -105h-65l103 144h70z" />
    <glyph glyph-name="perthousand.sc" horiz-adv-x="684" 
d="M559 -10q-43 0 -67 38t-24 97t24 96.5t67 37.5t67.5 -38t24.5 -96t-24.5 -96.5t-67.5 -38.5zM559 211q-18 0 -29 -23t-11 -63t11 -63t29 -23t29.5 23t11.5 63t-11.5 63t-29.5 23zM125 294q-43 0 -67.5 38t-24.5 96q0 59 24 96.5t68 37.5q43 0 67.5 -38t24.5 -96
t-24.5 -96t-67.5 -38zM125 514q-18 0 -29.5 -23t-11.5 -63t11.5 -63t29.5 -23t29 23t11 63t-11 63t-29 23zM352 -10q-43 0 -67.5 38.5t-24.5 96.5q0 59 24 96.5t68 37.5q43 0 67.5 -38t24.5 -96t-24.5 -96.5t-67.5 -38.5zM352 211q-18 0 -29.5 -23t-11.5 -63t11.5 -63
t29.5 -23t29 23t11 63t-11 63t-29 23zM153 -19l-50 15l221 578l49 -15z" />
    <glyph glyph-name="napostrophe.sc" horiz-adv-x="533" 
d="M95 550l-49 -174h-50l41 174h58zM455 0h-82l-176 437h-3v-437h-65v550h86l175 -440h2v440h63v-550z" />
    <glyph glyph-name="ij.sc" horiz-adv-x="540" 
d="M145 0h-67v550h67v-550zM469 153q0 -167 -129 -167q-99 0 -123 101l60 24q13 -64 62 -64q34 0 48.5 27t14.5 85v391h67v-397z" />
    <glyph glyph-name="percent.sc" horiz-adv-x="540" 
d="M134 274q-47 0 -74 40.5t-27 103.5t26.5 103.5t74.5 40.5q47 0 74.5 -40.5t27.5 -103.5t-27.5 -103.5t-74.5 -40.5zM134 511q-21 0 -33 -25t-12 -68t12 -68t33 -25t33.5 25t12.5 68t-12.5 68t-33.5 25zM405 -12q-48 0 -75.5 40.5t-27.5 103.5t27.5 104t75.5 41
q47 0 74.5 -41t27.5 -104t-27.5 -103.5t-74.5 -40.5zM405 226q-21 0 -33.5 -25.5t-12.5 -68.5t12.5 -68t33.5 -25q20 0 32.5 25t12.5 68t-12.5 68.5t-32.5 25.5zM182 -19l-50 15l220 578l50 -15z" />
    <glyph glyph-name="obreve.sc" horiz-adv-x="475" 
d="M426 275q0 -130 -50 -209.5t-138 -79.5t-138.5 80t-50.5 209q0 130 49.5 209.5t139.5 79.5q88 0 138 -79.5t50 -209.5zM356 275q0 102 -31.5 166.5t-86.5 64.5q-56 0 -87.5 -64t-31.5 -167q0 -102 31.5 -165.5t87.5 -63.5t87 63.5t31 165.5zM367 746q-8 -66 -43.5 -99
t-88.5 -33q-52 0 -87.5 33t-41.5 99h50q6 -39 28 -59t51 -20q68 0 82 79h50z" />
    <glyph glyph-name="two.onum" horiz-adv-x="435" 
d="M144 61v-2h238v-59h-323v57q150 147 201.5 212.5t51.5 124.5q0 49 -24.5 81t-73.5 32q-71 0 -110 -84l-53 28q23 52 65 84t99 32q82 0 123 -46.5t41 -118.5q0 -41 -13.5 -76.5t-67 -102.5t-154.5 -162z" />
    <glyph glyph-name="nine.sc" horiz-adv-x="416" 
d="M363 387q0 -70 -40 -153l-116 -234h-73l120 231l-3 1q-23 -17 -56 -17q-57 0 -99 43.5t-42 129.5q0 78 43 127t113 49q72 0 112.5 -48.5t40.5 -128.5zM298 389q0 56 -24 87.5t-64 31.5t-64.5 -32.5t-24.5 -88.5q0 -55 23 -87t64 -32q39 0 64.5 34.5t25.5 86.5z" />
    <glyph glyph-name="oacute.sc" horiz-adv-x="475" 
d="M426 275q0 -130 -50 -209.5t-138 -79.5t-138.5 80t-50.5 209q0 130 49.5 209.5t139.5 79.5q88 0 138 -79.5t50 -209.5zM356 275q0 102 -31.5 166.5t-86.5 64.5q-56 0 -87.5 -64t-31.5 -167q0 -102 31.5 -165.5t87.5 -63.5t87 63.5t31 165.5zM370 754l-106 -144h-56
l90 144h72z" />
    <glyph glyph-name="idotaccent.sc" horiz-adv-x="223" 
d="M145 0h-67v550h67v-550zM156 689q0 -21 -13 -34.5t-31 -13.5q-19 0 -31.5 13.5t-12.5 34.5q0 20 12.5 34t31.5 14t31.5 -14t12.5 -34z" />
    <glyph glyph-name="ucircumflex.sc" horiz-adv-x="471" 
d="M399 192q0 -93 -38.5 -149.5t-125.5 -56.5q-163 0 -163 206v358h68v-351q0 -152 96 -152t96 152v351h67v-358zM374 610h-66l-72 105l-72 -105h-65l103 144h70z" />
    <glyph glyph-name="macron.cap" 
d="M237 809h-249v52h249v-52z" />
    <glyph glyph-name="oslash.sc" horiz-adv-x="475" 
d="M414 564l-39 -78q51 -79 51 -211q0 -130 -50 -209.5t-138 -79.5q-63 0 -108 42l-27 -57l-42 17l41 74q-53 77 -53 213q0 130 49.5 209.5t139.5 79.5q62 0 108 -43l28 60zM119 275q0 -89 22 -146l171 334q-30 43 -74 43q-56 0 -87.5 -64t-31.5 -167zM356 275q0 80 -21 141
l-172 -329q30 -41 75 -41q56 0 87 63.5t31 165.5z" />
    <glyph glyph-name="yacute.sc" horiz-adv-x="350" 
d="M349 550l-142 -324v-226h-66v226l-140 324h74l100 -251l102 251h72zM303 754l-106 -144h-56l90 144h72z" />
    <glyph glyph-name="uhungarumlaut.sc" horiz-adv-x="471" 
d="M399 192q0 -93 -38.5 -149.5t-125.5 -56.5q-163 0 -163 206v358h68v-351q0 -152 96 -152t96 152v351h67v-358zM301 754l-106 -144h-56l90 144h72zM435 754l-106 -144h-56l90 144h72z" />
    <glyph glyph-name="omacron.sc" horiz-adv-x="475" 
d="M426 275q0 -130 -50 -209.5t-138 -79.5t-138.5 80t-50.5 209q0 130 49.5 209.5t139.5 79.5q88 0 138 -79.5t50 -209.5zM356 275q0 102 -31.5 166.5t-86.5 64.5q-56 0 -87.5 -64t-31.5 -167q0 -102 31.5 -165.5t87.5 -63.5t87 63.5t31 165.5zM362 655h-249v52h249v-52z
" />
    <glyph glyph-name="z.sc" horiz-adv-x="342" 
d="M306 0h-273v54l199 436h-188v60h261v-55l-196 -434h197v-61z" />
    <glyph glyph-name="questiondown.sc" horiz-adv-x="321" 
d="M20 121q0 45 17.5 75.5t48.5 60.5q25 26 33.5 46t8.5 51v35h60v-43q0 -64 -59 -128q-23 -25 -33.5 -43.5t-10.5 -47.5q0 -41 17.5 -63.5t48.5 -22.5q30 0 49.5 25t25.5 64l58 -11q-9 -62 -44.5 -97.5t-93.5 -35.5q-59 0 -92.5 35.5t-33.5 99.5zM110 510q0 19 12.5 32.5
t30.5 13.5q19 0 31.5 -13t12.5 -33q0 -19 -13 -33t-31 -14t-30.5 14t-12.5 33z" />
    <glyph glyph-name="idieresis.sc" horiz-adv-x="223" 
d="M145 0h-67v550h67v-550zM225 689q0 -19 -12 -32t-30 -13q-17 0 -29.5 13t-12.5 32t12.5 32t29.5 13q18 0 30 -13t12 -32zM82 689q0 -19 -12.5 -32t-29.5 -13q-19 0 -30.5 12.5t-11.5 32.5q0 19 12 32t30 13q17 0 29.5 -13t12.5 -32z" />
    <glyph glyph-name="one.sc" horiz-adv-x="416" 
d="M274 0h-66v470l-97 -73l-33 50l136 103h60v-550z" />
    <glyph glyph-name="question.sc" horiz-adv-x="321" 
d="M301 429q0 -45 -17.5 -75.5t-48.5 -60.5q-25 -26 -33.5 -46t-8.5 -51v-35h-60v43q0 64 59 128q23 25 33.5 43.5t10.5 47.5q0 41 -17.5 63.5t-48.5 22.5q-30 0 -49.5 -25t-25.5 -64l-58 11q9 62 44.5 97.5t93.5 35.5q59 0 92.5 -35.5t33.5 -99.5zM211 40
q0 -19 -12.5 -32.5t-30.5 -13.5q-19 0 -31.5 13t-12.5 33q0 19 13 33t31 14t30.5 -14t12.5 -33z" />
    <glyph glyph-name="iacute.sc" horiz-adv-x="223" 
d="M145 0h-67v550h67v-550zM243 754l-106 -144h-56l90 144h72z" />
    <glyph glyph-name="three.sc" horiz-adv-x="416" 
d="M357 151q0 -68 -41.5 -116.5t-113.5 -48.5q-120 0 -156 111l62 21q24 -74 93 -74q43 0 67 32.5t24 76.5q0 51 -28 78.5t-75 27.5h-30v55h31q41 0 64.5 26.5t23.5 73.5q0 37 -19.5 65t-57.5 28q-51 0 -76 -57l-59 20q19 48 56 71t81 23q65 0 102.5 -40.5t37.5 -103.5
q0 -44 -20.5 -79.5t-59.5 -48.5v-2q45 -10 69.5 -47.5t24.5 -91.5z" />
    <glyph glyph-name="ordfeminine.sc" horiz-adv-x="300" 
d="M259 404h-50l-17 67h-85l-16 -67h-50l78 316h64zM185 513l-34 157h-2l-35 -157h71z" />
    <glyph glyph-name="l.sc" horiz-adv-x="310" 
d="M302 0h-224v550h67v-489h157v-61z" />
    <glyph glyph-name="scommaaccent.sc" horiz-adv-x="354" 
d="M202 -45l-49 -174h-50l41 174h58zM169 -10q-89 0 -141 69l41 46q42 -55 99 -55q35 0 58 25t23 68q0 40 -22 62t-66 46q-28 15 -42.5 24.5t-34.5 28.5t-29 44.5t-9 58.5q0 73 42 113t102 40q82 0 123 -58l-41 -45q-33 44 -81 44q-33 0 -57 -23.5t-24 -69.5q0 -38 21.5 -61
t61.5 -42q55 -28 87.5 -63t32.5 -96q0 -71 -41 -113.5t-103 -42.5z" />
    <glyph glyph-name="uring.sc" horiz-adv-x="471" 
d="M399 192q0 -93 -38.5 -149.5t-125.5 -56.5q-163 0 -163 206v358h68v-351q0 -152 96 -152t96 152v351h67v-358zM329 697q0 -43 -27 -72t-67 -29t-66 29t-26 72q0 44 26 73t66 29t67 -29t27 -73zM291 697q0 28 -15 47.5t-41 19.5q-25 0 -40 -19.5t-15 -47.5t15 -47t40 -19
q26 0 41 19t15 47z" />
    <glyph glyph-name="i.sc" horiz-adv-x="223" 
d="M145 0h-67v550h67v-550z" />
    <glyph glyph-name="hcircumflex.sc" horiz-adv-x="489" 
d="M411 0h-67v255h-199v-255h-67v550h67v-236h198v236h68v-550zM384 610h-66l-72 105l-72 -105h-65l103 144h70z" />
    <glyph glyph-name="ograve.sc" horiz-adv-x="475" 
d="M426 275q0 -130 -50 -209.5t-138 -79.5t-138.5 80t-50.5 209q0 130 49.5 209.5t139.5 79.5q88 0 138 -79.5t50 -209.5zM356 275q0 102 -31.5 166.5t-86.5 64.5q-56 0 -87.5 -64t-31.5 -167q0 -102 31.5 -165.5t87.5 -63.5t87 63.5t31 165.5zM271 610h-56l-106 144h72z
" />
    <glyph glyph-name="ycircumflex.sc" horiz-adv-x="350" 
d="M349 550l-142 -324v-226h-66v226l-140 324h74l100 -251l102 251h72zM313 610h-66l-72 105l-72 -105h-65l103 144h70z" />
    <glyph glyph-name="o.sc" horiz-adv-x="475" 
d="M426 275q0 -130 -50 -209.5t-138 -79.5t-138.5 80t-50.5 209q0 130 49.5 209.5t139.5 79.5q88 0 138 -79.5t50 -209.5zM356 275q0 102 -31.5 166.5t-86.5 64.5q-56 0 -87.5 -64t-31.5 -167q0 -102 31.5 -165.5t87.5 -63.5t87 63.5t31 165.5z" />
    <glyph glyph-name="scircumflex.sc" horiz-adv-x="354" 
d="M169 -10q-89 0 -141 69l41 46q42 -55 99 -55q35 0 58 25t23 68q0 40 -22 62t-66 46q-28 15 -42.5 24.5t-34.5 28.5t-29 44.5t-9 58.5q0 73 42 113t102 40q82 0 123 -58l-41 -45q-33 44 -81 44q-33 0 -57 -23.5t-24 -69.5q0 -38 21.5 -61t61.5 -42q55 -28 87.5 -63
t32.5 -96q0 -71 -41 -113.5t-103 -42.5zM329 610h-66l-72 105l-72 -105h-65l103 144h70z" />
    <glyph glyph-name="j.sc" horiz-adv-x="313" 
d="M242 153q0 -167 -129 -167q-99 0 -123 101l60 24q13 -64 62 -64q34 0 48.5 27t14.5 85v391h67v-397z" />
    <glyph glyph-name="igrave.sc" horiz-adv-x="223" 
d="M145 0h-67v550h67v-550zM141 610h-56l-106 144h72z" />
    <glyph glyph-name="aring.sc" horiz-adv-x="379" 
d="M370 0h-68l-32 129h-162l-32 -129h-67l138 550h88zM260 185l-69 298h-3l-70 -298h142zM283 697q0 -43 -27 -72t-67 -29t-66 29t-26 72q0 44 26 73t66 29t67 -29t27 -73zM245 697q0 28 -15 47.5t-41 19.5q-25 0 -40 -19.5t-15 -47.5t15 -47t40 -19q26 0 41 19t15 47z" />
    <glyph glyph-name="ring.sc" 
d="M206 697q0 -43 -27 -72t-67 -29t-66 29t-26 72q0 44 26 73t66 29t67 -29t27 -73zM168 697q0 28 -15 47.5t-41 19.5q-25 0 -40 -19.5t-15 -47.5t15 -47t40 -19q26 0 41 19t15 47z" />
    <glyph glyph-name="hungarumlaut.sc" 
d="M151 754l-106 -144h-56l90 144h72zM285 754l-106 -144h-56l90 144h72z" />
    <glyph glyph-name="sterling.sc" horiz-adv-x="416" 
d="M371 526l-38 -49q-25 27 -60 27q-81 0 -81 -119v-74h104v-53h-104v-198h156v-60h-297v60h75v198h-68v53h68v80q0 72 36 122.5t109 50.5q57 0 100 -38z" />
    <glyph glyph-name="nacute.sc" horiz-adv-x="482" 
d="M404 0h-82l-176 437h-3v-437h-65v550h86l175 -440h2v440h63v-550zM373 754l-106 -144h-56l90 144h72z" />
    <glyph glyph-name="ubreve.sc" horiz-adv-x="471" 
d="M399 192q0 -93 -38.5 -149.5t-125.5 -56.5q-163 0 -163 206v358h68v-351q0 -152 96 -152t96 152v351h67v-358zM366 746q-8 -66 -43.5 -99t-88.5 -33q-52 0 -87.5 33t-41.5 99h50q6 -39 28 -59t51 -20q68 0 82 79h50z" />
    <glyph glyph-name="seven.sc" horiz-adv-x="416" 
d="M351 498l-179 -498h-72l184 490h-228v60h295v-52z" />
    <glyph glyph-name="odieresis.sc" horiz-adv-x="475" 
d="M426 275q0 -130 -50 -209.5t-138 -79.5t-138.5 80t-50.5 209q0 130 49.5 209.5t139.5 79.5q88 0 138 -79.5t50 -209.5zM356 275q0 102 -31.5 166.5t-86.5 64.5q-56 0 -87.5 -64t-31.5 -167q0 -102 31.5 -165.5t87.5 -63.5t87 63.5t31 165.5zM351 689q0 -19 -12 -32
t-30 -13q-17 0 -29.5 13t-12.5 32t12.5 32t29.5 13q18 0 30 -13t12 -32zM208 689q0 -19 -12.5 -32t-29.5 -13q-19 0 -30.5 12.5t-11.5 32.5q0 19 12 32t30 13q17 0 29.5 -13t12.5 -32z" />
    <glyph glyph-name="zcaron.sc" horiz-adv-x="342" 
d="M306 0h-273v54l199 436h-188v60h261v-55l-196 -434h197v-61zM313 753l-102 -144h-70l-103 144h65l72 -105l72 105h66z" />
    <glyph glyph-name="nine.onum" horiz-adv-x="482" 
d="M242 569q87 0 137 -60.5t50 -164.5q0 -118 -70 -250.5t-191 -252.5q-3 3 -23 18t-30 23q60 58 119 136t88 143l-2 1q-31 -34 -98 -34q-68 0 -118 54.5t-50 161.5q0 102 51.5 163.5t136.5 61.5zM359 346q0 74 -31.5 119.5t-86.5 45.5q-54 0 -85.5 -45.5t-31.5 -119.5
q0 -73 30 -117.5t86 -44.5q53 0 86 46t33 116z" />
    <glyph glyph-name="germandbls.sc" horiz-adv-x="707" 
d="M169 -10q-89 0 -141 69l41 46q42 -55 99 -55q35 0 58 25t23 68q0 40 -22 62t-66 46q-28 15 -42.5 24.5t-34.5 28.5t-29 44.5t-9 58.5q0 73 42 113t102 40q82 0 123 -58l-41 -45q-33 44 -81 44q-33 0 -57 -23.5t-24 -69.5q0 -38 21.5 -61t61.5 -42q55 -28 87.5 -63
t32.5 -96q0 -71 -41 -113.5t-103 -42.5zM522 -10q-89 0 -141 69l41 46q42 -55 99 -55q35 0 58 25t23 68q0 40 -22 62t-66 46q-28 15 -42.5 24.5t-34.5 28.5t-29 44.5t-9 58.5q0 73 42 113t102 40q82 0 123 -58l-41 -45q-33 44 -81 44q-33 0 -57 -23.5t-24 -69.5
q0 -38 21.5 -61t61.5 -42q55 -28 87.5 -63t32.5 -96q0 -71 -41 -113.5t-103 -42.5z" />
    <glyph glyph-name="aacute.sc" horiz-adv-x="379" 
d="M370 0h-68l-32 129h-162l-32 -129h-67l138 550h88zM260 185l-69 298h-3l-70 -298h142zM320 754l-106 -144h-56l90 144h72z" />
    <glyph glyph-name="q.sc" horiz-adv-x="475" 
d="M346 61v-2h100v-59h-208q-86 0 -137.5 76.5t-51.5 203.5q0 126 52 205t138 79t137.5 -79.5t51.5 -203.5q0 -70 -22.5 -131t-59.5 -89zM239 506q-54 0 -87 -64t-33 -162q0 -96 33.5 -157.5t87.5 -61.5t86.5 63.5t32.5 155.5q0 97 -33 161.5t-87 64.5z" />
    <glyph glyph-name="exclamdown.sc" horiz-adv-x="249" 
d="M156 390v-390h-65v390h65zM168 510q0 -19 -12.5 -33t-30.5 -14t-31 14t-13 33q0 20 12.5 33t31.5 13q18 0 30.5 -13.5t12.5 -32.5z" />
    <glyph glyph-name="jcircumflex.sc" horiz-adv-x="313" 
d="M242 153q0 -167 -129 -167q-99 0 -123 101l60 24q13 -64 62 -64q34 0 48.5 27t14.5 85v391h67v-397zM344 610h-66l-72 105l-72 -105h-65l103 144h70z" />
    <glyph glyph-name="lacute.sc" horiz-adv-x="310" 
d="M302 0h-224v550h67v-489h157v-61zM246 754l-106 -144h-56l90 144h72z" />
    <glyph glyph-name="zacute.sc" horiz-adv-x="342" 
d="M306 0h-273v54l199 436h-188v60h261v-55l-196 -434h197v-61zM295 754l-106 -144h-56l90 144h72z" />
    <glyph glyph-name="six.onum" horiz-adv-x="482" 
d="M52 217q0 233 258 496q9 -8 27 -22t24 -19q-132 -130 -198 -266l2 -1q36 38 98 38q69 0 120 -56t51 -168q0 -106 -52 -168.5t-139 -62.5q-89 0 -140 62.5t-51 166.5zM364 219q0 77 -30.5 123.5t-87.5 46.5q-55 0 -90 -49t-35 -123q0 -78 33 -124t90 -46q56 0 88 47.5
t32 124.5z" />
    <glyph glyph-name="k.sc" horiz-adv-x="396" 
d="M393 0h-77l-170 273h-3v-273h-65v550h65v-240h3l159 240h75l-177 -253z" />
    <glyph glyph-name="tcommaaccent.sc" horiz-adv-x="283" 
d="M170 -45l-49 -174h-50l41 174h58zM281 492h-106v-492h-67v492h-106v58h279v-58z" />
    <glyph glyph-name="r.sc" horiz-adv-x="414" 
d="M379 0h-72l-102 249h-60v-249h-67v550h139q63 0 106 -35.5t43 -112.5q0 -62 -29 -97.5t-68 -44.5zM299 399q0 50 -26 71.5t-65 21.5h-63v-188h65q41 0 65 24.5t24 70.5z" />
    <glyph glyph-name="lslash.sc" horiz-adv-x="310" 
d="M145 347l104 106v-63l-104 -106v-223h157v-61h-224v231l-42 -44v63l42 44v256h67v-203z" />
    <glyph glyph-name="scaron.sc" horiz-adv-x="354" 
d="M169 -10q-89 0 -141 69l41 46q42 -55 99 -55q35 0 58 25t23 68q0 40 -22 62t-66 46q-28 15 -42.5 24.5t-34.5 28.5t-29 44.5t-9 58.5q0 73 42 113t102 40q82 0 123 -58l-41 -45q-33 44 -81 44q-33 0 -57 -23.5t-24 -69.5q0 -38 21.5 -61t61.5 -42q55 -28 87.5 -63
t32.5 -96q0 -71 -41 -113.5t-103 -42.5zM327 753l-102 -144h-70l-103 144h65l72 -105l72 105h66z" />
    <glyph glyph-name="icircumflex.sc" horiz-adv-x="223" 
d="M145 0h-67v550h67v-550zM250 610h-66l-72 105l-72 -105h-65l103 144h70z" />
    <glyph glyph-name="itilde.sc" horiz-adv-x="223" 
d="M145 0h-67v550h67v-550zM240 726q-3 -48 -21.5 -73t-47.5 -25q-28 0 -63 24q-36 24 -53 24q-26 0 -34 -49h-37q3 46 21.5 73.5t47.5 27.5q26 0 63 -24t54 -24q15 0 22 10t11 36h37z" />
    <glyph glyph-name="s.sc" horiz-adv-x="354" 
d="M169 -10q-89 0 -141 69l41 46q42 -55 99 -55q35 0 58 25t23 68q0 40 -22 62t-66 46q-28 15 -42.5 24.5t-34.5 28.5t-29 44.5t-9 58.5q0 73 42 113t102 40q82 0 123 -58l-41 -45q-33 44 -81 44q-33 0 -57 -23.5t-24 -69.5q0 -38 21.5 -61t61.5 -42q55 -28 87.5 -63
t32.5 -96q0 -71 -41 -113.5t-103 -42.5z" />
    <glyph glyph-name="hbar.sc" horiz-adv-x="489" 
d="M411 0h-67v255h-199v-255h-67v550h67v-110h198v110h68v-550zM145 314h198v81h-198v-81z" />
    <glyph glyph-name="y.sc" horiz-adv-x="350" 
d="M349 550l-142 -324v-226h-66v226l-140 324h74l100 -251l102 251h72z" />
    <glyph glyph-name="kcommaaccent.sc" horiz-adv-x="396" 
d="M255 -45l-49 -174h-50l41 174h58zM393 0h-77l-170 273h-3v-273h-65v550h65v-240h3l159 240h75l-177 -253z" />
    <glyph glyph-name="zdotaccent.sc" horiz-adv-x="342" 
d="M306 0h-273v54l199 436h-188v60h261v-55l-196 -434h197v-61zM220 689q0 -21 -13 -34.5t-31 -13.5q-19 0 -31.5 13.5t-12.5 34.5q0 20 12.5 34t31.5 14t31.5 -14t12.5 -34z" />
    <glyph glyph-name="exclam.sc" horiz-adv-x="249" 
d="M156 160h-65v390h65v-390zM168 40q0 -19 -12.5 -32.5t-30.5 -13.5q-19 0 -31.5 13t-12.5 33q0 19 13 33t31 14t30.5 -14t12.5 -33z" />
    <glyph glyph-name="a.sc" horiz-adv-x="379" 
d="M370 0h-68l-32 129h-162l-32 -129h-67l138 550h88zM260 185l-69 298h-3l-70 -298h142z" />
    <glyph glyph-name="h.sc" horiz-adv-x="489" 
d="M411 0h-67v255h-199v-255h-67v550h67v-236h198v236h68v-550z" />
    <glyph glyph-name="m.sc" horiz-adv-x="603" 
d="M525 0h-66v457h-3l-127 -457h-60l-125 457h-3v-457h-63v550h100l121 -445h3l120 445h103v-550z" />
    <glyph glyph-name="tilde.sc" 
d="M240 726q-3 -48 -21.5 -73t-47.5 -25q-28 0 -63 24q-36 24 -53 24q-26 0 -34 -49h-37q3 46 21.5 73.5t47.5 27.5q26 0 63 -24t54 -24q15 0 22 10t11 36h37z" />
    <glyph glyph-name="grave.cap" 
d="M162 764h-56l-106 144h72z" />
    <glyph glyph-name="seven.onum" horiz-adv-x="415" 
d="M390 496q-157 -404 -238 -654q-23 5 -67 15q112 328 235 634h-279v62h349v-57z" />
    <glyph glyph-name="tbar.sc" horiz-adv-x="283" 
d="M281 492h-106v-90h79v-46h-79v-356h-67v356h-79v46h79v90h-106v58h279v-58z" />
    <glyph glyph-name="acute.cap" 
d="M225 908l-106 -144h-56l90 144h72z" />
    <glyph glyph-name="wcircumflex.sc" horiz-adv-x="610" 
d="M593 550l-115 -550h-84l-91 447h-1l-92 -447h-81l-113 550h73l85 -469h2l94 469h68l96 -469h2l86 469h71zM443 610h-66l-72 105l-72 -105h-65l103 144h70z" />
    <glyph glyph-name="ebreve.sc" horiz-adv-x="363" 
d="M321 0h-243v550h236v-60h-170v-177h159v-57h-159v-196h177v-60zM331 746q-8 -66 -43.5 -99t-88.5 -33q-52 0 -87.5 33t-41.5 99h50q6 -39 28 -59t51 -20q68 0 82 79h50z" />
    <glyph glyph-name="ncommaaccent.sc" horiz-adv-x="482" 
d="M275 -45l-49 -174h-50l41 174h58zM404 0h-82l-176 437h-3v-437h-65v550h86l175 -440h2v440h63v-550z" />
    <glyph glyph-name="three.onum" horiz-adv-x="424" 
d="M369 484q-64 -76 -194 -206l1 -3q18 5 34 5q77 0 125 -56t48 -143q0 -113 -64 -177t-166 -64q-47 0 -87 8q6 42 8 63q32 -9 76 -9q77 0 121 45.5t44 128.5q0 70 -36 109t-104 39q-42 0 -84 -14l-12 55q116 109 217 224v4h-235v60h308v-69z" />
    <glyph glyph-name="one.onum" horiz-adv-x="345" 
d="M230 0h-66v470l-97 -73l-33 50l136 103h60v-550z" />
    <glyph glyph-name="ntilde.sc" horiz-adv-x="482" 
d="M404 0h-82l-176 437h-3v-437h-65v550h86l175 -440h2v440h63v-550zM369 726q-3 -48 -21.5 -73t-47.5 -25q-28 0 -63 24q-36 24 -53 24q-26 0 -34 -49h-37q3 46 21.5 73.5t47.5 27.5q26 0 63 -24t54 -24q15 0 22 10t11 36h37z" />
    <glyph glyph-name="w.sc" horiz-adv-x="610" 
d="M593 550l-115 -550h-84l-91 447h-1l-92 -447h-81l-113 550h73l85 -469h2l94 469h68l96 -469h2l86 469h71z" />
    <glyph glyph-name="acute.sc" 
d="M225 754l-106 -144h-56l90 144h72z" />
    <glyph glyph-name="four.sc" horiz-adv-x="416" 
d="M374 128h-68v-128h-63v128h-198v57l174 365h87v-364h68v-58zM244 186v295h-2l-131 -295h133z" />
    <glyph glyph-name="Euro.sc" horiz-adv-x="416" 
d="M277 -14q-78 0 -126.5 56t-62.5 147h-52l13 49h35q-1 11 -1 34q0 29 2 42h-47l12 49h40q19 98 70 149.5t127 51.5q47 0 88 -18l-16 -55q-30 16 -70 16q-50 0 -84.5 -36.5t-47.5 -107.5h174l-14 -49h-168q-3 -18 -3 -42q0 -12 2 -34h157l-11 -49h-141q10 -68 45 -106
t84 -38q39 0 81 24l12 -58q-44 -25 -98 -25z" />
    <glyph glyph-name="dotaccent.cap" 
d="M156 843q0 -21 -13 -34.5t-31 -13.5q-19 0 -31.5 13.5t-12.5 34.5q0 20 12.5 34t31.5 14t31.5 -14t12.5 -34z" />
    <glyph glyph-name="aogonek.sc" horiz-adv-x="379" 
d="M368 -147l17 -36q-34 -36 -79 -36q-38 0 -62 22t-24 59q0 67 82 138l-32 129h-162l-32 -129h-67l138 550h88l135 -550h-24q-38 -41 -54.5 -67.5t-16.5 -53.5q0 -21 13.5 -34.5t32.5 -13.5q28 0 47 22zM260 185l-69 298h-3l-70 -298h142z" />
    <glyph glyph-name="five.onum" horiz-adv-x="421" 
d="M167 237q-53 0 -100 -21l26 337h267v-61h-213l-15 -209q26 9 56 9q80 0 130.5 -54t50.5 -154q0 -117 -61.5 -180.5t-159.5 -63.5q-48 0 -90 9q1 7 3 19.5t3.5 23t2.5 20.5q37 -10 76 -10q76 0 117 46.5t41 132.5q0 75 -37 115.5t-97 40.5z" />
    <glyph glyph-name="florin.sc" horiz-adv-x="416" 
d="M372 541l-21 -53q-21 16 -41 16q-45 0 -57 -71l-17 -104h81v-51h-89l-47 -278q-20 -110 -104 -110q-30 0 -52 11l16 55q18 -9 28 -9q13 0 22 4.5t14.5 16t8 21t5.5 27.5l43 262h-73v51h80l17 100q11 60 36.5 96t81.5 36q41 0 68 -20z" />
    <glyph glyph-name="atilde.sc" horiz-adv-x="379" 
d="M370 0h-68l-32 129h-162l-32 -129h-67l138 550h88zM260 185l-69 298h-3l-70 -298h142zM319 726q-3 -48 -21.5 -73t-47.5 -25q-28 0 -63 24q-36 24 -53 24q-26 0 -34 -49h-37q3 46 21.5 73.5t47.5 27.5q26 0 63 -24t54 -24q15 0 22 10t11 36h37z" />
    <glyph glyph-name="dollar.sc" horiz-adv-x="416" 
d="M349 152q0 -66 -34 -106.5t-89 -45.5v-62h-42v62q-75 5 -124 59l37 48q38 -44 87 -49v194q-55 23 -84 55t-29 94t31.5 101t82.5 47v61h42v-60q74 -3 118 -56l-36 -48q-34 43 -82 46v-188q59 -25 90.5 -57t31.5 -95zM184 320v170q-22 -6 -37 -28t-15 -57t13 -53.5
t39 -31.5zM285 149q0 35 -14.5 54t-43.5 34v-178q25 4 41.5 28t16.5 62z" />
    <glyph glyph-name="ccedilla.sc" horiz-adv-x="400" 
d="M382 67q-45 -75 -127 -80l-35 -62q12 4 32 4q30 0 52.5 -18t22.5 -52q0 -46 -32 -66.5t-76 -20.5q-50 0 -86 18l15 36q28 -14 66 -14q19 0 38.5 11t19.5 33q0 39 -49 39q-21 0 -40 -8l-16 15l50 86q-79 12 -123.5 92t-44.5 195q0 126 52 207.5t143 81.5q89 0 137 -73
l-44 -44q-36 56 -91 56q-61 0 -94.5 -63.5t-33.5 -164.5q0 -100 34 -164t95 -64q57 0 92 63z" />
    <glyph glyph-name="gbreve.sc" horiz-adv-x="453" 
d="M387 35q-56 -49 -136 -49q-95 0 -148.5 79t-53.5 211q0 126 51.5 207t143.5 81t139 -73l-45 -45q-38 57 -92 57q-60 0 -93.5 -63.5t-33.5 -163.5q0 -104 35 -166.5t98 -62.5q44 0 70 21v175h-79v59h144v-267zM378 746q-8 -66 -43.5 -99t-88.5 -33q-52 0 -87.5 33
t-41.5 99h50q6 -39 28 -59t51 -20q68 0 82 79h50z" />
    <glyph glyph-name="lcaron.sc" horiz-adv-x="310" 
d="M297 550l-49 -174h-50l41 174h58zM302 0h-224v550h67v-489h157v-61z" />
    <glyph glyph-name="racute.sc" horiz-adv-x="414" 
d="M379 0h-72l-102 249h-60v-249h-67v550h139q63 0 106 -35.5t43 -112.5q0 -62 -29 -97.5t-68 -44.5zM299 399q0 50 -26 71.5t-65 21.5h-63v-188h65q41 0 65 24.5t24 70.5zM322 754l-106 -144h-56l90 144h72z" />
    <glyph glyph-name="dcroat.sc" horiz-adv-x="459" 
d="M78 258h-59v47h59v245h125q96 0 151.5 -72t55.5 -204t-55.5 -203t-152.5 -71h-124v258zM145 305h117v-47h-117v-199h56q62 0 101.5 54t39.5 161q0 108 -39.5 162t-101.5 54h-56v-185z" />
    <glyph glyph-name="four.onum" horiz-adv-x="457" 
d="M332 569l-233 -498h184v261h64v-261h84v-59h-84v-172h-66v172h-250v63l229 494h72z" />
    <glyph glyph-name="tilde.cap" 
d="M240 880q-3 -48 -21.5 -73t-47.5 -25q-28 0 -63 24q-36 24 -53 24q-26 0 -34 -49h-37q3 46 21.5 73.5t47.5 27.5q26 0 63 -24t54 -24q15 0 22 10t11 36h37z" />
    <glyph glyph-name="utilde.sc" horiz-adv-x="471" 
d="M399 192q0 -93 -38.5 -149.5t-125.5 -56.5q-163 0 -163 206v358h68v-351q0 -152 96 -152t96 152v351h67v-358zM365 726q-3 -48 -21.5 -73t-47.5 -25q-28 0 -63 24q-36 24 -53 24q-26 0 -34 -49h-37q3 46 21.5 73.5t47.5 27.5q26 0 63 -24t54 -24q15 0 22 10t11 36h37z
" />
    <glyph glyph-name="acircumflex.sc" horiz-adv-x="379" 
d="M370 0h-68l-32 129h-162l-32 -129h-67l138 550h88zM260 185l-69 298h-3l-70 -298h142zM328 610h-66l-72 105l-72 -105h-65l103 144h70z" />
    <glyph glyph-name="fi.sc" horiz-adv-x="574" 
d="M312 489h-167v-179h154v-58h-154v-252h-67v550h234v-61zM496 0h-67v550h67v-550z" />
    <glyph glyph-name="ldot.sc" horiz-adv-x="310" 
d="M302 0h-224v550h67v-489h157v-61zM294 309q0 -21 -13 -34.5t-31 -13.5q-19 0 -31.5 13.5t-12.5 34.5q0 20 12.5 34t31.5 14t31.5 -14t12.5 -34z" />
    <glyph glyph-name="zero.sc" horiz-adv-x="416" 
d="M368 276q0 -54 -6.5 -99.5t-22.5 -91.5t-49.5 -72.5t-81.5 -26.5q-39 0 -68 18.5t-46 47t-28 68.5t-14.5 77t-3.5 79q0 53 6.5 98.5t22.5 91t49.5 72t81.5 26.5t81.5 -26.5t49.5 -72t22.5 -91t6.5 -98.5zM299 276q0 230 -91 230t-91 -230t91 -230t91 230z" />
    <glyph glyph-name="b.sc" horiz-adv-x="422" 
d="M203 493h-61v-178h62q36 0 62 22.5t26 67.5q0 47 -25 67.5t-64 20.5zM212 260h-70v-203h70q43 0 69.5 25t26.5 74q0 53 -29 78.5t-67 25.5zM279 293v-2q40 -12 67.5 -46.5t27.5 -91.5q0 -79 -45.5 -116t-103.5 -37h-147v550h130q26 0 50 -6t47 -20.5t36.5 -42.5t13.5 -66
q0 -46 -22 -77t-54 -45z" />
    <glyph glyph-name="caron.cap" 
d="M250 907l-102 -144h-70l-103 144h65l72 -105l72 105h66z" />
    <glyph glyph-name="two.sc" horiz-adv-x="416" 
d="M261 225l-118 -166h203v-59h-281v58l152 211q59 83 59 144q0 41 -18.5 67t-52.5 26q-62 0 -78 -85l-64 7q12 67 49 101.5t96 34.5q65 0 100.5 -42t35.5 -105q0 -48 -20 -89.5t-63 -102.5z" />
    <glyph glyph-name="dotaccent.sc" 
d="M156 689q0 -21 -13 -34.5t-31 -13.5q-19 0 -31.5 13.5t-12.5 34.5q0 20 12.5 34t31.5 14t31.5 -14t12.5 -34z" />
    <glyph glyph-name="yen.sc" horiz-adv-x="416" 
d="M380 550l-115 -246h86v-49h-112v-71h112v-50h-112v-134h-65v134h-111v50h111v71h-111v50h89l-116 245h69l103 -236l104 236h68z" />
    <glyph glyph-name="scedilla.sc" horiz-adv-x="354" 
d="M313 146q0 -64 -33 -104.5t-86 -49.5l-38 -67q12 4 32 4q30 0 52.5 -18t22.5 -52q0 -46 -32 -66.5t-76 -20.5q-50 0 -86 18l15 36q28 -14 66 -14q19 0 38.5 11t19.5 33q0 39 -49 39q-21 0 -40 -8l-16 15l51 89q-80 6 -126 68l41 46q42 -55 99 -55q35 0 58 25t23 68
q0 40 -22 62t-66 46q-28 15 -42.5 24.5t-34.5 28.5t-29 44.5t-9 58.5q0 73 42 113t102 40q82 0 123 -58l-41 -45q-33 44 -81 44q-33 0 -57 -23.5t-24 -69.5q0 -38 21.5 -61t61.5 -42q55 -28 87.5 -63t32.5 -96z" />
    <glyph glyph-name="cent.sc" horiz-adv-x="416" 
d="M389 49q-38 -57 -112 -59v-62h-39v62q-80 5 -122.5 75t-42.5 182q0 111 43 182t122 77v67h39v-67q69 -1 111 -45l-31 -51q-31 34 -80 37v-400q50 1 83 48zM239 49v398q-53 -5 -79 -61t-26 -139t26 -137.5t79 -60.5z" />
    <glyph glyph-name="uogonek.sc" horiz-adv-x="471" 
d="M306 -147l17 -36q-34 -36 -79 -36q-38 0 -62 22t-24 59q0 60 66 124q-152 7 -152 206v358h68v-351q0 -152 96 -152t96 152v351h67v-358q0 -179 -125 -202q-61 -67 -61 -111q0 -21 13.5 -34.5t32.5 -13.5q28 0 47 22z" />
    <glyph glyph-name="emacron.sc" horiz-adv-x="363" 
d="M321 0h-243v550h236v-60h-170v-177h159v-57h-159v-196h177v-60zM323 655h-249v52h249v-52z" />
    <glyph glyph-name="rcaron.sc" horiz-adv-x="414" 
d="M379 0h-72l-102 249h-60v-249h-67v550h139q63 0 106 -35.5t43 -112.5q0 -62 -29 -97.5t-68 -44.5zM299 399q0 50 -26 71.5t-65 21.5h-63v-188h65q41 0 65 24.5t24 70.5zM351 753l-102 -144h-70l-103 144h65l72 -105l72 105h66z" />
    <glyph glyph-name="eth.sc" horiz-adv-x="459" 
d="M78 258h-59v47h59v245h125q96 0 151.5 -72t55.5 -204t-55.5 -203t-152.5 -71h-124v258zM145 305h117v-47h-117v-199h56q62 0 101.5 54t39.5 161q0 108 -39.5 162t-101.5 54h-56v-185z" />
    <glyph glyph-name="ampersand.sc" horiz-adv-x="424" 
d="M415 0h-77l-46 67q-40 -81 -121 -81q-62 0 -99 43.5t-37 117.5q0 96 92 160q-44 66 -44 125t31.5 95.5t83.5 36.5q50 0 80.5 -33.5t30.5 -89.5q0 -49 -26 -83t-74 -66l77 -114l46 122h68l-74 -173zM246 437q0 35 -13 54t-35 19q-23 0 -38 -21t-15 -55q0 -46 34 -100
q67 48 67 103zM255 118l-96 143q-60 -43 -60 -110q0 -49 21.5 -77t55.5 -28q52 0 79 72z" />
    <glyph glyph-name="eight.onum" horiz-adv-x="470" 
d="M422 193q0 -92 -51 -148.5t-137 -56.5q-85 0 -135.5 56.5t-50.5 148.5q0 71 30 118.5t84 65.5v2q-97 41 -97 161q0 78 44 129t125 51q80 0 125 -51t45 -129q0 -121 -96 -161v-2q114 -41 114 -184zM335 536q0 58 -27.5 94.5t-73.5 36.5q-48 0 -74 -36t-26 -95
q0 -55 27.5 -94t72.5 -39t73 39t28 94zM350 196q0 68 -32 110.5t-84 42.5t-84 -42.5t-32 -110.5q0 -66 31.5 -109t84.5 -43q54 0 85 42.5t31 109.5z" />
    <glyph glyph-name="ncaron.sc" horiz-adv-x="482" 
d="M404 0h-82l-176 437h-3v-437h-65v550h86l175 -440h2v440h63v-550zM382 753l-102 -144h-70l-103 144h65l72 -105l72 105h66z" />
    <glyph glyph-name="x.sc" horiz-adv-x="375" 
d="M367 0h-74l-107 229l-106 -229h-73l143 289l-129 261h73l94 -204l94 204h71l-128 -262z" />
    <glyph glyph-name="breve.sc" 
d="M243 746q-8 -66 -43.5 -99t-88.5 -33q-52 0 -87.5 33t-41.5 99h50q6 -39 28 -59t51 -20q68 0 82 79h50z" />
    <glyph glyph-name="fl.sc" horiz-adv-x="661" 
d="M312 489h-167v-179h154v-58h-154v-252h-67v550h234v-61zM653 0h-224v550h67v-489h157v-61z" />
    <glyph glyph-name="dcaron.sc" horiz-adv-x="459" 
d="M410 274q0 -132 -55.5 -203t-152.5 -71h-124v550h125q96 0 151.5 -72t55.5 -204zM342 274q0 108 -39.5 162t-101.5 54h-56v-431h56q62 0 101.5 54t39.5 161zM354 753l-102 -144h-70l-103 144h65l72 -105l72 105h66z" />
    <glyph glyph-name="agrave.sc" horiz-adv-x="379" 
d="M370 0h-68l-32 129h-162l-32 -129h-67l138 550h88zM260 185l-69 298h-3l-70 -298h142zM225 610h-56l-106 144h72z" />
    <glyph glyph-name="rcommaaccent.sc" horiz-adv-x="414" 
d="M252 -45l-49 -174h-50l41 174h58zM379 0h-72l-102 249h-60v-249h-67v550h139q63 0 106 -35.5t43 -112.5q0 -62 -29 -97.5t-68 -44.5zM299 399q0 50 -26 71.5t-65 21.5h-63v-188h65q41 0 65 24.5t24 70.5z" />
    <glyph glyph-name="u.sc" horiz-adv-x="471" 
d="M399 192q0 -93 -38.5 -149.5t-125.5 -56.5q-163 0 -163 206v358h68v-351q0 -152 96 -152t96 152v351h67v-358z" />
    <glyph glyph-name="uacute.sc" horiz-adv-x="471" 
d="M399 192q0 -93 -38.5 -149.5t-125.5 -56.5q-163 0 -163 206v358h68v-351q0 -152 96 -152t96 152v351h67v-358zM360 754l-106 -144h-56l90 144h72z" />
    <glyph glyph-name="zero.onum" horiz-adv-x="493" 
d="M435 275q0 -130 -50 -209.5t-138 -79.5t-138.5 80t-50.5 209q0 130 49.5 209.5t139.5 79.5q88 0 138 -79.5t50 -209.5zM365 275q0 102 -31.5 166.5t-86.5 64.5q-56 0 -87.5 -64t-31.5 -167q0 -102 31.5 -165.5t87.5 -63.5t87 63.5t31 165.5z" />
    <glyph glyph-name="eacute.sc" horiz-adv-x="363" 
d="M321 0h-243v550h236v-60h-170v-177h159v-57h-159v-196h177v-60zM322 754l-106 -144h-56l90 144h72z" />
    <glyph glyph-name="dotlessj" horiz-adv-x="221" 
d="M145 -73q0 -167 -127 -167q-20 0 -39 6l6 60q15 -5 29 -5q65 0 65 110v565h66v-569z" />
    <glyph glyph-name="eight.sc" horiz-adv-x="416" 
d="M366 150q0 -73 -43 -118.5t-116 -45.5q-72 0 -114.5 45.5t-42.5 118.5q0 54 24.5 91t64.5 50v2q-75 33 -75 128q0 62 37.5 102.5t105.5 40.5q69 0 107.5 -41t38.5 -102q0 -45 -19 -78.5t-55 -49.5v-2q87 -32 87 -141zM284 415q0 42 -20.5 68.5t-56.5 26.5
q-37 0 -57.5 -26.5t-20.5 -68.5q0 -40 22 -69t56 -29q35 0 56 29t21 69zM297 154q0 49 -25 79t-65 30q-39 0 -64 -30.5t-25 -78.5t24 -79t65 -31t65.5 31t24.5 79z" />
    <glyph glyph-name="dieresis.sc" 
d="M226 689q0 -19 -12 -32t-30 -13q-17 0 -29.5 13t-12.5 32t12.5 32t29.5 13q18 0 30 -13t12 -32zM83 689q0 -19 -12.5 -32t-29.5 -13q-19 0 -30.5 12.5t-11.5 32.5q0 19 12 32t30 13q17 0 29.5 -13t12.5 -32z" />
    <glyph glyph-name="edieresis.sc" horiz-adv-x="363" 
d="M321 0h-243v550h236v-60h-170v-177h159v-57h-159v-196h177v-60zM311 689q0 -19 -12 -32t-30 -13q-17 0 -29.5 13t-12.5 32t12.5 32t29.5 13q18 0 30 -13t12 -32zM168 689q0 -19 -12.5 -32t-29.5 -13q-19 0 -30.5 12.5t-11.5 32.5q0 19 12 32t30 13q17 0 29.5 -13
t12.5 -32z" />
    <glyph glyph-name="caron.alt" 
d="M170 708l-49 -174h-50l41 174h58z" />
    <glyph glyph-name="amacron.sc" horiz-adv-x="379" 
d="M370 0h-68l-32 129h-162l-32 -129h-67l138 550h88zM260 185l-69 298h-3l-70 -298h142zM314 655h-249v52h249v-52z" />
    <glyph glyph-name="ccircumflex.sc" horiz-adv-x="400" 
d="M244 -14q-91 0 -143 81.5t-52 207.5t52 207.5t143 81.5q89 0 137 -73l-44 -44q-36 56 -91 56q-61 0 -94.5 -63.5t-33.5 -164.5q0 -100 34 -164t95 -64q57 0 92 63l43 -43q-49 -81 -138 -81zM386 610h-66l-72 105l-72 -105h-65l103 144h70z" />
    <glyph glyph-name="g.sc" horiz-adv-x="453" 
d="M387 35q-56 -49 -136 -49q-95 0 -148.5 79t-53.5 211q0 126 51.5 207t143.5 81t139 -73l-45 -45q-38 57 -92 57q-60 0 -93.5 -63.5t-33.5 -163.5q0 -104 35 -166.5t98 -62.5q44 0 70 21v175h-79v59h144v-267z" />
    <glyph glyph-name="ecaron.sc" horiz-adv-x="363" 
d="M321 0h-243v550h236v-60h-170v-177h159v-57h-159v-196h177v-60zM338 753l-102 -144h-70l-103 144h65l72 -105l72 105h66z" />
    <glyph glyph-name="eogonek.sc" horiz-adv-x="363" 
d="M320 -147l17 -36q-34 -36 -79 -36q-38 0 -62 22t-24 59q0 67 82 138h-176v550h236v-60h-170v-177h159v-57h-159v-196h177v-60h-23q-38 -41 -54.5 -67.5t-16.5 -53.5q0 -21 13.5 -34.5t32.5 -13.5q28 0 47 22z" />
    <glyph glyph-name="lcommaaccent.sc" horiz-adv-x="310" 
d="M228 -45l-49 -174h-50l41 174h58zM302 0h-224v550h67v-489h157v-61z" />
    <glyph glyph-name="ae.sc" horiz-adv-x="507" 
d="M465 0h-231v132h-130l-47 -132h-69l205 550h266v-60h-161v-177h149v-57h-149v-196h167v-60zM234 187v302h-4l-106 -302h110z" />
    <glyph glyph-name="ccaron.sc" horiz-adv-x="400" 
d="M244 -14q-91 0 -143 81.5t-52 207.5t52 207.5t143 81.5q89 0 137 -73l-44 -44q-36 56 -91 56q-61 0 -94.5 -63.5t-33.5 -164.5q0 -100 34 -164t95 -64q57 0 92 63l43 -43q-49 -81 -138 -81zM385 753l-102 -144h-70l-103 144h65l72 -105l72 105h66z" />
    <glyph glyph-name="v.sc" horiz-adv-x="370" 
d="M364 550l-139 -550h-80l-139 550h71l109 -473h2l106 473h70z" />
    <glyph glyph-name="thorn.sc" horiz-adv-x="384" 
d="M361 288q0 -74 -41 -116t-101 -42h-74v-130h-67v550h67v-110h70q59 0 102.5 -36.5t43.5 -115.5zM294 287q0 49 -23 72t-62 23h-64v-196h65q38 0 61 25.5t23 75.5z" />
    <glyph glyph-name="ring.cap" 
d="M206 851q0 -43 -27 -72t-67 -29t-66 29t-26 72q0 44 26 73t66 29t67 -29t27 -73zM168 851q0 28 -15 47.5t-41 19.5q-25 0 -40 -19.5t-15 -47.5t15 -47t40 -19q26 0 41 19t15 47z" />
    <glyph glyph-name="e.sc" horiz-adv-x="363" 
d="M321 0h-243v550h236v-60h-170v-177h159v-57h-159v-196h177v-60z" />
    <glyph glyph-name="abreve.sc" horiz-adv-x="379" 
d="M370 0h-68l-32 129h-162l-32 -129h-67l138 550h88zM260 185l-69 298h-3l-70 -298h142zM320 746q-8 -66 -43.5 -99t-88.5 -33q-52 0 -87.5 33t-41.5 99h50q6 -39 28 -59t51 -20q68 0 82 79h50z" />
    <glyph glyph-name="adieresis.sc" horiz-adv-x="379" 
d="M370 0h-68l-32 129h-162l-32 -129h-67l138 550h88zM260 185l-69 298h-3l-70 -298h142zM305 689q0 -19 -12 -32t-30 -13q-17 0 -29.5 13t-12.5 32t12.5 32t29.5 13q18 0 30 -13t12 -32zM162 689q0 -19 -12.5 -32t-29.5 -13q-19 0 -30.5 12.5t-11.5 32.5q0 19 12 32t30 13
q17 0 29.5 -13t12.5 -32z" />
    <glyph glyph-name="five.sc" horiz-adv-x="416" 
d="M348 174q0 -86 -42.5 -137t-111.5 -51q-111 0 -147 105l59 22q23 -67 88 -67q39 0 63.5 33.5t24.5 92.5q0 57 -24.5 90.5t-71.5 33.5q-50 0 -102 -32l7 286h239v-60h-179l-5 -153q27 12 54 12q73 0 110.5 -48t37.5 -127z" />
    <glyph glyph-name="ecircumflex.sc" horiz-adv-x="363" 
d="M321 0h-243v550h236v-60h-170v-177h159v-57h-159v-196h177v-60zM339 610h-66l-72 105l-72 -105h-65l103 144h70z" />
    <glyph glyph-name="circumflex.cap" 
d="M250 764h-66l-72 105l-72 -105h-65l103 144h70z" />
    <glyph glyph-name="commaaccent" 
d="M150 -45l-49 -174h-50l41 174h58z" />
    <glyph glyph-name="cacute.sc" horiz-adv-x="400" 
d="M244 -14q-91 0 -143 81.5t-52 207.5t52 207.5t143 81.5q89 0 137 -73l-44 -44q-36 56 -91 56q-61 0 -94.5 -63.5t-33.5 -164.5q0 -100 34 -164t95 -64q57 0 92 63l43 -43q-49 -81 -138 -81zM369 754l-106 -144h-56l90 144h72z" />
    <glyph glyph-name="breve.cap" 
d="M243 900q-8 -66 -43.5 -99t-88.5 -33q-52 0 -87.5 33t-41.5 99h50q6 -39 28 -59t51 -20q68 0 82 79h50z" />
    <glyph glyph-name="edotaccent.sc" horiz-adv-x="363" 
d="M321 0h-243v550h236v-60h-170v-177h159v-57h-159v-196h177v-60zM243 689q0 -21 -13 -34.5t-31 -13.5q-19 0 -31.5 13.5t-12.5 34.5q0 20 12.5 34t31.5 14t31.5 -14t12.5 -34z" />
    <glyph glyph-name="six.sc" horiz-adv-x="416" 
d="M365 168q0 -82 -43 -132t-114 -50q-72 0 -114 50t-42 131q0 69 40 149l117 234h72l-115 -223l2 -1q23 18 56 18q59 0 100 -44t41 -132zM297 169q0 57 -22 89.5t-64 32.5q-40 0 -66 -35.5t-26 -88.5q0 -58 25 -91t65 -33t64 34t24 92z" />
    <glyph glyph-name="egrave.sc" horiz-adv-x="363" 
d="M321 0h-243v550h236v-60h-170v-177h159v-57h-159v-196h177v-60zM232 610h-56l-106 144h72z" />
    <glyph glyph-name="c.sc" horiz-adv-x="400" 
d="M244 -14q-91 0 -143 81.5t-52 207.5t52 207.5t143 81.5q89 0 137 -73l-44 -44q-36 56 -91 56q-61 0 -94.5 -63.5t-33.5 -164.5q0 -100 34 -164t95 -64q57 0 92 63l43 -43q-49 -81 -138 -81z" />
    <glyph glyph-name="circumflex.sc" 
d="M250 610h-66l-72 105l-72 -105h-65l103 144h70z" />
    <glyph glyph-name="t.sc" horiz-adv-x="283" 
d="M281 492h-106v-492h-67v492h-106v58h279v-58z" />
    <glyph glyph-name="dieresis.cap" 
d="M83 843q0 -19 -12.5 -32t-29.5 -13q-19 0 -30.5 12.5t-11.5 32.5q0 19 12 32t30 13q17 0 29.5 -13t12.5 -32zM226 843q0 -19 -12 -32t-30 -13q-17 0 -29.5 13t-12.5 32t12.5 32t29.5 13q18 0 30 -13t12 -32z" />
    <glyph glyph-name="sacute.sc" horiz-adv-x="354" 
d="M169 -10q-89 0 -141 69l41 46q42 -55 99 -55q35 0 58 25t23 68q0 40 -22 62t-66 46q-28 15 -42.5 24.5t-34.5 28.5t-29 44.5t-9 58.5q0 73 42 113t102 40q82 0 123 -58l-41 -45q-33 44 -81 44q-33 0 -57 -23.5t-24 -69.5q0 -38 21.5 -61t61.5 -42q55 -28 87.5 -63
t32.5 -96q0 -71 -41 -113.5t-103 -42.5zM317 754l-106 -144h-56l90 144h72z" />
    <glyph glyph-name="caron.sc" 
d="M250 753l-102 -144h-70l-103 144h65l72 -105l72 105h66z" />
    <glyph glyph-name="d.sc" horiz-adv-x="459" 
d="M410 274q0 -132 -55.5 -203t-152.5 -71h-124v550h125q96 0 151.5 -72t55.5 -204zM342 274q0 108 -39.5 162t-101.5 54h-56v-431h56q62 0 101.5 54t39.5 161z" />
    <glyph glyph-name="cdotaccent.sc" horiz-adv-x="400" 
d="M244 -14q-91 0 -143 81.5t-52 207.5t52 207.5t143 81.5q89 0 137 -73l-44 -44q-36 56 -91 56q-61 0 -94.5 -63.5t-33.5 -164.5q0 -100 34 -164t95 -64q57 0 92 63l43 -43q-49 -81 -138 -81zM290 689q0 -21 -13 -34.5t-31 -13.5q-19 0 -31.5 13.5t-12.5 34.5q0 20 12.5 34
t31.5 14t31.5 -14t12.5 -34z" />
    <glyph glyph-name="f.sc" horiz-adv-x="351" 
d="M312 489h-167v-179h154v-58h-154v-252h-67v550h234v-61z" />
    <glyph glyph-name="commaaccent.alt" 
d="M60 569l49 174h50l-41 -174h-58z" />
    <glyph glyph-name="tcaron.sc" horiz-adv-x="283" 
d="M281 492h-106v-492h-67v492h-106v58h279v-58zM281 753l-102 -144h-70l-103 144h65l72 -105l72 105h66z" />
    <glyph glyph-name="gdotaccent.sc" horiz-adv-x="453" 
d="M387 35q-56 -49 -136 -49q-95 0 -148.5 79t-53.5 211q0 126 51.5 207t143.5 81t139 -73l-45 -45q-38 57 -92 57q-60 0 -93.5 -63.5t-33.5 -163.5q0 -104 35 -166.5t98 -62.5q44 0 70 21v175h-79v59h144v-267zM289 689q0 -21 -13 -34.5t-31 -13.5q-19 0 -31.5 13.5
t-12.5 34.5q0 20 12.5 34t31.5 14t31.5 -14t12.5 -34z" />
    <glyph glyph-name="gcommaaccent.sc" horiz-adv-x="453" 
d="M279 -45l-49 -174h-50l41 174h58zM387 35q-56 -49 -136 -49q-95 0 -148.5 79t-53.5 211q0 126 51.5 207t143.5 81t139 -73l-45 -45q-38 57 -92 57q-60 0 -93.5 -63.5t-33.5 -163.5q0 -104 35 -166.5t98 -62.5q44 0 70 21v175h-79v59h144v-267z" />
    <glyph glyph-name="gcircumflex.sc" horiz-adv-x="453" 
d="M387 35q-56 -49 -136 -49q-95 0 -148.5 79t-53.5 211q0 126 51.5 207t143.5 81t139 -73l-45 -45q-38 57 -92 57q-60 0 -93.5 -63.5t-33.5 -163.5q0 -104 35 -166.5t98 -62.5q44 0 70 21v175h-79v59h144v-267zM386 610h-66l-72 105l-72 -105h-65l103 144h70z" />
    </font>
</defs>
</svg>
