<?xml version="1.0" standalone="no"?>
<!DOCTYPE svg PUBLIC "-//W3C//DTD SVG 1.1//EN" "http://www.w3.org/Graphics/SVG/1.1/DTD/svg11.dtd" >
<svg>
<metadata>
Created by FontForge 20120731 at Wed Jun 29 10:59:35 2016
 By ,,,
Copyright (c) 2004 Linotype Library GmbH, www.linotype.com. All rights reserved. This software may not be reproduced, used, displayed, modified, disclosed or transferred without the express written approval of Linotype Library GmbH. Avenir is a trademark of Heidelberger Druckmaschinen AG, exclusively licensed through Linotype Library GmbH, and may be registered in certain jurisdictions. This typeface is original artwork of Adrian Frutiger and Akira Kobayashi. The design may be protected in certain jurisdictions.
</metadata>
<defs>
<font id="AvenirNextLTPro-DemiCn" horiz-adv-x="252" >
  <font-face 
    font-family="AvenirNext LT Pro Cn"
    font-weight="600"
    font-stretch="normal"
    units-per-em="1000"
    panose-1="2 11 7 6 2 2 2 2 2 4"
    ascent="756"
    descent="-244"
    x-height="510"
    cap-height="708"
    bbox="-121 -250 912 959"
    underline-thickness="50"
    underline-position="-50"
    unicode-range="U+000D-FB02"
  />
<missing-glyph horiz-adv-x="512" 
d="M222 117h56v67h-56v-67zM225 234h46q0 52 6 72q6 19 43 52q37 34 50 60t13 60q0 59 -35 95t-89 36q-56 0 -92 -34t-43 -103l50 -8q11 95 82 95q31 0 53.5 -24.5t22.5 -60.5q0 -20 -9.5 -37t-40.5 -46q-31 -31 -46 -59q-13 -25 -13 -81zM462 50h-412v617h412v-617z
M512 718h-512v-718h512v718z" />
    <glyph glyph-name="IJ" unicode="IJ" horiz-adv-x="681" 
d="M192 0h-120v708h120v-708zM614 206q0 -224 -184 -224q-67 0 -113 37.5t-61 100.5l100 43q7 -29 25 -49t45 -20q38 0 53.5 31t15.5 92v491h119v-502z" />
    <glyph glyph-name="ij" unicode="ij" horiz-adv-x="493" 
d="M190 658q0 -30 -19 -50t-47 -20t-47 20t-19 50t19 50.5t47 20.5t47 -20.5t19 -50.5zM180 0h-112v510h112v-510zM435 658q0 -30 -19 -50t-47 -20t-46.5 20t-18.5 50t18.5 50.5t46.5 20.5t47 -20.5t19 -50.5zM426 -50q0 -190 -158 -190q-29 0 -50 6l8 102q12 -4 27 -4
q61 0 61 95v551h112v-560z" />
    <glyph glyph-name="napostrophe" unicode="&#x22;n" horiz-adv-x="545" 
d="M110 510h111v-81h2q14 43 48 70.5t79 27.5q40 0 67 -17t40.5 -48t18.5 -64.5t5 -77.5v-320h-113v320q0 109 -62 109q-37 0 -60 -38t-23 -96v-295h-113v510zM130 708l-57 -187h-81l47 187h91z" />
    <glyph glyph-name="fi" unicode="fi" horiz-adv-x="519" 
d="M285 769l-7 -92q-13 5 -30 5q-63 0 -63 -100v-72h81v-90h-80v-420h-111v420h-64v90h64v73q0 88 37.5 141t118.5 53q28 0 54 -8zM451 0h-112v510h112v-510zM461 658q0 -30 -19 -50t-47 -20t-47 20t-19 50t19 50.5t47 20.5t47 -20.5t19 -50.5z" />
    <glyph glyph-name="fl" unicode="fl" horiz-adv-x="520" 
d="M285 769l-7 -92q-13 5 -30 5q-63 0 -63 -100v-72h81v-90h-80v-420h-111v420h-64v90h64v73q0 88 37.5 141t118.5 53q28 0 54 -8zM452 0h-114v756h114v-756z" />
    <glyph glyph-name=".notdef" horiz-adv-x="512" 
d="M222 117h56v67h-56v-67zM225 234h46q0 52 6 72q6 19 43 52q37 34 50 60t13 60q0 59 -35 95t-89 36q-56 0 -92 -34t-43 -103l50 -8q11 95 82 95q31 0 53.5 -24.5t22.5 -60.5q0 -20 -9.5 -37t-40.5 -46q-31 -31 -46 -59q-13 -25 -13 -81zM462 50h-412v617h412v-617z
M512 718h-512v-718h512v718z" />
    <glyph glyph-name=".null" horiz-adv-x="195" 
 />
    <glyph glyph-name=".null" horiz-adv-x="195" 
 />
    <glyph glyph-name="nonmarkingreturn" horiz-adv-x="333" 
 />
    <glyph glyph-name="CR" unicode="&#xd;" horiz-adv-x="0" 
 />
    <glyph glyph-name="space" unicode=" " horiz-adv-x="195" 
 />
    <glyph glyph-name="exclam" unicode="!" horiz-adv-x="314" 
d="M214 228h-115v480h115v-480zM225 65q0 -31 -19.5 -52t-48.5 -21q-30 0 -49 21t-19 52q0 30 19.5 51.5t48.5 21.5t48.5 -21.5t19.5 -51.5z" />
    <glyph glyph-name="quotedbl" unicode="&#x22;" horiz-adv-x="371" 
d="M297 449h-82v259h82v-259zM157 449h-83v259h83v-259z" />
    <glyph glyph-name="numbersign" unicode="#" horiz-adv-x="399" 
d="M371 421h-70l-11 -133h55v-74h-63l-19 -214h-64l19 214h-63l-19 -214h-65l19 214h-62v74h69l13 133h-63v74h70l19 213h65l-19 -213h63l19 213h65l-20 -213h62v-74zM238 421h-64l-12 -133h63z" />
    <glyph glyph-name="dollar" unicode="$" horiz-adv-x="500" 
d="M270 1v-82h-51v82q-44 2 -92 21t-82 49l58 83q56 -54 116 -56v213q-77 30 -120 73.5t-43 125.5q0 86 47.5 138.5t119.5 57.5v80h51v-79q97 -2 161 -63l-54 -81q-47 49 -107 49v-205q39 -16 64.5 -30.5t52.5 -38t40.5 -58t13.5 -80.5q0 -88 -49 -142t-126 -57zM221 424
v187q-26 -3 -45 -28t-19 -64q0 -40 16 -60t48 -35zM341 195q0 41 -18 63.5t-51 37.5v-199q30 3 49.5 29t19.5 69z" />
    <glyph glyph-name="percent" unicode="%" horiz-adv-x="666" 
d="M308 533q0 -82 -37 -133.5t-102 -51.5q-63 0 -100.5 51.5t-37.5 133.5q0 83 37 135t101 52q65 0 102 -52t37 -135zM224 534q0 48 -14.5 78.5t-40.5 30.5t-40 -30.5t-14 -78.5q0 -47 14.5 -78t39.5 -31q26 0 40.5 31t14.5 78zM639 173q0 -82 -37.5 -133.5t-101.5 -51.5
t-101.5 51.5t-37.5 133.5q0 83 37.5 135t101.5 52t101.5 -52t37.5 -135zM554 174q0 48 -14 78.5t-40 30.5t-40 -30.5t-14 -78.5q0 -47 14 -78t40 -31t40 31t14 78zM511 715l-291 -737l-62 22l291 737z" />
    <glyph glyph-name="ampersand" unicode="&#x26;" horiz-adv-x="568" 
d="M564 0h-138l-51 74q-50 -90 -153 -90q-86 0 -136.5 55t-50.5 154q0 131 119 201q-54 77 -54 156q0 81 48 129.5t122 48.5q71 0 115 -45t44 -122q0 -62 -35 -106.5t-97 -83.5l81 -117l54 131h118l-105 -216zM325 554q0 37 -14.5 59.5t-40.5 22.5q-27 0 -43.5 -24.5
t-16.5 -61.5q0 -56 40 -111q75 49 75 115zM315 158l-108 158q-60 -37 -60 -115q0 -52 23.5 -83t61.5 -31q30 0 51.5 21t31.5 50z" />
    <glyph glyph-name="quotesingle" unicode="'" horiz-adv-x="230" 
d="M156 449h-82v259h82v-259z" />
    <glyph glyph-name="parenleft" unicode="(" horiz-adv-x="268" 
d="M222 -135l-78 -36q-58 95 -89 216t-31 243t31 243t89 216l78 -36q-51 -87 -79.5 -199.5t-28.5 -223.5t28.5 -223.5t79.5 -199.5z" />
    <glyph glyph-name="parenright" unicode=")" horiz-adv-x="268" 
d="M46 -135q51 87 79.5 199.5t28.5 223.5t-28.5 223.5t-79.5 199.5l78 36q57 -95 88.5 -216t31.5 -243t-31.5 -243t-88.5 -216z" />
    <glyph glyph-name="asterisk" unicode="*" horiz-adv-x="451" 
d="M420 534l-124 -41l78 -114l-70 -50l-78 116l-77 -113l-70 50l79 112l-126 43l29 78l123 -44v137h86v-137l124 42z" />
    <glyph glyph-name="plus" unicode="+" horiz-adv-x="666" 
d="M62 354h220v220h102v-220h220v-102h-220v-220h-102v220h-220v102z" />
    <glyph glyph-name="comma" unicode="," horiz-adv-x="245" 
d="M196 145l-76 -269h-89l58 269h107z" />
    <glyph glyph-name="hyphen" unicode="-" horiz-adv-x="238" 
d="M205 225h-172v88h172v-88z" />
    <glyph glyph-name="period" unicode="." horiz-adv-x="245" 
d="M191 65q0 -31 -19.5 -52t-49.5 -21t-49 21t-19 52t19.5 52.5t48.5 21.5q30 0 49.5 -21.5t19.5 -52.5z" />
    <glyph glyph-name="slash" unicode="/" horiz-adv-x="261" 
d="M258 744l-185 -780l-67 15l186 780z" />
    <glyph glyph-name="zero" unicode="0" horiz-adv-x="500" 
d="M464 354q0 -68 -9 -127t-31 -116.5t-66.5 -91t-107.5 -33.5q-51 0 -90 23t-62 59.5t-37.5 86.5t-19.5 98t-5 101t5 101t19.5 98t37.5 86.5t62 59.5t90 23q63 0 107.5 -33.5t66.5 -91t31 -116.5t9 -127zM343 354q0 261 -93 261t-93 -261t93 -261t93 261z" />
    <glyph glyph-name="one" unicode="1" horiz-adv-x="500" 
d="M348 0h-117v569l-118 -89l-54 93l182 135h107v-708z" />
    <glyph glyph-name="two" unicode="2" horiz-adv-x="500" 
d="M440 521q0 -43 -17 -86t-34.5 -68.5t-55.5 -74.5l-146 -187h244v-105h-382v109l205 259q66 87 66 149q0 44 -20 72t-57 28q-35 0 -58 -26t-30 -75l-113 11q13 94 67.5 144.5t138.5 50.5q90 0 141 -56t51 -145z" />
    <glyph glyph-name="three" unicode="3" horiz-adv-x="500" 
d="M448 200q0 -95 -57 -154.5t-150 -59.5q-80 0 -135 41t-75 120l106 28q24 -85 99 -85q46 0 71 34.5t25 80.5q0 56 -31.5 85.5t-83.5 29.5h-30v93h33q45 0 71.5 28.5t26.5 79.5q0 39 -21 68.5t-62 29.5q-56 0 -80 -67l-104 29q23 71 76.5 106t116.5 35q80 0 134.5 -50.5
t54.5 -135.5q0 -61 -27.5 -105.5t-75.5 -57.5v-3q54 -13 86 -60t32 -110z" />
    <glyph glyph-name="four" unicode="4" horiz-adv-x="500" 
d="M469 154h-78v-154h-108v154h-256v105l214 449h150v-454h78v-100zM286 254v337h-2l-151 -337h153z" />
    <glyph glyph-name="five" unicode="5" horiz-adv-x="500" 
d="M446 229q0 -115 -58 -179t-149 -64q-75 0 -128 40.5t-72 116.5l103 34q27 -85 94 -85q43 0 68 36t25 97q0 64 -31 99.5t-83 35.5q-69 0 -131 -32l12 380h325v-105h-223l-7 -165q30 14 65 14q91 0 140.5 -60.5t49.5 -162.5z" />
    <glyph glyph-name="six" unicode="6" horiz-adv-x="500" 
d="M462 230q0 -113 -59 -178.5t-153 -65.5q-96 0 -154 65t-58 176q0 98 56 207l140 274h131l-144 -270l1 -1q23 20 62 20q76 0 127 -57.5t51 -169.5zM348 231q0 64 -25 103t-71 39q-44 0 -71.5 -41t-27.5 -103q0 -65 26.5 -104.5t71.5 -39.5t71 40t26 106z" />
    <glyph glyph-name="seven" unicode="7" horiz-adv-x="500" 
d="M436 614l-217 -614h-127l219 601h-260v107h385v-94z" />
    <glyph glyph-name="eight" unicode="8" horiz-adv-x="500" 
d="M464 196q0 -93 -58 -151.5t-155 -58.5q-96 0 -153 58.5t-57 151.5q0 69 31.5 114.5t81.5 62.5v2q-97 41 -97 159q0 79 50.5 133.5t143.5 54.5t145.5 -54.5t52.5 -133.5q0 -57 -25 -98.5t-71 -60.5v-2q50 -18 80.5 -63t30.5 -114zM332 526q0 47 -21.5 77t-59.5 30
t-59 -29.5t-21 -77.5q0 -45 22 -77.5t58 -32.5t58.5 32.5t22.5 77.5zM342 202q0 55 -25.5 89.5t-65.5 34.5t-65 -34.5t-25 -89.5q0 -54 24 -88.5t66 -34.5t66.5 34.5t24.5 88.5z" />
    <glyph glyph-name="nine" unicode="9" horiz-adv-x="500" 
d="M39 483q0 110 59 174.5t153 64.5q96 0 154 -63.5t58 -174.5q0 -99 -56 -208l-140 -276h-131l150 279l-1 1q-26 -20 -67 -20q-76 0 -127.5 57t-51.5 166zM153 485q0 -63 25 -101t71 -38q44 0 71.5 39.5t27.5 100.5q0 63 -26.5 101t-71.5 38t-71 -38.5t-26 -101.5z" />
    <glyph glyph-name="colon" unicode=":" horiz-adv-x="280" 
d="M204 442q0 -30 -18.5 -49.5t-45.5 -19.5q-28 0 -46 19.5t-18 49.5q0 28 18 48t46 20q27 0 45.5 -20t18.5 -48zM204 67q0 -29 -18.5 -49t-45.5 -20q-28 0 -46 19.5t-18 49.5q0 28 18 48.5t46 20.5q27 0 45.5 -20.5t18.5 -48.5z" />
    <glyph glyph-name="semicolon" unicode=";" horiz-adv-x="280" 
d="M204 442q0 -30 -18.5 -49.5t-45.5 -19.5q-28 0 -46 19.5t-18 49.5q0 28 18 48t46 20q27 0 45.5 -20t18.5 -48zM200 143l-76 -267h-84l59 267h101z" />
    <glyph glyph-name="less" unicode="&#x3c;" horiz-adv-x="666" 
d="M586 42l-506 225v72l506 225v-110l-338 -151l338 -151v-110z" />
    <glyph glyph-name="equal" unicode="=" horiz-adv-x="666" 
d="M80 444h506v-102h-506v102zM80 264h506v-102h-506v102z" />
    <glyph glyph-name="greater" unicode="&#x3e;" horiz-adv-x="666" 
d="M80 564l506 -225v-72l-506 -225v110l338 151l-338 151v110z" />
    <glyph glyph-name="question" unicode="?" horiz-adv-x="400" 
d="M248 259v-33h-101v46q0 88 65 150l19 21q42 47 42 90t-18.5 67.5t-53.5 24.5q-36 0 -57 -28.5t-26 -66.5l-98 19q12 79 58.5 128t127.5 49t129 -49t48 -136q0 -56 -23 -94.5t-66 -79.5q-28 -28 -37 -50.5t-9 -57.5zM274 65q0 -31 -20 -52t-50 -21q-29 0 -48.5 21
t-19.5 52q0 30 19.5 52t48.5 22q30 0 50 -22t20 -52z" />
    <glyph glyph-name="at" unicode="@" horiz-adv-x="640" 
d="M606 405q0 -106 -43 -175.5t-114 -69.5q-32 0 -51.5 17.5t-20.5 51.5h-2q-31 -69 -92 -69q-51 0 -79 46t-28 116q0 60 16 112.5t49.5 88.5t78.5 36q31 0 50.5 -18.5t23.5 -46.5h3l8 40h72l-29 -151q-12 -63 -12 -102q0 -42 29 -42q31 0 52.5 46t21.5 118q0 119 -55 188
t-153 69q-99 0 -160.5 -89t-61.5 -217q0 -134 61.5 -218.5t168.5 -84.5q106 0 181 82l39 -58q-89 -93 -227 -93q-140 0 -218.5 102.5t-78.5 268.5q0 161 81.5 267t214.5 106q130 0 202.5 -84.5t72.5 -236.5zM377 400q0 81 -46 81q-34 0 -54.5 -49.5t-20.5 -111.5
q0 -81 50 -81q32 0 51.5 54.5t19.5 106.5z" />
    <glyph glyph-name="A" unicode="A" horiz-adv-x="506" 
d="M504 0h-125l-35 150h-186l-36 -150h-120l176 708h153zM329 244l-75 351h-4l-77 -351h156z" />
    <glyph glyph-name="B" unicode="B" horiz-adv-x="519" 
d="M481 198q0 -53 -18 -93t-48 -62t-63.5 -32.5t-69.5 -10.5h-210v708h188q35 0 66.5 -8t62.5 -26t49.5 -55t18.5 -89q0 -62 -26 -101t-67 -56v-2q46 -10 81.5 -54.5t35.5 -118.5zM349 511q0 50 -28 73.5t-71 23.5h-66v-197h68q40 0 68.5 25t28.5 75zM366 208q0 57 -33 85
t-76 28h-73v-221h76q46 0 76 27.5t30 80.5z" />
    <glyph glyph-name="C" unicode="C" horiz-adv-x="496" 
d="M483 76q-63 -94 -181 -94t-189.5 104t-71.5 268t72 268t189 104q122 0 182 -87l-69 -84q-41 59 -106 59q-69 0 -106.5 -73.5t-37.5 -186.5q0 -112 38 -185.5t108 -73.5q63 0 103 62z" />
    <glyph glyph-name="D" unicode="D" horiz-adv-x="569" 
d="M527 353q0 -169 -71.5 -261t-206.5 -92h-177v708h178q135 0 206 -92.5t71 -262.5zM407 353q0 122 -43 186t-114 64h-57v-498h57q71 0 114 64t43 184z" />
    <glyph glyph-name="E" unicode="E" horiz-adv-x="436" 
d="M399 0h-327v708h317v-106h-202v-188h187v-98h-187v-209h212v-107z" />
    <glyph glyph-name="F" unicode="F" horiz-adv-x="417" 
d="M389 600h-197v-193h182v-103h-181v-304h-121v708h317v-108z" />
    <glyph glyph-name="G" unicode="G" horiz-adv-x="549" 
d="M493 43q-73 -58 -183 -58q-125 0 -197 101t-72 269q0 164 71 267.5t189 103.5q122 0 184 -86l-69 -84q-40 58 -108 58q-71 0 -108.5 -74t-37.5 -185q0 -115 37.5 -187.5t109.5 -72.5q48 0 75 20v183h-86v104h195v-359z" />
    <glyph glyph-name="H" unicode="H" horiz-adv-x="594" 
d="M522 0h-119v314h-212v-314h-119v708h119v-287h212v287h119v-708z" />
    <glyph glyph-name="I" unicode="I" horiz-adv-x="264" 
d="M192 0h-120v708h120v-708z" />
    <glyph glyph-name="J" unicode="J" horiz-adv-x="416" 
d="M349 206q0 -224 -184 -224q-67 0 -113 37.5t-61 100.5l100 43q7 -29 25 -49t45 -20q38 0 53.5 31t15.5 92v491h119v-502z" />
    <glyph glyph-name="K" unicode="K" horiz-adv-x="530" 
d="M523 0h-139l-189 344h-3v-344h-120v708h120v-307h3l180 307h135l-208 -326z" />
    <glyph glyph-name="L" unicode="L" horiz-adv-x="394" 
d="M388 0h-316v708h121v-597h195v-111z" />
    <glyph glyph-name="M" unicode="M" horiz-adv-x="746" 
d="M675 0h-117l2 544h-3l-142 -544h-94l-139 544h-3l2 -544h-109v708h161l136 -518h4l133 518h169v-708z" />
    <glyph glyph-name="N" unicode="N" horiz-adv-x="586" 
d="M514 0h-132l-201 500h-3l2 -500h-108v708h137l199 -503h3l-1 503h104v-708z" />
    <glyph glyph-name="O" unicode="O" horiz-adv-x="591" 
d="M551 355q0 -169 -68.5 -271t-186.5 -102t-186.5 102t-68.5 271t68 270t187 101q118 0 186.5 -101.5t68.5 -269.5zM427 355q0 113 -34.5 185.5t-96.5 72.5q-64 0 -97.5 -72t-33.5 -186t34 -186.5t97 -72.5t97 72.5t34 186.5z" />
    <glyph glyph-name="P" unicode="P" horiz-adv-x="495" 
d="M468 499q0 -103 -56.5 -159t-137.5 -56h-84v-284h-118v708h196q37 0 70.5 -10.5t63.5 -33.5t48 -65.5t18 -99.5zM354 498q0 54 -26 81.5t-70 27.5h-68v-225h68q43 0 69.5 30t26.5 86z" />
    <glyph glyph-name="Q" unicode="Q" horiz-adv-x="598" 
d="M581 0h-288q-117 0 -184.5 96t-67.5 263q0 165 70 266t186 101t185 -100t69 -262q0 -83 -28.5 -158t-67.5 -101v-4l126 2v-103zM428 359q0 109 -35 180t-96 71q-62 0 -97 -70.5t-35 -180.5q0 -109 35.5 -180t97.5 -71t96 72.5t34 178.5z" />
    <glyph glyph-name="R" unicode="R" horiz-adv-x="513" 
d="M491 0h-126l-110 302h-67v-302h-116v708h202q92 0 146.5 -50t54.5 -152q0 -76 -33.5 -122t-77.5 -58zM357 500q0 59 -29 83.5t-72 24.5h-68v-218h68q45 0 73 28.5t28 81.5z" />
    <glyph glyph-name="S" unicode="S" horiz-adv-x="449" 
d="M416 657l-66 -86q-39 47 -98 47q-37 0 -63.5 -25t-26.5 -74q0 -41 24 -66t74 -50q32 -16 54.5 -31t47 -39.5t37.5 -58.5t13 -77q0 -100 -58.5 -157.5t-144.5 -57.5q-57 0 -107.5 22.5t-81.5 58.5l65 88q50 -60 122 -60q38 0 63 27t25 72q0 42 -26.5 69t-79.5 54
q-68 34 -105 78.5t-37 123.5q0 102 60 156.5t141 54.5q110 0 168 -69z" />
    <glyph glyph-name="T" unicode="T" horiz-adv-x="380" 
d="M382 606h-133v-606h-118v606h-133v102h384v-102z" />
    <glyph glyph-name="U" unicode="U" horiz-adv-x="567" 
d="M506 251q0 -121 -54 -195t-170 -74q-115 0 -168 73.5t-53 195.5v457h120v-446q0 -167 103 -167t103 167v446h119v-457z" />
    <glyph glyph-name="V" unicode="V" horiz-adv-x="507" 
d="M504 708l-176 -708h-152l-173 708h134l118 -568h3l118 568h128z" />
    <glyph glyph-name="W" unicode="W" horiz-adv-x="769" 
d="M757 708l-136 -708h-138l-98 532h-2l-98 -532h-138l-135 708h122l91 -550h4l95 550h126l98 -550h2l91 550h116z" />
    <glyph glyph-name="X" unicode="X" horiz-adv-x="501" 
d="M496 0h-129l-118 271l-119 -271h-125l177 373l-160 335h125l105 -244l104 244h123l-161 -335z" />
    <glyph glyph-name="Y" unicode="Y" horiz-adv-x="462" 
d="M468 708l-179 -437v-271h-118v271l-177 437h130l106 -316l3 2l108 314h127z" />
    <glyph glyph-name="Z" unicode="Z" horiz-adv-x="431" 
d="M395 0h-370v99l238 503h-222v106h354v-97l-237 -503h237v-108z" />
    <glyph glyph-name="bracketleft" unicode="[" horiz-adv-x="268" 
d="M217 -156h-179v888h179v-79h-85v-730h85v-79z" />
    <glyph glyph-name="backslash" unicode="\" horiz-adv-x="261" 
d="M6 744l66 15l186 -780l-67 -15z" />
    <glyph glyph-name="bracketright" unicode="]" horiz-adv-x="268" 
d="M51 -156v79h85v730h-85v79h178v-888h-178z" />
    <glyph glyph-name="asciicircum" unicode="^" horiz-adv-x="666" 
d="M187 343h-118l223 365h82l223 -365h-118l-147 239z" />
    <glyph glyph-name="underscore" unicode="_" horiz-adv-x="500" 
d="M500 -75v-75h-500v75h500z" />
    <glyph glyph-name="grave" unicode="`" 
d="M194 575h-85l-109 144h104z" />
    <glyph glyph-name="a" unicode="a" horiz-adv-x="435" 
d="M275 210v29h-33q-108 0 -108 -89q0 -38 16.5 -58t41.5 -20q42 0 62.5 42t20.5 96zM281 76h-2q-23 -89 -117 -89q-51 0 -90 38t-39 116q0 42 13 74t33.5 51t49 31.5t56.5 17t59 4.5h28v16q0 96 -75 96q-56 0 -93 -49l-54 71q27 34 70 54t86 20q91 0 130 -56.5t39 -167.5
v-303h-94v76z" />
    <glyph glyph-name="b" unicode="b" horiz-adv-x="499" 
d="M69 0v756h113v-310h2q11 36 41 58.5t70 22.5q79 0 122 -73.5t43 -193.5q0 -121 -44 -199t-121 -78q-85 0 -114 90h-2v-73h-110zM178 255q0 -76 22 -124.5t63 -48.5t62 48t21 125t-21 125.5t-62 48.5t-63 -49t-22 -125z" />
    <glyph glyph-name="c" unicode="c" horiz-adv-x="351" 
d="M348 30q-45 -47 -119 -47q-92 0 -141.5 74.5t-49.5 198.5q0 123 50.5 197t141.5 74q72 0 117 -45l-51 -85q-26 28 -61 28q-41 0 -63 -46t-22 -123q0 -78 22.5 -123t66.5 -45q38 0 62 30z" />
    <glyph glyph-name="d" unicode="d" horiz-adv-x="496" 
d="M428 0h-109v73h-2q-27 -90 -114 -90q-77 0 -121 78t-44 199q0 119 43 193t122 74q41 0 70.5 -23t40.5 -59h3v311h111v-756zM321 255q0 77 -22.5 125.5t-63.5 48.5q-42 0 -63 -48t-21 -126q0 -77 21 -125t63 -48t64 48.5t22 124.5z" />
    <glyph glyph-name="e" unicode="e" horiz-adv-x="448" 
d="M414 226h-265q1 -63 24.5 -104t65.5 -41q51 0 79 66l83 -48q-48 -116 -166 -116q-90 0 -143.5 71.5t-53.5 199.5q0 123 54 198t141 75q93 0 137 -70.5t44 -187.5v-43zM306 308q0 59 -18.5 93.5t-55.5 34.5q-39 0 -60 -41t-22 -87h156z" />
    <glyph glyph-name="f" unicode="f" horiz-adv-x="269" 
d="M284 769l-7 -92q-13 5 -30 5q-63 0 -63 -100v-72h82v-90h-81v-420h-110v420h-64v90h64v74q0 87 38 140t118 53q29 0 53 -8z" />
    <glyph glyph-name="g" unicode="g" horiz-adv-x="493" 
d="M426 14q0 -254 -206 -254q-52 0 -100.5 20.5t-79.5 54.5l61 81q51 -56 116 -56q99 0 99 146v62h-2q-12 -35 -42 -58t-70 -23q-79 0 -122 74t-43 194q0 121 43.5 196.5t121.5 75.5q85 0 113 -89h3v72h108v-496zM319 256q0 76 -22 124.5t-63 48.5q-42 0 -63 -48t-21 -125
q0 -78 21 -126t63 -48q41 0 63 49t22 125z" />
    <glyph glyph-name="h" unicode="h" horiz-adv-x="503" 
d="M439 0h-113v320q0 109 -62 109q-37 0 -60 -38t-23 -96v-295h-113v756h113v-325h2q14 42 46.5 69t77.5 27q40 0 67.5 -17t41 -48t18.5 -64.5t5 -77.5v-320z" />
    <glyph glyph-name="i" unicode="i" horiz-adv-x="248" 
d="M190 658q0 -30 -19 -50t-47 -20t-47 20t-19 50t19 50.5t47 20.5t47 -20.5t19 -50.5zM180 0h-112v510h112v-510z" />
    <glyph glyph-name="j" unicode="j" horiz-adv-x="249" 
d="M191 658q0 -30 -19 -50t-47 -20t-46.5 20t-18.5 50t18.5 50.5t46.5 20.5t47 -20.5t19 -50.5zM182 -50q0 -190 -158 -190q-29 0 -50 6l8 102q12 -4 27 -4q61 0 61 95v551h112v-560z" />
    <glyph glyph-name="k" unicode="k" horiz-adv-x="453" 
d="M452 0h-133l-135 245h-2v-245h-113v756h113v-461h2l130 215h131l-160 -235z" />
    <glyph glyph-name="l" unicode="l" horiz-adv-x="250" 
d="M182 0h-114v756h114v-756z" />
    <glyph glyph-name="m" unicode="m" horiz-adv-x="757" 
d="M183 429q11 43 44 70.5t80 27.5q93 0 119 -98h2q15 41 49 69.5t85 28.5q40 0 67 -17t40.5 -48t18.5 -64.5t5 -77.5v-320h-113v320q0 109 -62 109q-37 0 -60 -38t-23 -96v-295h-111v320q0 109 -61 109q-37 0 -59 -37.5t-22 -95.5v-296h-112v510h111v-81h2z" />
    <glyph glyph-name="n" unicode="n" horiz-adv-x="505" 
d="M70 510h111v-81h2q14 43 48 70.5t79 27.5q40 0 67 -17t40.5 -48t18.5 -64.5t5 -77.5v-320h-113v320q0 109 -62 109q-37 0 -60 -38t-23 -96v-295h-113v510z" />
    <glyph glyph-name="o" unicode="o" horiz-adv-x="468" 
d="M430 254q0 -122 -53 -196.5t-143 -74.5t-143 74.5t-53 196.5q0 124 52.5 198.5t143.5 74.5t143.5 -74.5t52.5 -198.5zM318 255q0 78 -21 126t-63 48t-62.5 -48t-20.5 -126q0 -77 20.5 -125t62.5 -48t63 48t21 125z" />
    <glyph glyph-name="p" unicode="p" horiz-adv-x="496" 
d="M458 256q0 -121 -43.5 -197t-121.5 -76q-42 0 -71.5 23.5t-40.5 60.5h-2v-307h-111v750h109v-72h2q30 89 114 89q77 0 121 -75.5t44 -195.5zM345 256q0 77 -21 125t-63 48q-41 0 -63 -48.5t-22 -124.5t22 -125t63 -49q42 0 63 48t21 126z" />
    <glyph glyph-name="q" unicode="q" horiz-adv-x="496" 
d="M428 -240h-111v307h-2q-11 -37 -40.5 -60.5t-71.5 -23.5q-78 0 -121.5 76t-43.5 197q0 120 44 195.5t121 75.5q84 0 114 -89h2v72h109v-750zM321 256q0 76 -22 124.5t-64 48.5t-63 -48t-21 -125q0 -78 21 -126t63 -48q41 0 63.5 49t22.5 125z" />
    <glyph glyph-name="r" unicode="r" horiz-adv-x="307" 
d="M183 412q13 56 41 85.5t66 29.5q11 0 17 -2l-6 -116q-11 3 -24 3q-42 0 -67 -46.5t-25 -109.5v-256h-115v510h111v-98h2z" />
    <glyph glyph-name="s" unicode="s" horiz-adv-x="371" 
d="M345 468l-60 -73q-33 43 -83 43q-25 0 -42 -18t-17 -46t16 -41.5t59 -29.5q121 -41 121 -153q0 -80 -47.5 -123.5t-116.5 -43.5q-98 0 -160 70l61 72q44 -51 98 -51q28 0 44 19t16 50q0 33 -20 49t-66 33q-49 17 -79 49.5t-30 95.5q0 71 47 114t113 43q87 0 146 -59z" />
    <glyph glyph-name="t" unicode="t" horiz-adv-x="284" 
d="M271 423h-89v-262q0 -80 51 -80q21 0 35 8l2 -88q-28 -14 -72 -14q-122 0 -122 149v287h-64v87h64v130h106v-130h89v-87z" />
    <glyph glyph-name="u" unicode="u" horiz-adv-x="505" 
d="M435 0h-111v81h-2q-14 -43 -48 -70.5t-79 -27.5q-40 0 -67 17t-40.5 48t-18.5 64.5t-5 77.5v320h113v-320q0 -108 62 -108q37 0 60 37.5t23 95.5v295h113v-510z" />
    <glyph glyph-name="v" unicode="v" horiz-adv-x="425" 
d="M415 510l-135 -510h-135l-135 510h119l86 -391h2l83 391h115z" />
    <glyph glyph-name="w" unicode="w" horiz-adv-x="635" 
d="M620 510l-111 -510h-121l-73 349h-1l-73 -349h-118l-109 510h116l62 -375h2l73 375h100l75 -375h2l63 375h113z" />
    <glyph glyph-name="x" unicode="x" horiz-adv-x="421" 
d="M415 0h-125l-79 186l-81 -186h-124l132 267l-120 243h123l71 -166l70 166h122l-119 -243z" />
    <glyph glyph-name="y" unicode="y" horiz-adv-x="427" 
d="M417 510l-153 -580q-21 -83 -59.5 -126.5t-109.5 -43.5q-40 0 -69 9l14 102q22 -8 42 -8q48 0 62 62l15 63l-149 522h119l89 -384h3l81 384h115z" />
    <glyph glyph-name="z" unicode="z" horiz-adv-x="367" 
d="M339 0h-313v95l192 319h-178v96h298v-91l-192 -323h193v-96z" />
    <glyph glyph-name="braceleft" unicode="{" horiz-adv-x="268" 
d="M222 -156h-58q-111 0 -111 151v160q0 51 -13.5 70.5t-39.5 19.5v86q26 0 39.5 19.5t13.5 70.5v160q0 151 111 151h58v-79h-32q-48 0 -48 -80v-168q0 -55 -19 -83t-44 -33v-2q25 -5 44 -33t19 -83v-168q0 -80 48 -80h32v-79z" />
    <glyph glyph-name="bar" unicode="|" horiz-adv-x="222" 
d="M60 750h102v-1000h-102v1000z" />
    <glyph glyph-name="braceright" unicode="}" horiz-adv-x="268" 
d="M45 -156v79h32q49 0 49 80v168q0 55 18.5 83t43.5 33v2q-25 5 -43.5 33t-18.5 83v168q0 80 -49 80h-32v79h59q111 0 111 -151v-160q0 -51 13.5 -70.5t39.5 -19.5v-86q-26 0 -39.5 -19.5t-13.5 -70.5v-160q0 -151 -111 -151h-59z" />
    <glyph glyph-name="asciitilde" unicode="~" horiz-adv-x="666" 
d="M345 354q40 -25 55.5 -31t38.5 -6q45 0 78 63l77 -65q-62 -102 -153 -102q-58 0 -121 40q-58 36 -93 36q-44 0 -78 -63l-77 65q62 103 153 103q59 0 120 -40z" />
    <glyph glyph-name="uni00A0" unicode="&#xa0;" horiz-adv-x="195" 
 />
    <glyph glyph-name="exclamdown" unicode="&#xa1;" horiz-adv-x="314" 
d="M214 294v-480h-115v480h115zM225 457q0 -30 -19.5 -51.5t-48.5 -21.5t-48.5 21.5t-19.5 51.5q0 31 19 52t49 21q29 0 48.5 -21t19.5 -52z" />
    <glyph glyph-name="cent" unicode="&#xa2;" horiz-adv-x="500" 
d="M416 48q-36 -54 -111 -60v-60h-53v60q-84 5 -130 78t-46 187q0 112 46 185.5t130 80.5v64h53v-64q69 -3 110 -49l-48 -80q-26 30 -62 33v-341q40 3 69 41zM253 83v339q-37 -5 -55 -53.5t-18 -117.5t18 -115.5t55 -52.5z" />
    <glyph glyph-name="sterling" unicode="&#xa3;" horiz-adv-x="500" 
d="M244 411h123v-91h-123v-212h188v-108h-388v108h86v212h-81v91h81v86q0 93 50 161.5t149 68.5q82 0 132 -46l-58 -86q-26 26 -66 26q-93 0 -93 -135v-75z" />
    <glyph glyph-name="currency" unicode="&#xa4;" horiz-adv-x="920" 
d="M687 462q45 -66 45 -153q0 -93 -48 -158l93 -93l-70 -70q-32 31 -96 95q-65 -43 -150 -43q-81 0 -151 45q-32 -33 -98 -97l-22 22t-25.5 26t-22.5 22q16 16 47.5 48t47.5 48q-45 62 -45 155q0 87 43 150l-93 93q24 23 71 70q15 -16 47 -47t47 -46q68 46 154 46
q88 0 153 -45l29 29t34 34.5t29 28.5q24 -23 71 -70zM461 459q-64 0 -104.5 -44t-40.5 -106q0 -64 40.5 -108t104.5 -44q65 0 105 44t40 108q0 62 -40.5 106t-104.5 44z" />
    <glyph glyph-name="yen" unicode="&#xa5;" horiz-adv-x="500" 
d="M343 407h96v-78h-138v-92h138v-78h-138v-159h-114v159h-136v78h136v92h-136v79h99l-134 300h119l112 -293l112 293h117z" />
    <glyph glyph-name="brokenbar" unicode="&#xa6;" horiz-adv-x="222" 
d="M60 675h102v-350h-102v350zM60 175h102v-350h-102v350z" />
    <glyph glyph-name="section" unicode="&#xa7;" horiz-adv-x="500" 
d="M346 275q0 23 -13 41t-27.5 27t-43.5 23l-47 22q-26 -6 -45 -26t-19 -52q0 -35 20.5 -54t61.5 -35l49 -22q27 5 45.5 24.5t18.5 51.5zM179 136q-66 27 -95.5 63t-29.5 99q0 51 27 86t63 50q-65 41 -65 120q0 74 53 123.5t135 49.5q115 0 170 -77l-70 -65q-32 49 -97 49
q-35 0 -60 -20t-25 -59q0 -17 5 -29t22.5 -24t27.5 -17t42 -20l30 -14q67 -30 99.5 -68.5t32.5 -98.5q0 -50 -26 -84t-65 -47q68 -41 68 -118q0 -90 -57 -134.5t-135 -44.5q-122 0 -190 79l64 76q50 -61 125 -61q36 0 61 19.5t25 56.5q0 33 -22.5 53t-75.5 42z" />
    <glyph glyph-name="dieresis" unicode="&#xa8;" 
d="M107 657q0 -28 -17.5 -47t-42.5 -19t-42 19t-17 47q0 27 17 46t42 19q26 0 43 -19t17 -46zM264 657q0 -28 -17.5 -47t-42.5 -19q-26 0 -42.5 19t-16.5 47q0 27 16.5 46t42.5 19q25 0 42.5 -19t17.5 -46z" />
    <glyph glyph-name="copyright" unicode="&#xa9;" horiz-adv-x="640" 
d="M390 252l51 -63q-41 -61 -108 -61q-73 0 -116 63t-43 166q0 104 42.5 167t114.5 63t109 -57l-49 -64q-18 36 -57 36q-33 0 -52 -41t-19 -104t19 -103t52 -40q36 0 56 38zM320 -20q-127 0 -205.5 102t-78.5 273t78.5 273t205.5 102t205.5 -102t78.5 -273t-78.5 -273
t-205.5 -102zM320 686q-106 0 -169 -92.5t-63 -238.5t63 -238.5t169 -92.5t169 92.5t63 238.5t-63 238.5t-169 92.5z" />
    <glyph glyph-name="ordfeminine" unicode="&#xaa;" horiz-adv-x="311" 
d="M195 403v41h-2q-14 -50 -71 -50q-32 0 -55.5 23t-23.5 69q0 59 36.5 84t89.5 25h17v9q0 51 -42 51q-31 0 -55 -27l-35 49q38 44 97 44q56 0 80.5 -35t24.5 -103v-180h-61zM187 525v17h-18q-59 0 -59 -51q0 -19 9.5 -30t23.5 -11q23 0 33.5 22.5t10.5 52.5z" />
    <glyph glyph-name="guillemotleft" unicode="&#xab;" horiz-adv-x="385" 
d="M35 256l106 223l64 -34l-88 -189l88 -188l-64 -35zM181 256l105 223l64 -34l-88 -189l88 -188l-64 -35z" />
    <glyph glyph-name="logicalnot" unicode="&#xac;" horiz-adv-x="666" 
d="M502 147v195h-440v102h542v-297h-102z" />
    <glyph glyph-name="uni00AD" unicode="&#xad;" horiz-adv-x="238" 
d="M205 225h-172v88h172v-88z" />
    <glyph glyph-name="registered" unicode="&#xae;" horiz-adv-x="480" 
d="M338 372h-61l-39 98h-15v-98h-59v261h89q34 0 57.5 -20t23.5 -62q0 -56 -42 -69zM275 550q0 16 -9 24.5t-21 8.5h-22v-70h18q34 0 34 37zM240 274q-76 0 -123 61t-47 164t47 164t123 61t123 -61t47 -164t-47 -164t-123 -61zM240 698q-64 0 -101.5 -55.5t-37.5 -143.5
t37.5 -143.5t101.5 -55.5t101.5 55.5t37.5 143.5t-37.5 143.5t-101.5 55.5z" />
    <glyph glyph-name="macron" unicode="&#xaf;" 
d="M263 613h-274v66h274v-66z" />
    <glyph glyph-name="degree" unicode="&#xb0;" horiz-adv-x="320" 
d="M284 563q0 -67 -34 -116.5t-90 -49.5q-57 0 -90.5 49t-33.5 117q0 67 33.5 115t90.5 48q56 0 90 -48t34 -115zM220 563q0 43 -16.5 72t-43.5 29t-43.5 -29t-16.5 -72q0 -46 16.5 -74.5t43.5 -28.5t43.5 29t16.5 74z" />
    <glyph glyph-name="plusminus" unicode="&#xb1;" horiz-adv-x="666" 
d="M286 431v143h96v-143h204v-102h-204v-143h-96v143h-206v102h206zM80 32v102h506v-102h-506z" />
    <glyph glyph-name="twosuperior" unicode="&#xb2;" horiz-adv-x="322" 
d="M297 590q0 -26 -11 -52.5t-22.5 -42t-34.5 -44.5l-89 -104h152v-77h-256v80l133 158q39 47 39 80q0 23 -11 38t-32 15q-20 0 -33.5 -15t-16.5 -44l-86 8q9 63 45.5 96t93.5 33q61 0 95 -35t34 -94z" />
    <glyph glyph-name="threesuperior" unicode="&#xb3;" horiz-adv-x="322" 
d="M301 398q0 -63 -38.5 -100t-98.5 -37q-54 0 -91 27.5t-50 79.5l81 20q6 -22 21 -36t37 -14q25 0 39 18.5t14 43.5q0 31 -18 47.5t-49 16.5h-22v68h24q27 0 42 16t15 44q0 21 -11.5 37t-34.5 16q-35 0 -47 -41l-79 21q16 49 52 72.5t79 23.5q53 0 89.5 -31t36.5 -86
q0 -38 -18 -66t-47 -36v-1q34 -9 54 -37t20 -66z" />
    <glyph glyph-name="acute" unicode="&#xb4;" 
d="M252 719l-109 -144h-85l90 144h104z" />
    <glyph glyph-name="mu" unicode="&#xb5;" horiz-adv-x="574" 
d="M68 480h120v-243q0 -26 2.5 -45.5t10 -44t26.5 -38t49 -13.5q56 0 83 34.5t27 87.5v262h120v-480h-114v77h-2q-41 -89 -137 -89q-45 0 -65 24v-240h-120v708z" />
    <glyph glyph-name="paragraph" unicode="&#xb6;" horiz-adv-x="600" 
d="M246 -126v464q-96 0 -155.5 51t-59.5 131q0 97 61.5 142.5t171.5 45.5h269v-834h-90v762h-107v-762h-90z" />
    <glyph glyph-name="periodcentered" unicode="&#xb7;" horiz-adv-x="245" 
d="M191 263q0 -31 -19.5 -52t-49.5 -21t-49 21t-19 52t19.5 52.5t48.5 21.5q30 0 49.5 -21.5t19.5 -52.5z" />
    <glyph glyph-name="cedilla" unicode="&#xb8;" 
d="M171 0l-45 -67q12 3 27 3q33 0 57.5 -18.5t24.5 -57.5q0 -49 -37.5 -70.5t-85.5 -21.5q-59 0 -99 20l20 50q34 -16 72 -16q20 0 36 9t16 29q0 32 -45 32q-23 0 -42 -8l-24 22l61 94h64z" />
    <glyph glyph-name="onesuperior" unicode="&#xb9;" horiz-adv-x="322" 
d="M240 267h-95v331l-71 -51l-42 73l120 88h88v-441z" />
    <glyph glyph-name="ordmasculine" unicode="&#xba;" horiz-adv-x="311" 
d="M277 556q0 -73 -32.5 -118.5t-88.5 -45.5t-88.5 45.5t-32.5 118.5q0 75 32.5 120t88.5 45t88.5 -45t32.5 -120zM202 557q0 42 -11.5 69t-34.5 27t-34.5 -27t-11.5 -69q0 -96 46 -96t46 96z" />
    <glyph glyph-name="guillemotright" unicode="&#xbb;" horiz-adv-x="385" 
d="M205 256l-106 -223l-64 35l88 188l-88 189l64 34zM350 256l-105 -223l-64 35l88 188l-88 189l64 34z" />
    <glyph glyph-name="onequarter" unicode="&#xbc;" horiz-adv-x="744" 
d="M707 92h-47v-92h-80v92h-167v76l133 273h114v-275h47v-74zM582 166v192h-2l-88 -192h90zM542 716l-278 -737l-63 19l278 738zM240 267h-95v331l-71 -51l-42 73l120 88h88v-441z" />
    <glyph glyph-name="onehalf" unicode="&#xbd;" horiz-adv-x="744" 
d="M721 320q0 -26 -11 -52.5t-22.5 -42t-34.5 -44.5l-89 -104h152v-77h-256v80l133 158q39 47 39 80q0 23 -11 38t-32 15q-20 0 -33.5 -15t-16.5 -44l-86 8q9 63 45.5 96t93.5 33q61 0 95 -35t34 -94zM542 716l-278 -737l-63 19l278 738zM237 268h-91v336l-73 -52l-39 69
l119 87h84v-440z" />
    <glyph glyph-name="threequarters" unicode="&#xbe;" horiz-adv-x="744" 
d="M707 92h-47v-92h-80v92h-167v76l133 273h114v-275h47v-74zM582 166v192h-2l-88 -192h90zM301 398q0 -63 -38.5 -100t-98.5 -37q-54 0 -91 27.5t-50 79.5l81 20q6 -22 21 -36t37 -14q25 0 39 18.5t14 43.5q0 31 -18 47.5t-49 16.5h-22v68h24q27 0 42 16t15 44
q0 21 -11.5 37t-34.5 16q-35 0 -47 -41l-79 21q16 49 52 72.5t79 23.5q53 0 89.5 -31t36.5 -86q0 -38 -18 -66t-47 -36v-1q34 -9 54 -37t20 -66zM542 716l-278 -737l-63 19l278 738z" />
    <glyph glyph-name="questiondown" unicode="&#xbf;" horiz-adv-x="400" 
d="M152 263v33h101v-46q0 -88 -65 -150l-19 -21q-42 -47 -42 -90t18.5 -67.5t53.5 -24.5q36 0 57 28.5t26 66.5l98 -19q-12 -79 -58.5 -128t-127.5 -49t-129 49t-48 136q0 56 23 94.5t66 79.5q28 28 37 50.5t9 57.5zM126 457q0 31 20 52t50 21q29 0 48.5 -21t19.5 -52
q0 -30 -19.5 -52t-48.5 -22q-30 0 -50 22t-20 52z" />
    <glyph glyph-name="Agrave" unicode="&#xc0;" horiz-adv-x="506" 
d="M504 0h-125l-35 150h-186l-36 -150h-120l176 708h153zM329 244l-75 351h-4l-77 -351h156zM320 764h-85l-109 144h104z" />
    <glyph glyph-name="Aacute" unicode="&#xc1;" horiz-adv-x="506" 
d="M504 0h-125l-35 150h-186l-36 -150h-120l176 708h153zM329 244l-75 351h-4l-77 -351h156zM387 908l-109 -144h-85l90 144h104z" />
    <glyph glyph-name="Acircumflex" unicode="&#xc2;" horiz-adv-x="506" 
d="M504 0h-125l-35 150h-186l-36 -150h-120l176 708h153zM329 244l-75 351h-4l-77 -351h156zM412 764h-90l-69 93l-68 -93h-89l110 144h97z" />
    <glyph glyph-name="Atilde" unicode="&#xc3;" horiz-adv-x="506" 
d="M504 0h-125l-35 150h-186l-36 -150h-120l176 708h153zM329 244l-75 351h-4l-77 -351h156zM398 894q-3 -58 -24 -88t-56 -30q-30 0 -67 25t-55 25q-31 0 -37 -50h-47q3 52 24.5 85t55.5 33q31 0 68 -25q38 -25 56 -25q30 0 36 50h46z" />
    <glyph glyph-name="Adieresis" unicode="&#xc4;" horiz-adv-x="506" 
d="M504 0h-125l-35 150h-186l-36 -150h-120l176 708h153zM329 244l-75 351h-4l-77 -351h156zM392 846q0 -28 -17.5 -47t-42.5 -19q-26 0 -42.5 19t-16.5 47q0 27 16.5 46t42.5 19q25 0 42.5 -19t17.5 -46zM235 846q0 -28 -17.5 -47t-42.5 -19t-42 19t-17 47q0 27 17 46
t42 19q26 0 43 -19t17 -46z" />
    <glyph glyph-name="Aring" unicode="&#xc5;" horiz-adv-x="506" 
d="M504 0h-125l-35 150h-186l-36 -150h-120l176 708h153zM329 244l-75 351h-4l-77 -351h156zM352 853q0 -45 -27.5 -75.5t-70.5 -30.5t-70 30t-27 76t27 76t70 30t70.5 -30.5t27.5 -75.5zM309 853q0 28 -15 47t-40 19t-39.5 -19t-14.5 -47t14.5 -47t39.5 -19t40 19t15 47z
" />
    <glyph glyph-name="AE" unicode="&#xc6;" horiz-adv-x="677" 
d="M643 0h-314v150h-158l-52 -150h-124l253 708h385v-106h-194v-188h179v-98h-179v-209h204v-107zM329 246v359h-7l-122 -359h129z" />
    <glyph glyph-name="Ccedilla" unicode="&#xc7;" horiz-adv-x="496" 
d="M483 76q-54 -79 -146 -91l-34 -52q12 3 27 3q33 0 57.5 -18.5t24.5 -57.5q0 -49 -37.5 -70.5t-85.5 -21.5q-59 0 -99 20l20 50q34 -16 72 -16q20 0 36 9t16 29q0 32 -45 32q-23 0 -42 -8l-24 22l50 78q-106 13 -169 115t-63 255q0 164 72 268t189 104q122 0 182 -87
l-69 -84q-41 59 -106 59q-69 0 -106.5 -73.5t-37.5 -186.5q0 -112 38 -185.5t108 -73.5q63 0 103 62z" />
    <glyph glyph-name="Egrave" unicode="&#xc8;" horiz-adv-x="436" 
d="M399 0h-327v708h317v-106h-202v-188h187v-98h-187v-209h212v-107zM298 764h-85l-109 144h104z" />
    <glyph glyph-name="Eacute" unicode="&#xc9;" horiz-adv-x="436" 
d="M399 0h-327v708h317v-106h-202v-188h187v-98h-187v-209h212v-107zM373 908l-109 -144h-85l90 144h104z" />
    <glyph glyph-name="Ecircumflex" unicode="&#xca;" horiz-adv-x="436" 
d="M399 0h-327v708h317v-106h-202v-188h187v-98h-187v-209h212v-107zM387 764h-90l-69 93l-68 -93h-89l110 144h97z" />
    <glyph glyph-name="Edieresis" unicode="&#xcb;" horiz-adv-x="436" 
d="M399 0h-327v708h317v-106h-202v-188h187v-98h-187v-209h212v-107zM365 846q0 -28 -17.5 -47t-42.5 -19q-26 0 -42.5 19t-16.5 47q0 27 16.5 46t42.5 19q25 0 42.5 -19t17.5 -46zM208 846q0 -28 -17.5 -47t-42.5 -19t-42 19t-17 47q0 27 17 46t42 19q26 0 43 -19t17 -46z
" />
    <glyph glyph-name="Igrave" unicode="&#xcc;" horiz-adv-x="264" 
d="M192 0h-120v708h120v-708zM192 764h-85l-109 144h104z" />
    <glyph glyph-name="Iacute" unicode="&#xcd;" horiz-adv-x="264" 
d="M192 0h-120v708h120v-708zM267 908l-109 -144h-85l90 144h104z" />
    <glyph glyph-name="Icircumflex" unicode="&#xce;" horiz-adv-x="264" 
d="M192 0h-120v708h120v-708zM291 764h-90l-69 93l-68 -93h-89l110 144h97z" />
    <glyph glyph-name="Idieresis" unicode="&#xcf;" horiz-adv-x="264" 
d="M192 0h-120v708h120v-708zM270 846q0 -28 -17.5 -47t-42.5 -19q-26 0 -42.5 19t-16.5 47q0 27 16.5 46t42.5 19q25 0 42.5 -19t17.5 -46zM113 846q0 -28 -17.5 -47t-42.5 -19t-42 19t-17 47q0 27 17 46t42 19q26 0 43 -19t17 -46z" />
    <glyph glyph-name="Eth" unicode="&#xd0;" horiz-adv-x="569" 
d="M72 403v305h178q135 0 206 -92.5t71 -262.5q0 -169 -71.5 -261t-206.5 -92h-177v323h-56v80h56zM193 323v-218h57q71 0 114 64t43 184q0 122 -43 186t-114 64h-57v-200h114v-80h-114z" />
    <glyph glyph-name="Ntilde" unicode="&#xd1;" horiz-adv-x="586" 
d="M514 0h-132l-201 500h-3l2 -500h-108v708h137l199 -503h3l-1 503h104v-708zM438 894q-3 -58 -24 -88t-56 -30q-30 0 -67 25t-55 25q-31 0 -37 -50h-47q3 52 24.5 85t55.5 33q30 0 68 -25t56 -25q30 0 36 50h46z" />
    <glyph glyph-name="Ograve" unicode="&#xd2;" horiz-adv-x="591" 
d="M551 355q0 -169 -68.5 -271t-186.5 -102t-186.5 102t-68.5 271t68 270t187 101q118 0 186.5 -101.5t68.5 -269.5zM427 355q0 113 -34.5 185.5t-96.5 72.5q-64 0 -97.5 -72t-33.5 -186t34 -186.5t97 -72.5t97 72.5t34 186.5zM355 764h-85l-109 144h104z" />
    <glyph glyph-name="Oacute" unicode="&#xd3;" horiz-adv-x="591" 
d="M551 355q0 -169 -68.5 -271t-186.5 -102t-186.5 102t-68.5 271t68 270t187 101q118 0 186.5 -101.5t68.5 -269.5zM427 355q0 113 -34.5 185.5t-96.5 72.5q-64 0 -97.5 -72t-33.5 -186t34 -186.5t97 -72.5t97 72.5t34 186.5zM437 908l-109 -144h-85l90 144h104z" />
    <glyph glyph-name="Ocircumflex" unicode="&#xd4;" horiz-adv-x="591" 
d="M551 355q0 -169 -68.5 -271t-186.5 -102t-186.5 102t-68.5 271t68 270t187 101q118 0 186.5 -101.5t68.5 -269.5zM427 355q0 113 -34.5 185.5t-96.5 72.5q-64 0 -97.5 -72t-33.5 -186t34 -186.5t97 -72.5t97 72.5t34 186.5zM454 764h-90l-69 93l-68 -93h-89l110 144h97z
" />
    <glyph glyph-name="Otilde" unicode="&#xd5;" horiz-adv-x="591" 
d="M551 355q0 -169 -68.5 -271t-186.5 -102t-186.5 102t-68.5 271t68 270t187 101q118 0 186.5 -101.5t68.5 -269.5zM427 355q0 113 -34.5 185.5t-96.5 72.5q-64 0 -97.5 -72t-33.5 -186t34 -186.5t97 -72.5t97 72.5t34 186.5zM439 894q-3 -58 -24 -88t-56 -30q-30 0 -67 25
t-55 25q-31 0 -37 -50h-47q3 52 24.5 85t55.5 33q31 0 68 -25t56 -25q30 0 36 50h46z" />
    <glyph glyph-name="Odieresis" unicode="&#xd6;" horiz-adv-x="591" 
d="M551 355q0 -169 -68.5 -271t-186.5 -102t-186.5 102t-68.5 271t68 270t187 101q118 0 186.5 -101.5t68.5 -269.5zM427 355q0 113 -34.5 185.5t-96.5 72.5q-64 0 -97.5 -72t-33.5 -186t34 -186.5t97 -72.5t97 72.5t34 186.5zM434 846q0 -28 -17.5 -47t-42.5 -19
q-26 0 -42.5 19t-16.5 47q0 27 16.5 46t42.5 19q25 0 42.5 -19t17.5 -46zM277 846q0 -28 -17.5 -47t-42.5 -19t-42 19t-17 47q0 27 17 46t42 19q26 0 43 -19t17 -46z" />
    <glyph glyph-name="multiply" unicode="&#xd7;" horiz-adv-x="666" 
d="M150 557l183 -183l182 182l70 -70l-181 -181l185 -186l-74 -74l-183 181l-181 -181l-74 73l185 182l-184 186z" />
    <glyph glyph-name="Oslash" unicode="&#xd8;" horiz-adv-x="593" 
d="M523 737l-49 -101q77 -102 77 -281q0 -169 -68.5 -271t-186.5 -102q-82 0 -141 51l-40 -84l-59 27l54 107q-69 100 -69 272q0 169 68 270t187 101q74 0 131 -43l38 80zM431 355q0 97 -24 163l-196 -382q34 -47 85 -47q65 0 100 74.5t35 191.5zM161 355q0 -88 19 -151
l191 379q-32 37 -75 37q-66 0 -100.5 -74t-34.5 -191z" />
    <glyph glyph-name="Ugrave" unicode="&#xd9;" horiz-adv-x="567" 
d="M506 251q0 -121 -54 -195t-170 -74q-115 0 -168 73.5t-53 195.5v457h120v-446q0 -167 103 -167t103 167v446h119v-457zM337 764h-85l-109 144h104z" />
    <glyph glyph-name="Uacute" unicode="&#xda;" horiz-adv-x="567" 
d="M506 251q0 -121 -54 -195t-170 -74q-115 0 -168 73.5t-53 195.5v457h120v-446q0 -167 103 -167t103 167v446h119v-457zM428 908l-109 -144h-85l90 144h104z" />
    <glyph glyph-name="Ucircumflex" unicode="&#xdb;" horiz-adv-x="567" 
d="M506 251q0 -121 -54 -195t-170 -74q-115 0 -168 73.5t-53 195.5v457h120v-446q0 -167 103 -167t103 167v446h119v-457zM442 764h-90l-69 93l-68 -93h-89l110 144h97z" />
    <glyph glyph-name="Udieresis" unicode="&#xdc;" horiz-adv-x="567" 
d="M506 251q0 -121 -54 -195t-170 -74q-115 0 -168 73.5t-53 195.5v457h120v-446q0 -167 103 -167t103 167v446h119v-457zM423 846q0 -28 -17.5 -47t-42.5 -19q-26 0 -42.5 19t-16.5 47q0 27 16.5 46t42.5 19q25 0 42.5 -19t17.5 -46zM266 846q0 -28 -17.5 -47t-42.5 -19
t-42 19t-17 47q0 27 17 46t42 19q26 0 43 -19t17 -46z" />
    <glyph glyph-name="Yacute" unicode="&#xdd;" horiz-adv-x="462" 
d="M468 708l-179 -437v-271h-118v271l-177 437h130l106 -316l3 2l108 314h127zM374 908l-109 -144h-85l90 144h104z" />
    <glyph glyph-name="Thorn" unicode="&#xde;" horiz-adv-x="514" 
d="M72 0v708h118v-134h75q215 0 215 -205q0 -110 -61.5 -160t-160.5 -50h-68v-159h-118zM190 258h51q123 0 123 111q0 105 -120 105h-54v-216z" />
    <glyph glyph-name="germandbls" unicode="&#xdf;" horiz-adv-x="491" 
d="M329 420v-1q57 -11 93.5 -63t36.5 -138q0 -101 -45 -164t-140 -63q-26 0 -56 7v93q16 -4 34 -4q51 0 75.5 37.5t24.5 99.5q0 67 -29.5 105t-81.5 38h-16v93h16q38 0 63 31t25 81q0 42 -18 71t-55 29q-81 0 -81 -154v-518h-111v516q0 115 46.5 183.5t147.5 68.5
q84 0 129 -52.5t45 -136.5q0 -62 -30 -104.5t-73 -54.5z" />
    <glyph glyph-name="agrave" unicode="&#xe0;" horiz-adv-x="435" 
d="M269 575h-85l-109 144h104zM275 210v29h-33q-108 0 -108 -89q0 -38 16.5 -58t41.5 -20q42 0 62.5 42t20.5 96zM281 76h-2q-23 -89 -117 -89q-51 0 -90 38t-39 116q0 42 13 74t33.5 51t49 31.5t56.5 17t59 4.5h28v16q0 96 -75 96q-56 0 -93 -49l-54 71q27 34 70 54t86 20
q91 0 130 -56.5t39 -167.5v-303h-94v76z" />
    <glyph glyph-name="aacute" unicode="&#xe1;" horiz-adv-x="435" 
d="M347 719l-109 -144h-85l90 144h104zM275 210v29h-33q-108 0 -108 -89q0 -38 16.5 -58t41.5 -20q42 0 62.5 42t20.5 96zM281 76h-2q-23 -89 -117 -89q-51 0 -90 38t-39 116q0 42 13 74t33.5 51t49 31.5t56.5 17t59 4.5h28v16q0 96 -75 96q-56 0 -93 -49l-54 71
q27 34 70 54t86 20q91 0 130 -56.5t39 -167.5v-303h-94v76z" />
    <glyph glyph-name="acircumflex" unicode="&#xe2;" horiz-adv-x="435" 
d="M371 575h-90l-69 93l-68 -93h-89l110 144h97zM275 210v29h-33q-108 0 -108 -89q0 -38 16.5 -58t41.5 -20q42 0 62.5 42t20.5 96zM281 76h-2q-23 -89 -117 -89q-51 0 -90 38t-39 116q0 42 13 74t33.5 51t49 31.5t56.5 17t59 4.5h28v16q0 96 -75 96q-56 0 -93 -49l-54 71
q27 34 70 54t86 20q91 0 130 -56.5t39 -167.5v-303h-94v76z" />
    <glyph glyph-name="atilde" unicode="&#xe3;" horiz-adv-x="435" 
d="M357 705q-3 -58 -24 -88t-56 -30q-30 0 -67 25t-55 25q-31 0 -37 -50h-47q3 52 24.5 85t55.5 33q31 0 68 -25t56 -25q30 0 36 50h46zM275 210v29h-33q-108 0 -108 -89q0 -38 16.5 -58t41.5 -20q42 0 62.5 42t20.5 96zM281 76h-2q-23 -89 -117 -89q-51 0 -90 38t-39 116
q0 42 13 74t33.5 51t49 31.5t56.5 17t59 4.5h28v16q0 96 -75 96q-56 0 -93 -49l-54 71q27 34 70 54t86 20q91 0 130 -56.5t39 -167.5v-303h-94v76z" />
    <glyph glyph-name="adieresis" unicode="&#xe4;" horiz-adv-x="435" 
d="M275 210v29h-33q-108 0 -108 -89q0 -38 16.5 -58t41.5 -20q42 0 62.5 42t20.5 96zM281 76h-2q-23 -89 -117 -89q-51 0 -90 38t-39 116q0 42 13 74t33.5 51t49 31.5t56.5 17t59 4.5h28v16q0 96 -75 96q-56 0 -93 -49l-54 71q27 34 70 54t86 20q91 0 130 -56.5t39 -167.5
v-303h-94v76zM195 657q0 -28 -17.5 -47t-42.5 -19t-42 19t-17 47q0 27 17 46t42 19q26 0 43 -19t17 -46zM352 657q0 -28 -17.5 -47t-42.5 -19q-26 0 -42.5 19t-16.5 47q0 27 16.5 46t42.5 19q25 0 42.5 -19t17.5 -46z" />
    <glyph glyph-name="aring" unicode="&#xe5;" horiz-adv-x="435" 
d="M312 664q0 -45 -27.5 -75.5t-70.5 -30.5t-70 30t-27 76t27 76t70 30t70.5 -30.5t27.5 -75.5zM269 664q0 28 -15 47t-40 19t-39.5 -19t-14.5 -47t14.5 -47t39.5 -19t40 19t15 47zM275 210v29h-33q-108 0 -108 -89q0 -38 16.5 -58t41.5 -20q42 0 62.5 42t20.5 96zM281 76
h-2q-23 -89 -117 -89q-51 0 -90 38t-39 116q0 42 13 74t33.5 51t49 31.5t56.5 17t59 4.5h28v16q0 96 -75 96q-56 0 -93 -49l-54 71q27 34 70 54t86 20q91 0 130 -56.5t39 -167.5v-303h-94v76z" />
    <glyph glyph-name="ae" unicode="&#xe6;" horiz-adv-x="680" 
d="M460 527q93 0 137 -70.5t44 -187.5v-43h-265q1 -63 24.5 -104t65.5 -41q51 0 79 66l83 -48q-48 -116 -166 -116q-53 0 -90 30t-54 85q-27 -115 -148 -115q-54 0 -95.5 37t-41.5 115q0 40 13 71t33.5 50t49 31t56.5 16.5t59 4.5h28v18q0 50 -20.5 78t-54.5 28
q-56 0 -93 -49l-54 71q27 34 70 53.5t86 19.5q54 0 86.5 -26t41.5 -71q14 42 46.5 69.5t79.5 27.5zM533 308q0 59 -18.5 93.5t-55.5 34.5q-39 0 -60 -41t-22 -87h156zM275 200v26h-33q-108 0 -108 -85q0 -69 58 -69q42 0 62.5 38t20.5 90z" />
    <glyph glyph-name="ccedilla" unicode="&#xe7;" horiz-adv-x="351" 
d="M348 30q-33 -35 -86 -44l-35 -53q12 3 27 3q33 0 57.5 -18.5t24.5 -57.5q0 -49 -37.5 -70.5t-85.5 -21.5q-59 0 -99 20l20 50q34 -16 72 -16q20 0 36 9t16 29q0 32 -45 32q-23 0 -42 -8l-24 22l51 80q-78 12 -119 84.5t-41 185.5q0 123 50.5 197t141.5 74q72 0 117 -45
l-51 -85q-26 28 -61 28q-41 0 -63 -46t-22 -123q0 -78 22.5 -123t66.5 -45q38 0 62 30z" />
    <glyph glyph-name="egrave" unicode="&#xe8;" horiz-adv-x="448" 
d="M287 575h-85l-109 144h104zM414 226h-265q1 -63 24.5 -104t65.5 -41q51 0 79 66l83 -48q-48 -116 -166 -116q-90 0 -143.5 71.5t-53.5 199.5q0 123 54 198t141 75q93 0 137 -70.5t44 -187.5v-43zM306 308q0 59 -18.5 93.5t-55.5 34.5q-39 0 -60 -41t-22 -87h156z" />
    <glyph glyph-name="eacute" unicode="&#xe9;" horiz-adv-x="448" 
d="M366 719l-109 -144h-85l90 144h104zM414 226h-265q1 -63 24.5 -104t65.5 -41q51 0 79 66l83 -48q-48 -116 -166 -116q-90 0 -143.5 71.5t-53.5 199.5q0 123 54 198t141 75q93 0 137 -70.5t44 -187.5v-43zM306 308q0 59 -18.5 93.5t-55.5 34.5q-39 0 -60 -41t-22 -87h156z
" />
    <glyph glyph-name="ecircumflex" unicode="&#xea;" horiz-adv-x="448" 
d="M394 575h-90l-69 93l-68 -93h-89l110 144h97zM414 226h-265q1 -63 24.5 -104t65.5 -41q51 0 79 66l83 -48q-48 -116 -166 -116q-90 0 -143.5 71.5t-53.5 199.5q0 123 54 198t141 75q93 0 137 -70.5t44 -187.5v-43zM306 308q0 59 -18.5 93.5t-55.5 34.5q-39 0 -60 -41
t-22 -87h156z" />
    <glyph glyph-name="edieresis" unicode="&#xeb;" horiz-adv-x="448" 
d="M414 226h-265q1 -63 24.5 -104t65.5 -41q51 0 79 66l83 -48q-48 -116 -166 -116q-90 0 -143.5 71.5t-53.5 199.5q0 123 54 198t141 75q93 0 137 -70.5t44 -187.5v-43zM306 308q0 59 -18.5 93.5t-55.5 34.5q-39 0 -60 -41t-22 -87h156zM218 657q0 -28 -17.5 -47t-42.5 -19
t-42 19t-17 47q0 27 17 46t42 19q26 0 43 -19t17 -46zM375 657q0 -28 -17.5 -47t-42.5 -19q-26 0 -42.5 19t-16.5 47q0 27 16.5 46t42.5 19q25 0 42.5 -19t17.5 -46z" />
    <glyph glyph-name="igrave" unicode="&#xec;" horiz-adv-x="250" 
d="M180 575h-85l-109 144h104zM181 0h-113v510h113v-510z" />
    <glyph glyph-name="iacute" unicode="&#xed;" horiz-adv-x="250" 
d="M263 719l-109 -144h-85l90 144h104zM181 0h-113v510h113v-510z" />
    <glyph glyph-name="icircumflex" unicode="&#xee;" horiz-adv-x="250" 
d="M284 575h-90l-69 93l-68 -93h-89l110 144h97zM181 0h-113v510h113v-510z" />
    <glyph glyph-name="idieresis" unicode="&#xef;" horiz-adv-x="250" 
d="M106 657q0 -28 -17.5 -47t-42.5 -19t-42 19t-17 47q0 27 17 46t42 19q26 0 43 -19t17 -46zM263 657q0 -28 -17.5 -47t-42.5 -19q-26 0 -42.5 19t-16.5 47q0 27 16.5 46t42.5 19q25 0 42.5 -19t17.5 -46zM181 0h-113v510h113v-510z" />
    <glyph glyph-name="eth" unicode="&#xf0;" horiz-adv-x="468" 
d="M428 254q0 -123 -54.5 -197.5t-140.5 -74.5q-88 0 -142 74t-54 199q0 116 51.5 188.5t134.5 72.5q32 0 54 -19l3 1q-33 72 -79 125l-98 -53l-47 51l100 52q-24 27 -78 67l93 44q55 -48 77 -73l89 47l52 -49l-101 -51q58 -74 99 -181.5t41 -222.5zM320 255q0 75 -22.5 123
t-64.5 48t-63.5 -47.5t-21.5 -123.5q0 -75 21.5 -122.5t63.5 -47.5t64.5 47.5t22.5 122.5z" />
    <glyph glyph-name="ntilde" unicode="&#xf1;" horiz-adv-x="505" 
d="M397 705q-3 -58 -24 -88t-56 -30q-30 0 -67 25t-55 25q-31 0 -37 -50h-47q3 52 24.5 85t55.5 33q31 0 68 -25q38 -25 56 -25q30 0 36 50h46zM70 510h111v-81h2q14 43 48 70.5t79 27.5q40 0 67 -17t40.5 -48t18.5 -64.5t5 -77.5v-320h-113v320q0 109 -62 109
q-37 0 -60 -38t-23 -96v-295h-113v510z" />
    <glyph glyph-name="ograve" unicode="&#xf2;" horiz-adv-x="468" 
d="M286 575h-85l-109 144h104zM430 254q0 -122 -53 -196.5t-143 -74.5t-143 74.5t-53 196.5q0 124 52.5 198.5t143.5 74.5t143.5 -74.5t52.5 -198.5zM318 255q0 78 -21 126t-63 48t-62.5 -48t-20.5 -126q0 -77 20.5 -125t62.5 -48t63 48t21 125z" />
    <glyph glyph-name="oacute" unicode="&#xf3;" horiz-adv-x="468" 
d="M384 719l-109 -144h-85l90 144h104zM430 254q0 -122 -53 -196.5t-143 -74.5t-143 74.5t-53 196.5q0 124 52.5 198.5t143.5 74.5t143.5 -74.5t52.5 -198.5zM318 255q0 78 -21 126t-63 48t-62.5 -48t-20.5 -126q0 -77 20.5 -125t62.5 -48t63 48t21 125z" />
    <glyph glyph-name="ocircumflex" unicode="&#xf4;" horiz-adv-x="468" 
d="M391 575h-90l-69 93l-68 -93h-89l110 144h97zM430 254q0 -122 -53 -196.5t-143 -74.5t-143 74.5t-53 196.5q0 124 52.5 198.5t143.5 74.5t143.5 -74.5t52.5 -198.5zM318 255q0 78 -21 126t-63 48t-62.5 -48t-20.5 -126q0 -77 20.5 -125t62.5 -48t63 48t21 125z" />
    <glyph glyph-name="otilde" unicode="&#xf5;" horiz-adv-x="468" 
d="M376 705q-3 -58 -24 -88t-56 -30q-30 0 -67 25t-55 25q-31 0 -37 -50h-47q3 52 24.5 85t55.5 33q30 0 68 -25t56 -25q30 0 36 50h46zM430 254q0 -122 -53 -196.5t-143 -74.5t-143 74.5t-53 196.5q0 124 52.5 198.5t143.5 74.5t143.5 -74.5t52.5 -198.5zM318 255
q0 78 -21 126t-63 48t-62.5 -48t-20.5 -126q0 -77 20.5 -125t62.5 -48t63 48t21 125z" />
    <glyph glyph-name="odieresis" unicode="&#xf6;" horiz-adv-x="468" 
d="M430 254q0 -122 -53 -196.5t-143 -74.5t-143 74.5t-53 196.5q0 124 52.5 198.5t143.5 74.5t143.5 -74.5t52.5 -198.5zM318 255q0 78 -21 126t-63 48t-62.5 -48t-20.5 -126q0 -77 20.5 -125t62.5 -48t63 48t21 125zM214 657q0 -28 -17.5 -47t-42.5 -19t-42 19t-17 47
q0 27 17 46t42 19q26 0 43 -19t17 -46zM371 657q0 -28 -17.5 -47t-42.5 -19q-26 0 -42.5 19t-16.5 47q0 27 16.5 46t42.5 19q25 0 42.5 -19t17.5 -46z" />
    <glyph glyph-name="divide" unicode="&#xf7;" horiz-adv-x="666" 
d="M258 483q0 31 22 53t53 22t53 -22t22 -53t-22 -53t-53 -22t-53 22t-22 53zM258 123q0 31 22 53t53 22t53 -22t22 -53t-22 -53t-53 -22t-53 22t-22 53zM586 250h-506v107h506v-107z" />
    <glyph glyph-name="oslash" unicode="&#xf8;" horiz-adv-x="471" 
d="M412 537l-39 -78q57 -76 57 -205q0 -122 -53 -196.5t-143 -74.5q-53 0 -95 28l-27 -57l-51 23l36 72q-59 75 -59 205q0 124 52.5 198.5t143.5 74.5q55 0 98 -31l30 64zM144 255q0 -59 12 -103l129 260q-20 26 -51 26q-45 0 -67.5 -50.5t-22.5 -132.5zM325 255
q0 53 -12 99l-129 -259q20 -22 50 -22q46 0 68.5 50t22.5 132z" />
    <glyph glyph-name="ugrave" unicode="&#xf9;" horiz-adv-x="505" 
d="M305 575h-85l-109 144h104zM435 0h-111v81h-2q-14 -43 -48 -70.5t-79 -27.5q-40 0 -67 17t-40.5 48t-18.5 64.5t-5 77.5v320h113v-320q0 -108 62 -108q37 0 60 37.5t23 95.5v295h113v-510z" />
    <glyph glyph-name="uacute" unicode="&#xfa;" horiz-adv-x="505" 
d="M393 719l-109 -144h-85l90 144h104zM435 0h-111v81h-2q-14 -43 -48 -70.5t-79 -27.5q-40 0 -67 17t-40.5 48t-18.5 64.5t-5 77.5v320h113v-320q0 -108 62 -108q37 0 60 37.5t23 95.5v295h113v-510z" />
    <glyph glyph-name="ucircumflex" unicode="&#xfb;" horiz-adv-x="505" 
d="M409 575h-90l-69 93l-68 -93h-89l110 144h97zM435 0h-111v81h-2q-14 -43 -48 -70.5t-79 -27.5q-40 0 -67 17t-40.5 48t-18.5 64.5t-5 77.5v320h113v-320q0 -108 62 -108q37 0 60 37.5t23 95.5v295h113v-510z" />
    <glyph glyph-name="udieresis" unicode="&#xfc;" horiz-adv-x="505" 
d="M232 657q0 -28 -17.5 -47t-42.5 -19t-42 19t-17 47q0 27 17 46t42 19q26 0 43 -19t17 -46zM389 657q0 -28 -17.5 -47t-42.5 -19q-26 0 -42.5 19t-16.5 47q0 27 16.5 46t42.5 19q25 0 42.5 -19t17.5 -46zM435 0h-111v81h-2q-14 -43 -48 -70.5t-79 -27.5q-40 0 -67 17
t-40.5 48t-18.5 64.5t-5 77.5v320h113v-320q0 -108 62 -108q37 0 60 37.5t23 95.5v295h113v-510z" />
    <glyph glyph-name="yacute" unicode="&#xfd;" horiz-adv-x="427" 
d="M353 719l-109 -144h-85l90 144h104zM417 510l-153 -580q-21 -83 -59.5 -126.5t-109.5 -43.5q-40 0 -69 9l14 102q22 -8 42 -8q48 0 62 62l15 63l-149 522h119l89 -384h3l81 384h115z" />
    <glyph glyph-name="thorn" unicode="&#xfe;" horiz-adv-x="496" 
d="M458 256q0 -121 -43.5 -197t-121.5 -76q-42 0 -71.5 23.5t-40.5 60.5h-2v-307h-111v996h109v-318h2q30 89 114 89q77 0 121 -75.5t44 -195.5zM345 256q0 77 -21 125t-63 48q-41 0 -63 -48.5t-22 -124.5t22 -125t63 -49q42 0 63 48t21 126z" />
    <glyph glyph-name="ydieresis" unicode="&#xff;" horiz-adv-x="427" 
d="M200 657q0 -28 -17.5 -47t-42.5 -19t-42 19t-17 47q0 27 17 46t42 19q26 0 43 -19t17 -46zM357 657q0 -28 -17.5 -47t-42.5 -19q-26 0 -42.5 19t-16.5 47q0 27 16.5 46t42.5 19q25 0 42.5 -19t17.5 -46zM417 510l-153 -580q-21 -83 -59.5 -126.5t-109.5 -43.5
q-40 0 -69 9l14 102q22 -8 42 -8q48 0 62 62l15 63l-149 522h119l89 -384h3l81 384h115z" />
    <glyph glyph-name="Amacron" unicode="&#x100;" horiz-adv-x="506" 
d="M504 0h-125l-35 150h-186l-36 -150h-120l176 708h153zM329 244l-75 351h-4l-77 -351h156zM389 802h-274v66h274v-66z" />
    <glyph glyph-name="amacron" unicode="&#x101;" horiz-adv-x="435" 
d="M352 613h-274v66h274v-66zM275 210v29h-33q-108 0 -108 -89q0 -38 16.5 -58t41.5 -20q42 0 62.5 42t20.5 96zM281 76h-2q-23 -89 -117 -89q-51 0 -90 38t-39 116q0 42 13 74t33.5 51t49 31.5t56.5 17t59 4.5h28v16q0 96 -75 96q-56 0 -93 -49l-54 71q27 34 70 54t86 20
q91 0 130 -56.5t39 -167.5v-303h-94v76z" />
    <glyph glyph-name="Abreve" unicode="&#x102;" horiz-adv-x="506" 
d="M504 0h-125l-35 150h-186l-36 -150h-120l176 708h153zM329 244l-75 351h-4l-77 -351h156zM394 902q-7 -70 -45.5 -103t-96.5 -33q-57 0 -95.5 33t-44.5 103h66q4 -33 25.5 -49.5t48.5 -16.5q65 0 76 66h66z" />
    <glyph glyph-name="abreve" unicode="&#x103;" horiz-adv-x="435" 
d="M356 713q-7 -70 -45.5 -103t-96.5 -33q-57 0 -95.5 33t-44.5 103h66q4 -33 27 -51q21 -15 47 -15q65 0 76 66h66zM275 210v29h-33q-108 0 -108 -89q0 -38 16.5 -58t41.5 -20q42 0 62.5 42t20.5 96zM281 76h-2q-23 -89 -117 -89q-51 0 -90 38t-39 116q0 42 13 74t33.5 51
t49 31.5t56.5 17t59 4.5h28v16q0 96 -75 96q-56 0 -93 -49l-54 71q27 34 70 54t86 20q91 0 130 -56.5t39 -167.5v-303h-94v76z" />
    <glyph glyph-name="Aogonek" unicode="&#x104;" horiz-adv-x="506" 
d="M460 -138l25 -52q-45 -38 -97 -38q-40 0 -68 21.5t-28 64.5q0 65 92 142h-5l-35 150h-186l-36 -150h-120l176 708h153l173 -708h-47q-46 -43 -65 -69t-19 -51q0 -18 10 -28.5t26 -10.5q29 0 51 21zM329 244l-75 351h-4l-77 -351h156z" />
    <glyph glyph-name="aogonek" unicode="&#x105;" horiz-adv-x="435" 
d="M281 76h-2q-23 -89 -117 -89q-51 0 -90 38t-39 116q0 42 13 74t33.5 51t49 31.5t56.5 17t59 4.5h28v16q0 96 -75 96q-56 0 -93 -49l-54 71q27 34 70 54t86 20q91 0 130 -56.5t39 -167.5v-303h-16q-46 -43 -65 -69t-19 -51q0 -18 10 -28.5t26 -10.5q29 0 51 21l25 -52
q-45 -38 -97 -38q-40 0 -68 21.5t-28 64.5q0 65 92 142h-5v76zM275 210v29h-33q-108 0 -108 -89q0 -38 16.5 -58t41.5 -20q42 0 62.5 42t20.5 96z" />
    <glyph glyph-name="Cacute" unicode="&#x106;" horiz-adv-x="496" 
d="M483 76q-63 -94 -181 -94t-189.5 104t-71.5 268t72 268t189 104q122 0 182 -87l-69 -84q-41 59 -106 59q-69 0 -106.5 -73.5t-37.5 -186.5q0 -112 38 -185.5t108 -73.5q63 0 103 62zM426 908l-109 -144h-85l90 144h104z" />
    <glyph glyph-name="cacute" unicode="&#x107;" horiz-adv-x="351" 
d="M354 719l-109 -144h-85l90 144h104zM348 30q-45 -47 -119 -47q-92 0 -141.5 74.5t-49.5 198.5q0 123 50.5 197t141.5 74q72 0 117 -45l-51 -85q-26 28 -61 28q-41 0 -63 -46t-22 -123q0 -78 22.5 -123t66.5 -45q38 0 62 30z" />
    <glyph glyph-name="Ccircumflex" unicode="&#x108;" horiz-adv-x="496" 
d="M483 76q-63 -94 -181 -94t-189.5 104t-71.5 268t72 268t189 104q122 0 182 -87l-69 -84q-41 59 -106 59q-69 0 -106.5 -73.5t-37.5 -186.5q0 -112 38 -185.5t108 -73.5q63 0 103 62zM467 764h-90l-69 93l-68 -93h-89l110 144h97z" />
    <glyph glyph-name="ccircumflex" unicode="&#x109;" horiz-adv-x="351" 
d="M389 575h-90l-69 93l-68 -93h-89l110 144h97zM348 30q-45 -47 -119 -47q-92 0 -141.5 74.5t-49.5 198.5q0 123 50.5 197t141.5 74q72 0 117 -45l-51 -85q-26 28 -61 28q-41 0 -63 -46t-22 -123q0 -78 22.5 -123t66.5 -45q38 0 62 30z" />
    <glyph glyph-name="Cdotaccent" unicode="&#x10a;" horiz-adv-x="496" 
d="M483 76q-63 -94 -181 -94t-189.5 104t-71.5 268t72 268t189 104q122 0 182 -87l-69 -84q-41 59 -106 59q-69 0 -106.5 -73.5t-37.5 -186.5q0 -112 38 -185.5t108 -73.5q63 0 103 62zM374 845q0 -30 -19.5 -50.5t-47.5 -20.5q-30 0 -48.5 20.5t-18.5 50.5q0 31 19 52
t48 21t48 -21.5t19 -51.5z" />
    <glyph glyph-name="cdotaccent" unicode="&#x10b;" horiz-adv-x="351" 
d="M296 656q0 -30 -19.5 -50.5t-47.5 -20.5q-30 0 -48.5 20.5t-18.5 50.5q0 31 19 52t48 21t48 -21.5t19 -51.5zM348 30q-45 -47 -119 -47q-92 0 -141.5 74.5t-49.5 198.5q0 123 50.5 197t141.5 74q72 0 117 -45l-51 -85q-26 28 -61 28q-41 0 -63 -46t-22 -123
q0 -78 22.5 -123t66.5 -45q38 0 62 30z" />
    <glyph glyph-name="Ccaron" unicode="&#x10c;" horiz-adv-x="496" 
d="M483 76q-63 -94 -181 -94t-189.5 104t-71.5 268t72 268t189 104q122 0 182 -87l-69 -84q-41 59 -106 59q-69 0 -106.5 -73.5t-37.5 -186.5q0 -112 38 -185.5t108 -73.5q63 0 103 62zM466 907l-110 -144h-97l-109 144h89l69 -94l69 94h89z" />
    <glyph glyph-name="ccaron" unicode="&#x10d;" horiz-adv-x="351" 
d="M387 718l-110 -144h-97l-109 144h89l69 -94l69 94h89zM348 30q-45 -47 -119 -47q-92 0 -141.5 74.5t-49.5 198.5q0 123 50.5 197t141.5 74q72 0 117 -45l-51 -85q-26 28 -61 28q-41 0 -63 -46t-22 -123q0 -78 22.5 -123t66.5 -45q38 0 62 30z" />
    <glyph glyph-name="Dcaron" unicode="&#x10e;" horiz-adv-x="569" 
d="M527 353q0 -169 -71.5 -261t-206.5 -92h-177v708h178q135 0 206 -92.5t71 -262.5zM407 353q0 122 -43 186t-114 64h-57v-498h57q71 0 114 64t43 184zM414 907l-110 -144h-97l-109 144h89l69 -94l69 94h89z" />
    <glyph glyph-name="dcaron" unicode="&#x10f;" horiz-adv-x="575" 
d="M428 0h-109v73h-2q-27 -90 -114 -90q-77 0 -121 78t-44 199q0 119 43 193t122 74q41 0 70.5 -23t40.5 -59h3v311h111v-756zM321 255q0 77 -22.5 125.5t-63.5 48.5q-42 0 -63 -48t-21 -126q0 -77 21 -125t63 -48t64 48.5t22 124.5zM601 708l-57 -187h-81l47 187h91z" />
    <glyph glyph-name="Dcroat" unicode="&#x110;" horiz-adv-x="569" 
d="M72 403v305h178q135 0 206 -92.5t71 -262.5q0 -169 -71.5 -261t-206.5 -92h-177v323h-56v80h56zM193 323v-218h57q71 0 114 64t43 184q0 122 -43 186t-114 64h-57v-200h114v-80h-114z" />
    <glyph glyph-name="dcroat" unicode="&#x111;" horiz-adv-x="496" 
d="M428 0h-109v73h-2q-27 -90 -114 -90q-77 0 -121 78t-44 199q0 119 43 193t122 74q41 0 70.5 -23t40.5 -59h3v140h-126v66h126v105h111v-105h37v-66h-37v-585zM321 255q0 77 -22.5 125.5t-63.5 48.5q-42 0 -63 -48t-21 -126q0 -77 21 -125t63 -48t64 48.5t22 124.5z" />
    <glyph glyph-name="Emacron" unicode="&#x112;" horiz-adv-x="436" 
d="M399 0h-327v708h317v-106h-202v-188h187v-98h-187v-209h212v-107zM366 802h-274v66h274v-66z" />
    <glyph glyph-name="emacron" unicode="&#x113;" horiz-adv-x="448" 
d="M375 613h-274v66h274v-66zM414 226h-265q1 -63 24.5 -104t65.5 -41q51 0 79 66l83 -48q-48 -116 -166 -116q-90 0 -143.5 71.5t-53.5 199.5q0 123 54 198t141 75q93 0 137 -70.5t44 -187.5v-43zM306 308q0 59 -18.5 93.5t-55.5 34.5q-39 0 -60 -41t-22 -87h156z" />
    <glyph glyph-name="Ebreve" unicode="&#x114;" horiz-adv-x="436" 
d="M399 0h-327v708h317v-106h-202v-188h187v-98h-187v-209h212v-107zM373 902q-7 -70 -45.5 -103t-96.5 -33q-57 0 -95.5 33t-44.5 103h66q4 -33 25.5 -49.5t48.5 -16.5q65 0 76 66h66z" />
    <glyph glyph-name="ebreve" unicode="&#x115;" horiz-adv-x="448" 
d="M378 713q-7 -70 -45.5 -103t-96.5 -33q-57 0 -95.5 33t-44.5 103h66q4 -33 27 -51q21 -15 47 -15q65 0 76 66h66zM414 226h-265q1 -63 24.5 -104t65.5 -41q51 0 79 66l83 -48q-48 -116 -166 -116q-90 0 -143.5 71.5t-53.5 199.5q0 123 54 198t141 75q93 0 137 -70.5
t44 -187.5v-43zM306 308q0 59 -18.5 93.5t-55.5 34.5q-39 0 -60 -41t-22 -87h156z" />
    <glyph glyph-name="Edotaccent" unicode="&#x116;" horiz-adv-x="436" 
d="M399 0h-327v708h317v-106h-202v-188h187v-98h-187v-209h212v-107zM301 845q0 -30 -19.5 -50.5t-47.5 -20.5q-30 0 -48.5 20.5t-18.5 50.5q0 31 19 52t48 21t48 -21.5t19 -51.5z" />
    <glyph glyph-name="edotaccent" unicode="&#x117;" horiz-adv-x="448" 
d="M302 656q0 -30 -19.5 -50.5t-47.5 -20.5q-30 0 -48.5 20.5t-18.5 50.5q0 31 19 52t48 21t48 -21.5t19 -51.5zM414 226h-265q1 -63 24.5 -104t65.5 -41q51 0 79 66l83 -48q-48 -116 -166 -116q-90 0 -143.5 71.5t-53.5 199.5q0 123 54 198t141 75q93 0 137 -70.5
t44 -187.5v-43zM306 308q0 59 -18.5 93.5t-55.5 34.5q-39 0 -60 -41t-22 -87h156z" />
    <glyph glyph-name="Eogonek" unicode="&#x118;" horiz-adv-x="436" 
d="M382 -138l25 -52q-45 -38 -97 -38q-40 0 -68 21.5t-28 64.5q0 65 92 142h-234v708h317v-106h-202v-188h187v-98h-187v-209h212v-107h-20q-46 -43 -65 -69t-19 -51q0 -18 10 -28.5t26 -10.5q29 0 51 21z" />
    <glyph glyph-name="eogonek" unicode="&#x119;" horiz-adv-x="448" 
d="M414 226h-265q1 -63 24.5 -104t65.5 -41q51 0 79 66l83 -48q-35 -85 -110 -108q-40 -38 -57 -63t-17 -48q0 -18 10 -28.5t26 -10.5q29 0 51 21l25 -52q-45 -38 -97 -38q-40 0 -68 21.5t-28 64.5q0 61 74 127q-79 10 -125.5 80t-46.5 189q0 123 54 198t141 75
q93 0 137 -70.5t44 -187.5v-43zM306 308q0 59 -18.5 93.5t-55.5 34.5q-39 0 -60 -41t-22 -87h156z" />
    <glyph glyph-name="Ecaron" unicode="&#x11a;" horiz-adv-x="436" 
d="M399 0h-327v708h317v-106h-202v-188h187v-98h-187v-209h212v-107zM390 907l-110 -144h-97l-109 144h89l69 -94l69 94h89z" />
    <glyph glyph-name="ecaron" unicode="&#x11b;" horiz-adv-x="448" 
d="M395 718l-110 -144h-97l-109 144h89l69 -94l69 94h89zM414 226h-265q1 -63 24.5 -104t65.5 -41q51 0 79 66l83 -48q-48 -116 -166 -116q-90 0 -143.5 71.5t-53.5 199.5q0 123 54 198t141 75q93 0 137 -70.5t44 -187.5v-43zM306 308q0 59 -18.5 93.5t-55.5 34.5
q-39 0 -60 -41t-22 -87h156z" />
    <glyph glyph-name="Gcircumflex" unicode="&#x11c;" horiz-adv-x="549" 
d="M493 43q-73 -58 -183 -58q-125 0 -197 101t-72 269q0 164 71 267.5t189 103.5q122 0 184 -86l-69 -84q-40 58 -108 58q-71 0 -108.5 -74t-37.5 -185q0 -115 37.5 -187.5t109.5 -72.5q48 0 75 20v183h-86v104h195v-359zM467 764h-90l-69 93l-68 -93h-89l110 144h97z" />
    <glyph glyph-name="gcircumflex" unicode="&#x11d;" horiz-adv-x="493" 
d="M407 575h-90l-69 93l-68 -93h-89l110 144h97zM426 14q0 -254 -206 -254q-52 0 -100.5 20.5t-79.5 54.5l61 81q51 -56 116 -56q99 0 99 146v62h-2q-12 -35 -42 -58t-70 -23q-79 0 -122 74t-43 194q0 121 43.5 196.5t121.5 75.5q85 0 113 -89h3v72h108v-496zM319 256
q0 76 -22 124.5t-63 48.5q-42 0 -63 -48t-21 -125q0 -78 21 -126t63 -48q41 0 63 49t22 125z" />
    <glyph glyph-name="Gbreve" unicode="&#x11e;" horiz-adv-x="549" 
d="M493 43q-73 -58 -183 -58q-125 0 -197 101t-72 269q0 164 71 267.5t189 103.5q122 0 184 -86l-69 -84q-40 58 -108 58q-71 0 -108.5 -74t-37.5 -185q0 -115 37.5 -187.5t109.5 -72.5q48 0 75 20v183h-86v104h195v-359zM450 902q-7 -70 -45.5 -103t-96.5 -33
q-57 0 -95.5 33t-44.5 103h66q4 -33 25.5 -49.5t48.5 -16.5q65 0 76 66h66z" />
    <glyph glyph-name="gbreve" unicode="&#x11f;" horiz-adv-x="493" 
d="M389 713q-7 -70 -45.5 -103t-96.5 -33q-57 0 -95.5 33t-44.5 103h66q4 -33 27 -51q21 -15 47 -15q65 0 76 66h66zM426 14q0 -254 -206 -254q-52 0 -100.5 20.5t-79.5 54.5l61 81q51 -56 116 -56q99 0 99 146v62h-2q-12 -35 -42 -58t-70 -23q-79 0 -122 74t-43 194
q0 121 43.5 196.5t121.5 75.5q85 0 113 -89h3v72h108v-496zM319 256q0 76 -22 124.5t-63 48.5q-42 0 -63 -48t-21 -125q0 -78 21 -126t63 -48q41 0 63 49t22 125z" />
    <glyph glyph-name="Gdotaccent" unicode="&#x120;" horiz-adv-x="549" 
d="M493 43q-73 -58 -183 -58q-125 0 -197 101t-72 269q0 164 71 267.5t189 103.5q122 0 184 -86l-69 -84q-40 58 -108 58q-71 0 -108.5 -74t-37.5 -185q0 -115 37.5 -187.5t109.5 -72.5q48 0 75 20v183h-86v104h195v-359zM371 845q0 -30 -19.5 -50.5t-47.5 -20.5
q-30 0 -48.5 20.5t-18.5 50.5q0 31 19 52t48 21t48 -21.5t19 -51.5z" />
    <glyph glyph-name="gdotaccent" unicode="&#x121;" horiz-adv-x="493" 
d="M323 656q0 -30 -19.5 -50.5t-47.5 -20.5q-30 0 -48.5 20.5t-18.5 50.5q0 31 19 52t48 21t48 -21.5t19 -51.5zM426 14q0 -254 -206 -254q-52 0 -100.5 20.5t-79.5 54.5l61 81q51 -56 116 -56q99 0 99 146v62h-2q-12 -35 -42 -58t-70 -23q-79 0 -122 74t-43 194
q0 121 43.5 196.5t121.5 75.5q85 0 113 -89h3v72h108v-496zM319 256q0 76 -22 124.5t-63 48.5q-42 0 -63 -48t-21 -125q0 -78 21 -126t63 -48q41 0 63 49t22 125z" />
    <glyph glyph-name="Gcommaaccent" unicode="&#x122;" horiz-adv-x="549" 
d="M493 43q-73 -58 -183 -58q-125 0 -197 101t-72 269q0 164 71 267.5t189 103.5q122 0 184 -86l-69 -84q-40 58 -108 58q-71 0 -108.5 -74t-37.5 -185q0 -115 37.5 -187.5t109.5 -72.5q48 0 75 20v183h-86v104h195v-359zM354 -45l-57 -187h-81l47 187h91z" />
    <glyph glyph-name="gcommaaccent" unicode="&#x123;" horiz-adv-x="493" 
d="M426 14q0 -254 -206 -254q-52 0 -100.5 20.5t-79.5 54.5l61 81q51 -56 116 -56q99 0 99 146v62h-2q-12 -35 -42 -58t-70 -23q-79 0 -122 74t-43 194q0 121 43.5 196.5t121.5 75.5q85 0 113 -89h3v72h108v-496zM319 256q0 76 -22 124.5t-63 48.5q-42 0 -63 -48t-21 -125
q0 -78 21 -126t63 -48q41 0 63 49t22 125zM196 575l57 187h81l-47 -187h-91z" />
    <glyph glyph-name="Hcircumflex" unicode="&#x124;" horiz-adv-x="594" 
d="M522 0h-119v314h-212v-314h-119v708h119v-287h212v287h119v-708zM456 764h-90l-69 93l-68 -93h-89l110 144h97z" />
    <glyph glyph-name="hcircumflex" unicode="&#x125;" horiz-adv-x="503" 
d="M410 796h-90l-69 93l-68 -93h-89l110 144h97zM439 0h-113v320q0 109 -62 109q-37 0 -60 -38t-23 -96v-295h-113v756h113v-325h2q14 42 46.5 69t77.5 27q40 0 67.5 -17t41 -48t18.5 -64.5t5 -77.5v-320z" />
    <glyph glyph-name="Hbar" unicode="&#x126;" horiz-adv-x="594" 
d="M522 0h-119v314h-212v-314h-119v708h119v-132h212v132h119v-708zM191 421h212v89h-212v-89z" />
    <glyph glyph-name="hbar" unicode="&#x127;" horiz-adv-x="503" 
d="M288 585h-107v-154h2q14 42 46.5 69t77.5 27q40 0 67.5 -17t41 -48t18.5 -64.5t5 -77.5v-320h-113v320q0 108 -62 108q-37 0 -60 -37.5t-23 -95.5v-295h-113v585h-54v66h54v105h113v-105h107v-66z" />
    <glyph glyph-name="Itilde" unicode="&#x128;" horiz-adv-x="264" 
d="M192 0h-120v708h120v-708zM276 894q-3 -58 -24 -88t-56 -30q-30 0 -67 25t-55 25q-31 0 -37 -50h-47q3 52 24.5 85t55.5 33q30 0 68 -25t56 -25q30 0 36 50h46z" />
    <glyph glyph-name="itilde" unicode="&#x129;" horiz-adv-x="250" 
d="M268 705q-3 -58 -24 -88t-56 -30q-30 0 -67 25t-55 25q-31 0 -37 -50h-47q3 52 24.5 85t55.5 33q31 0 68 -25q38 -25 56 -25q30 0 36 50h46zM181 0h-113v510h113v-510z" />
    <glyph glyph-name="Imacron" unicode="&#x12a;" horiz-adv-x="264" 
d="M192 0h-120v708h120v-708zM268 802h-274v66h274v-66z" />
    <glyph glyph-name="imacron" unicode="&#x12b;" horiz-adv-x="250" 
d="M262 613h-274v66h274v-66zM181 0h-113v510h113v-510z" />
    <glyph glyph-name="Iogonek" unicode="&#x12e;" horiz-adv-x="264" 
d="M188 -138l25 -52q-45 -38 -97 -38q-40 0 -68 21.5t-28 64.5q0 65 92 142h-40v708h120v-708h-7q-46 -43 -65 -69t-19 -51q0 -18 10 -28.5t26 -10.5q29 0 51 21z" />
    <glyph glyph-name="iogonek" unicode="&#x12f;" horiz-adv-x="248" 
d="M177 -138l25 -52q-45 -38 -97 -38q-40 0 -68 21.5t-28 64.5q0 65 92 142h-33v510h112v-510h-6q-46 -43 -65 -69t-19 -51q0 -18 10 -28.5t26 -10.5q28 0 51 21zM190 658q0 -30 -19 -50t-47 -20t-47 20t-19 50t19 50.5t47 20.5t47 -20.5t19 -50.5z" />
    <glyph glyph-name="Idotaccent" unicode="&#x130;" horiz-adv-x="264" 
d="M192 0h-120v708h120v-708zM200 845q0 -30 -19.5 -50.5t-47.5 -20.5q-30 0 -48.5 20.5t-18.5 50.5q0 31 19 52t48 21t48 -21.5t19 -51.5z" />
    <glyph glyph-name="dotlessi" unicode="&#x131;" horiz-adv-x="250" 
d="M181 0h-113v510h113v-510z" />
    <glyph glyph-name="Jcircumflex" unicode="&#x134;" horiz-adv-x="416" 
d="M349 206q0 -224 -184 -224q-67 0 -113 37.5t-61 100.5l100 43q7 -29 25 -49t45 -20q38 0 53.5 31t15.5 92v491h119v-502zM448 764h-90l-69 93l-68 -93h-89l110 144h97z" />
    <glyph glyph-name="jcircumflex" unicode="&#x135;" horiz-adv-x="249" 
d="M182 -50q0 -190 -158 -190q-29 0 -50 6l8 102q12 -4 27 -4q61 0 61 95v551h112v-560zM286 575h-90l-69 93l-68 -93h-89l110 144h97z" />
    <glyph glyph-name="Kcommaaccent" unicode="&#x136;" horiz-adv-x="530" 
d="M523 0h-139l-189 344h-3v-344h-120v708h120v-307h3l180 307h135l-208 -326zM332 -45l-57 -187h-81l47 187h91z" />
    <glyph glyph-name="kcommaaccent" unicode="&#x137;" horiz-adv-x="453" 
d="M452 0h-133l-135 245h-2v-245h-113v756h113v-461h2l130 215h131l-160 -235zM295 -45l-57 -187h-81l47 187h91z" />
    <glyph glyph-name="Lacute" unicode="&#x139;" horiz-adv-x="394" 
d="M388 0h-316v708h121v-597h195v-111zM280 908l-109 -144h-85l90 144h104z" />
    <glyph glyph-name="lacute" unicode="&#x13a;" horiz-adv-x="250" 
d="M262 947l-109 -144h-85l90 144h104zM182 0h-114v756h114v-756z" />
    <glyph glyph-name="Lcommaaccent" unicode="&#x13b;" horiz-adv-x="394" 
d="M388 0h-316v708h121v-597h195v-111zM277 -45l-57 -187h-81l47 187h91z" />
    <glyph glyph-name="lcommaaccent" unicode="&#x13c;" horiz-adv-x="250" 
d="M182 0h-114v756h114v-756zM175 -45l-57 -187h-81l47 187h91z" />
    <glyph glyph-name="Lcaron" unicode="&#x13d;" horiz-adv-x="394" 
d="M388 0h-316v708h121v-597h195v-111zM377 708l-57 -187h-81l47 187h91z" />
    <glyph glyph-name="lcaron" unicode="&#x13e;" horiz-adv-x="332" 
d="M182 0h-114v756h114v-756zM358 708l-57 -187h-81l47 187h91z" />
    <glyph glyph-name="Ldot" unicode="&#x13f;" horiz-adv-x="394" 
d="M380 436q0 -30 -19.5 -50.5t-47.5 -20.5q-30 0 -48.5 20.5t-18.5 50.5q0 31 19 52t48 21t48 -21.5t19 -51.5zM388 0h-316v708h121v-597h195v-111z" />
    <glyph glyph-name="ldot" unicode="&#x140;" horiz-adv-x="354" 
d="M182 0h-114v756h114v-756zM364 466q0 -30 -19.5 -50.5t-47.5 -20.5q-30 0 -48.5 20.5t-18.5 50.5q0 31 19 52t48 21t48 -21.5t19 -51.5z" />
    <glyph glyph-name="Lslash" unicode="&#x141;" horiz-adv-x="394" 
d="M388 0h-316v216l-43 -43v108l43 42v385h121v-297l124 120v-107l-124 -120v-193h195v-111z" />
    <glyph glyph-name="lslash" unicode="&#x142;" horiz-adv-x="250" 
d="M230 427l-48 -46v-381h-114v297l-42 -40v101l42 40v358h114v-275l48 47v-101z" />
    <glyph glyph-name="Nacute" unicode="&#x143;" horiz-adv-x="586" 
d="M514 0h-132l-201 500h-3l2 -500h-108v708h137l199 -503h3l-1 503h104v-708zM428 908l-109 -144h-85l90 144h104z" />
    <glyph glyph-name="nacute" unicode="&#x144;" horiz-adv-x="505" 
d="M384 719l-109 -144h-85l90 144h104zM70 510h111v-81h2q14 43 48 70.5t79 27.5q40 0 67 -17t40.5 -48t18.5 -64.5t5 -77.5v-320h-113v320q0 109 -62 109q-37 0 -60 -38t-23 -96v-295h-113v510z" />
    <glyph glyph-name="Ncommaaccent" unicode="&#x145;" horiz-adv-x="586" 
d="M514 0h-132l-201 500h-3l2 -500h-108v708h137l199 -503h3l-1 503h104v-708zM343 -45l-57 -187h-81l47 187h91z" />
    <glyph glyph-name="ncommaaccent" unicode="&#x146;" horiz-adv-x="505" 
d="M70 510h111v-81h2q14 43 48 70.5t79 27.5q40 0 67 -17t40.5 -48t18.5 -64.5t5 -77.5v-320h-113v320q0 109 -62 109q-37 0 -60 -38t-23 -96v-295h-113v510zM303 -45l-57 -187h-81l47 187h91z" />
    <glyph glyph-name="Ncaron" unicode="&#x147;" horiz-adv-x="586" 
d="M514 0h-132l-201 500h-3l2 -500h-108v708h137l199 -503h3l-1 503h104v-708zM454 907l-110 -144h-97l-109 144h89l69 -94l69 94h89z" />
    <glyph glyph-name="ncaron" unicode="&#x148;" horiz-adv-x="505" 
d="M414 718l-110 -144h-97l-109 144h89l69 -94l69 94h89zM70 510h111v-81h2q14 43 48 70.5t79 27.5q40 0 67 -17t40.5 -48t18.5 -64.5t5 -77.5v-320h-113v320q0 109 -62 109q-37 0 -60 -38t-23 -96v-295h-113v510z" />
    <glyph glyph-name="Omacron" unicode="&#x14c;" horiz-adv-x="591" 
d="M551 355q0 -169 -68.5 -271t-186.5 -102t-186.5 102t-68.5 271t68 270t187 101q118 0 186.5 -101.5t68.5 -269.5zM427 355q0 113 -34.5 185.5t-96.5 72.5q-64 0 -97.5 -72t-33.5 -186t34 -186.5t97 -72.5t97 72.5t34 186.5zM434 802h-274v66h274v-66z" />
    <glyph glyph-name="omacron" unicode="&#x14d;" horiz-adv-x="468" 
d="M370 613h-274v66h274v-66zM430 254q0 -122 -53 -196.5t-143 -74.5t-143 74.5t-53 196.5q0 124 52.5 198.5t143.5 74.5t143.5 -74.5t52.5 -198.5zM318 255q0 78 -21 126t-63 48t-62.5 -48t-20.5 -126q0 -77 20.5 -125t62.5 -48t63 48t21 125z" />
    <glyph glyph-name="Obreve" unicode="&#x14e;" horiz-adv-x="591" 
d="M551 355q0 -169 -68.5 -271t-186.5 -102t-186.5 102t-68.5 271t68 270t187 101q118 0 186.5 -101.5t68.5 -269.5zM427 355q0 113 -34.5 185.5t-96.5 72.5q-64 0 -97.5 -72t-33.5 -186t34 -186.5t97 -72.5t97 72.5t34 186.5zM437 902q-7 -70 -45.5 -103t-96.5 -33
q-57 0 -95.5 33t-44.5 103h66q4 -33 25.5 -49.5t48.5 -16.5q65 0 76 66h66z" />
    <glyph glyph-name="obreve" unicode="&#x14f;" horiz-adv-x="468" 
d="M376 713q-7 -70 -45.5 -103t-96.5 -33q-57 0 -95.5 33t-44.5 103h66q4 -33 27 -51q21 -15 47 -15q65 0 76 66h66zM430 254q0 -122 -53 -196.5t-143 -74.5t-143 74.5t-53 196.5q0 124 52.5 198.5t143.5 74.5t143.5 -74.5t52.5 -198.5zM318 255q0 78 -21 126t-63 48
t-62.5 -48t-20.5 -126q0 -77 20.5 -125t62.5 -48t63 48t21 125z" />
    <glyph glyph-name="Ohungarumlaut" unicode="&#x150;" horiz-adv-x="591" 
d="M551 355q0 -169 -68.5 -271t-186.5 -102t-186.5 102t-68.5 271t68 270t187 101q118 0 186.5 -101.5t68.5 -269.5zM427 355q0 113 -34.5 185.5t-96.5 72.5q-64 0 -97.5 -72t-33.5 -186t34 -186.5t97 -72.5t97 72.5t34 186.5zM515 908l-110 -144h-82l90 144h102zM370 908
l-109 -144h-82l90 144h101z" />
    <glyph glyph-name="ohungarumlaut" unicode="&#x151;" horiz-adv-x="468" 
d="M451 719l-110 -144h-82l90 144h102zM306 719l-109 -144h-82l90 144h101zM430 254q0 -122 -53 -196.5t-143 -74.5t-143 74.5t-53 196.5q0 124 52.5 198.5t143.5 74.5t143.5 -74.5t52.5 -198.5zM318 255q0 78 -21 126t-63 48t-62.5 -48t-20.5 -126q0 -77 20.5 -125
t62.5 -48t63 48t21 125z" />
    <glyph glyph-name="OE" unicode="&#x152;" horiz-adv-x="702" 
d="M665 0h-346q-135 0 -206.5 92.5t-71.5 262.5q0 169 71.5 261t206.5 92h336v-106h-194v-188h179v-98h-179v-209h204v-107zM348 105v498h-29q-71 0 -114.5 -64t-43.5 -184q0 -122 43.5 -186t114.5 -64h29z" />
    <glyph glyph-name="oe" unicode="&#x153;" horiz-adv-x="725" 
d="M510 -17q-97 0 -137 87q-39 -87 -138 -87q-90 0 -143.5 75t-53.5 196q0 124 52.5 198.5t144.5 74.5q102 0 140 -88q17 41 52.5 64.5t80.5 23.5q93 0 137 -70.5t44 -188.5v-42h-265q1 -63 24.5 -104t65.5 -41q51 0 79 66l83 -48q-48 -116 -166 -116zM318 255q0 78 -21 126
t-63 48t-62.5 -48t-20.5 -126q0 -77 20.5 -125t62.5 -48t63 48t21 125zM581 308q0 59 -18.5 93.5t-55.5 34.5q-39 0 -60 -41t-22 -87h156z" />
    <glyph glyph-name="Racute" unicode="&#x154;" horiz-adv-x="513" 
d="M491 0h-126l-110 302h-67v-302h-116v708h202q92 0 146.5 -50t54.5 -152q0 -76 -33.5 -122t-77.5 -58zM357 500q0 59 -29 83.5t-72 24.5h-68v-218h68q45 0 73 28.5t28 81.5zM384 908l-109 -144h-85l90 144h104z" />
    <glyph glyph-name="racute" unicode="&#x155;" horiz-adv-x="307" 
d="M293 719l-109 -144h-85l90 144h104zM183 412q13 56 41 85.5t66 29.5q11 0 17 -2l-6 -116q-11 3 -24 3q-42 0 -67 -46.5t-25 -109.5v-256h-115v510h111v-98h2z" />
    <glyph glyph-name="Rcommaaccent" unicode="&#x156;" horiz-adv-x="513" 
d="M491 0h-126l-110 302h-67v-302h-116v708h202q92 0 146.5 -50t54.5 -152q0 -76 -33.5 -122t-77.5 -58zM357 500q0 59 -29 83.5t-72 24.5h-68v-218h68q45 0 73 28.5t28 81.5zM319 -45l-57 -187h-81l47 187h91z" />
    <glyph glyph-name="rcommaaccent" unicode="&#x157;" horiz-adv-x="307" 
d="M183 412q13 56 41 85.5t66 29.5q11 0 17 -2l-6 -116q-11 3 -24 3q-42 0 -67 -46.5t-25 -109.5v-256h-115v510h111v-98h2zM177 -45l-57 -187h-81l47 187h91z" />
    <glyph glyph-name="Rcaron" unicode="&#x158;" horiz-adv-x="513" 
d="M491 0h-126l-110 302h-67v-302h-116v708h202q92 0 146.5 -50t54.5 -152q0 -76 -33.5 -122t-77.5 -58zM357 500q0 59 -29 83.5t-72 24.5h-68v-218h68q45 0 73 28.5t28 81.5zM412 907l-110 -144h-97l-109 144h89l69 -94l69 94h89z" />
    <glyph glyph-name="rcaron" unicode="&#x159;" horiz-adv-x="307" 
d="M344 718l-110 -144h-97l-109 144h89l69 -94l69 94h89zM183 412q13 56 41 85.5t66 29.5q11 0 17 -2l-6 -116q-11 3 -24 3q-42 0 -67 -46.5t-25 -109.5v-256h-115v510h111v-98h2z" />
    <glyph glyph-name="Sacute" unicode="&#x15a;" horiz-adv-x="449" 
d="M416 657l-66 -86q-39 47 -98 47q-37 0 -63.5 -25t-26.5 -74q0 -41 24 -66t74 -50q32 -16 54.5 -31t47 -39.5t37.5 -58.5t13 -77q0 -100 -58.5 -157.5t-144.5 -57.5q-57 0 -107.5 22.5t-81.5 58.5l65 88q50 -60 122 -60q38 0 63 27t25 72q0 42 -26.5 69t-79.5 54
q-68 34 -105 78.5t-37 123.5q0 102 60 156.5t141 54.5q110 0 168 -69zM373 908l-109 -144h-85l90 144h104z" />
    <glyph glyph-name="sacute" unicode="&#x15b;" horiz-adv-x="371" 
d="M326 719l-109 -144h-85l90 144h104zM345 468l-60 -73q-33 43 -83 43q-25 0 -42 -18t-17 -46t16 -41.5t59 -29.5q121 -41 121 -153q0 -80 -47.5 -123.5t-116.5 -43.5q-98 0 -160 70l61 72q44 -51 98 -51q28 0 44 19t16 50q0 33 -20 49t-66 33q-49 17 -79 49.5t-30 95.5
q0 71 47 114t113 43q87 0 146 -59z" />
    <glyph glyph-name="Scircumflex" unicode="&#x15c;" horiz-adv-x="449" 
d="M416 657l-66 -86q-39 47 -98 47q-37 0 -63.5 -25t-26.5 -74q0 -41 24 -66t74 -50q32 -16 54.5 -31t47 -39.5t37.5 -58.5t13 -77q0 -100 -58.5 -157.5t-144.5 -57.5q-57 0 -107.5 22.5t-81.5 58.5l65 88q50 -60 122 -60q38 0 63 27t25 72q0 42 -26.5 69t-79.5 54
q-68 34 -105 78.5t-37 123.5q0 102 60 156.5t141 54.5q110 0 168 -69zM410 764h-90l-69 93l-68 -93h-89l110 144h97z" />
    <glyph glyph-name="scircumflex" unicode="&#x15d;" horiz-adv-x="371" 
d="M361 575h-90l-69 93l-68 -93h-89l110 144h97zM345 468l-60 -73q-33 43 -83 43q-25 0 -42 -18t-17 -46t16 -41.5t59 -29.5q121 -41 121 -153q0 -80 -47.5 -123.5t-116.5 -43.5q-98 0 -160 70l61 72q44 -51 98 -51q28 0 44 19t16 50q0 33 -20 49t-66 33q-49 17 -79 49.5
t-30 95.5q0 71 47 114t113 43q87 0 146 -59z" />
    <glyph glyph-name="Scedilla" unicode="&#x15e;" horiz-adv-x="449" 
d="M416 657l-66 -86q-39 47 -98 47q-37 0 -63.5 -25t-26.5 -74q0 -41 24 -66t74 -50q32 -16 54.5 -31t47 -39.5t37.5 -58.5t13 -77q0 -87 -44.5 -142.5t-115.5 -68.5l-35 -53q12 3 27 3q33 0 57.5 -18.5t24.5 -57.5q0 -49 -37.5 -70.5t-85.5 -21.5q-59 0 -99 20l20 50
q34 -16 72 -16q20 0 36 9t16 29q0 32 -45 32q-23 0 -42 -8l-24 22l50 77q-51 4 -95.5 25.5t-71.5 54.5l65 88q50 -60 122 -60q38 0 63 27t25 72q0 42 -26.5 69t-79.5 54q-68 34 -105 78.5t-37 123.5q0 102 60 156.5t141 54.5q110 0 168 -69z" />
    <glyph glyph-name="scedilla" unicode="&#x15f;" horiz-adv-x="371" 
d="M345 468l-60 -73q-33 43 -83 43q-25 0 -42 -18t-17 -46t16 -41.5t59 -29.5q121 -41 121 -153q0 -67 -34.5 -109t-88.5 -53l-36 -55q12 3 27 3q33 0 57.5 -18.5t24.5 -57.5q0 -49 -37.5 -70.5t-85.5 -21.5q-59 0 -99 20l20 50q34 -16 72 -16q20 0 36 9t16 29q0 32 -45 32
q-23 0 -42 -8l-24 22l50 78q-83 9 -135 69l61 72q44 -51 98 -51q28 0 44 19t16 50q0 33 -20 49t-66 33q-49 17 -79 49.5t-30 95.5q0 71 47 114t113 43q87 0 146 -59z" />
    <glyph glyph-name="Scaron" unicode="&#x160;" horiz-adv-x="449" 
d="M416 657l-66 -86q-39 47 -98 47q-37 0 -63.5 -25t-26.5 -74q0 -41 24 -66t74 -50q32 -16 54.5 -31t47 -39.5t37.5 -58.5t13 -77q0 -100 -58.5 -157.5t-144.5 -57.5q-57 0 -107.5 22.5t-81.5 58.5l65 88q50 -60 122 -60q38 0 63 27t25 72q0 42 -26.5 69t-79.5 54
q-68 34 -105 78.5t-37 123.5q0 102 60 156.5t141 54.5q110 0 168 -69zM409 907l-110 -144h-97l-109 144h89l69 -94l69 94h89z" />
    <glyph glyph-name="scaron" unicode="&#x161;" horiz-adv-x="371" 
d="M358 718l-110 -144h-97l-109 144h89l69 -94l69 94h89zM345 468l-60 -73q-33 43 -83 43q-25 0 -42 -18t-17 -46t16 -41.5t59 -29.5q121 -41 121 -153q0 -80 -47.5 -123.5t-116.5 -43.5q-98 0 -160 70l61 72q44 -51 98 -51q28 0 44 19t16 50q0 33 -20 49t-66 33
q-49 17 -79 49.5t-30 95.5q0 71 47 114t113 43q87 0 146 -59z" />
    <glyph glyph-name="Tcommaaccent" unicode="&#x162;" horiz-adv-x="380" 
d="M382 606h-133v-606h-118v606h-133v102h384v-102zM239 -45l-57 -187h-81l47 187h91z" />
    <glyph glyph-name="tcommaaccent" unicode="&#x163;" horiz-adv-x="284" 
d="M271 423h-89v-262q0 -80 51 -80q21 0 35 8l2 -88q-28 -14 -72 -14q-122 0 -122 149v287h-64v87h64v130h106v-130h89v-87zM221 -45l-57 -187h-81l47 187h91z" />
    <glyph glyph-name="Tcaron" unicode="&#x164;" horiz-adv-x="380" 
d="M382 606h-133v-606h-118v606h-133v102h384v-102zM350 907l-110 -144h-97l-109 144h89l69 -94l69 94h89z" />
    <glyph glyph-name="tcaron" unicode="&#x165;" horiz-adv-x="337" 
d="M271 423h-89v-262q0 -80 51 -80q21 0 35 8l2 -88q-28 -14 -72 -14q-122 0 -122 149v287h-64v87h64v130h106v-130h89v-87zM363 731l-57 -187h-81l47 187h91z" />
    <glyph glyph-name="Tbar" unicode="&#x166;" horiz-adv-x="380" 
d="M329 437h-80v-437h-118v437h-76v66h76v103h-133v102h384v-102h-133v-103h80v-66z" />
    <glyph glyph-name="tbar" unicode="&#x167;" horiz-adv-x="284" 
d="M256 260h-74v-99q0 -80 51 -80q21 0 35 8l2 -88q-28 -14 -72 -14q-122 0 -122 149v124h-52v66h52v97h-64v87h64v130h106v-130h89v-87h-89v-97h74v-66z" />
    <glyph glyph-name="Utilde" unicode="&#x168;" horiz-adv-x="567" 
d="M506 251q0 -121 -54 -195t-170 -74q-115 0 -168 73.5t-53 195.5v457h120v-446q0 -167 103 -167t103 167v446h119v-457zM427 894q-3 -58 -24 -88t-56 -30q-30 0 -67 25t-55 25q-31 0 -37 -50h-47q3 52 24.5 85t55.5 33q31 0 68 -25t56 -25q30 0 36 50h46z" />
    <glyph glyph-name="utilde" unicode="&#x169;" horiz-adv-x="505" 
d="M394 705q-3 -58 -24 -88t-56 -30q-30 0 -67 25t-55 25q-31 0 -37 -50h-47q3 52 24.5 85t55.5 33q30 0 68 -25t56 -25q30 0 36 50h46zM435 0h-111v81h-2q-14 -43 -48 -70.5t-79 -27.5q-40 0 -67 17t-40.5 48t-18.5 64.5t-5 77.5v320h113v-320q0 -108 62 -108q37 0 60 37.5
t23 95.5v295h113v-510z" />
    <glyph glyph-name="Umacron" unicode="&#x16a;" horiz-adv-x="567" 
d="M506 251q0 -121 -54 -195t-170 -74q-115 0 -168 73.5t-53 195.5v457h120v-446q0 -167 103 -167t103 167v446h119v-457zM421 802h-274v66h274v-66z" />
    <glyph glyph-name="umacron" unicode="&#x16b;" horiz-adv-x="505" 
d="M386 613h-274v66h274v-66zM435 0h-111v81h-2q-14 -43 -48 -70.5t-79 -27.5q-40 0 -67 17t-40.5 48t-18.5 64.5t-5 77.5v320h113v-320q0 -108 62 -108q37 0 60 37.5t23 95.5v295h113v-510z" />
    <glyph glyph-name="Ubreve" unicode="&#x16c;" horiz-adv-x="567" 
d="M506 251q0 -121 -54 -195t-170 -74q-115 0 -168 73.5t-53 195.5v457h120v-446q0 -167 103 -167t103 167v446h119v-457zM425 902q-7 -70 -45.5 -103t-96.5 -33q-57 0 -95.5 33t-44.5 103h66q4 -33 25.5 -49.5t48.5 -16.5q65 0 76 66h66z" />
    <glyph glyph-name="ubreve" unicode="&#x16d;" horiz-adv-x="505" 
d="M390 713q-7 -70 -45.5 -103t-96.5 -33q-57 0 -95.5 33t-44.5 103h66q4 -33 27 -51q21 -15 47 -15q65 0 76 66h66zM435 0h-111v81h-2q-14 -43 -48 -70.5t-79 -27.5q-40 0 -67 17t-40.5 48t-18.5 64.5t-5 77.5v320h113v-320q0 -108 62 -108q37 0 60 37.5t23 95.5v295h113
v-510z" />
    <glyph glyph-name="Uring" unicode="&#x16e;" horiz-adv-x="567" 
d="M506 251q0 -121 -54 -195t-170 -74q-115 0 -168 73.5t-53 195.5v457h120v-446q0 -167 103 -167t103 167v446h119v-457zM382 853q0 -45 -27.5 -75.5t-70.5 -30.5t-70 30t-27 76t27 76t70 30t70.5 -30.5t27.5 -75.5zM339 853q0 28 -15 47t-40 19t-39.5 -19t-14.5 -47
t14.5 -47t39.5 -19t40 19t15 47z" />
    <glyph glyph-name="uring" unicode="&#x16f;" horiz-adv-x="505" 
d="M349 664q0 -45 -27.5 -75.5t-70.5 -30.5t-70 30t-27 76t27 76t70 30t70.5 -30.5t27.5 -75.5zM306 664q0 28 -15 47t-40 19t-39.5 -19t-14.5 -47t14.5 -47t39.5 -19t40 19t15 47zM435 0h-111v81h-2q-14 -43 -48 -70.5t-79 -27.5q-40 0 -67 17t-40.5 48t-18.5 64.5t-5 77.5
v320h113v-320q0 -108 62 -108q37 0 60 37.5t23 95.5v295h113v-510z" />
    <glyph glyph-name="Uhungarumlaut" unicode="&#x170;" horiz-adv-x="567" 
d="M506 251q0 -121 -54 -195t-170 -74q-115 0 -168 73.5t-53 195.5v457h120v-446q0 -167 103 -167t103 167v446h119v-457zM502 908l-110 -144h-82l90 144h102zM357 908l-109 -144h-82l90 144h101z" />
    <glyph glyph-name="uhungarumlaut" unicode="&#x171;" horiz-adv-x="505" 
d="M470 719l-110 -144h-82l90 144h102zM325 719l-109 -144h-82l90 144h101zM435 0h-111v81h-2q-14 -43 -48 -70.5t-79 -27.5q-40 0 -67 17t-40.5 48t-18.5 64.5t-5 77.5v320h113v-320q0 -108 62 -108q37 0 60 37.5t23 95.5v295h113v-510z" />
    <glyph glyph-name="Uogonek" unicode="&#x172;" horiz-adv-x="567" 
d="M365 -138l25 -52q-45 -38 -97 -38q-40 0 -68 21.5t-28 64.5q0 61 72 125q-108 4 -158 77t-50 191v457h120v-446q0 -167 103 -167t103 167v446h119v-457q0 -100 -37 -169t-116 -90q-41 -38 -58 -63.5t-17 -48.5q0 -18 10 -28.5t26 -10.5q28 0 51 21z" />
    <glyph glyph-name="uogonek" unicode="&#x173;" horiz-adv-x="505" 
d="M435 0h-30q-46 -43 -65 -69t-19 -51q0 -18 10 -28.5t26 -10.5q29 0 51 21l25 -52q-45 -38 -97 -38q-40 0 -68 21.5t-28 64.5q0 65 92 142h-8v81h-2q-14 -43 -48 -70.5t-79 -27.5q-40 0 -67 17t-40.5 48t-18.5 64.5t-5 77.5v320h113v-320q0 -108 62 -108q37 0 60 37.5
t23 95.5v295h113v-510z" />
    <glyph glyph-name="Wcircumflex" unicode="&#x174;" horiz-adv-x="769" 
d="M757 708l-136 -708h-138l-98 532h-2l-98 -532h-138l-135 708h122l91 -550h4l95 550h126l98 -550h2l91 550h116zM544 764h-90l-69 93l-68 -93h-89l110 144h97z" />
    <glyph glyph-name="wcircumflex" unicode="&#x175;" horiz-adv-x="635" 
d="M474 575h-90l-69 93l-68 -93h-89l110 144h97zM620 510l-111 -510h-121l-73 349h-1l-73 -349h-118l-109 510h116l62 -375h2l73 375h100l75 -375h2l63 375h113z" />
    <glyph glyph-name="Ycircumflex" unicode="&#x176;" horiz-adv-x="462" 
d="M468 708l-179 -437v-271h-118v271l-177 437h130l106 -316l3 2l108 314h127zM389 764h-90l-69 93l-68 -93h-89l110 144h97z" />
    <glyph glyph-name="ycircumflex" unicode="&#x177;" horiz-adv-x="427" 
d="M377 575h-90l-69 93l-68 -93h-89l110 144h97zM417 510l-153 -580q-21 -83 -59.5 -126.5t-109.5 -43.5q-40 0 -69 9l14 102q22 -8 42 -8q48 0 62 62l15 63l-149 522h119l89 -384h3l81 384h115z" />
    <glyph glyph-name="Ydieresis" unicode="&#x178;" horiz-adv-x="462" 
d="M468 708l-179 -437v-271h-118v271l-177 437h130l106 -316l3 2l108 314h127zM370 846q0 -28 -17.5 -47t-42.5 -19q-26 0 -42.5 19t-16.5 47q0 27 16.5 46t42.5 19q25 0 42.5 -19t17.5 -46zM213 846q0 -28 -17.5 -47t-42.5 -19t-42 19t-17 47q0 27 17 46t42 19q26 0 43 -19
t17 -46z" />
    <glyph glyph-name="Zacute" unicode="&#x179;" horiz-adv-x="431" 
d="M395 0h-370v99l238 503h-222v106h354v-97l-237 -503h237v-108zM346 908l-109 -144h-85l90 144h104z" />
    <glyph glyph-name="zacute" unicode="&#x17a;" horiz-adv-x="367" 
d="M320 719l-109 -144h-85l90 144h104zM339 0h-313v95l192 319h-178v96h298v-91l-192 -323h193v-96z" />
    <glyph glyph-name="Zdotaccent" unicode="&#x17b;" horiz-adv-x="431" 
d="M395 0h-370v99l238 503h-222v106h354v-97l-237 -503h237v-108zM283 845q0 -30 -19.5 -50.5t-47.5 -20.5q-30 0 -48.5 20.5t-18.5 50.5q0 31 19 52t48 21t48 -21.5t19 -51.5z" />
    <glyph glyph-name="zdotaccent" unicode="&#x17c;" horiz-adv-x="367" 
d="M258 656q0 -30 -19.5 -50.5t-47.5 -20.5q-30 0 -48.5 20.5t-18.5 50.5q0 31 19 52t48 21t48 -21.5t19 -51.5zM339 0h-313v95l192 319h-178v96h298v-91l-192 -323h193v-96z" />
    <glyph glyph-name="Zcaron" unicode="&#x17d;" horiz-adv-x="431" 
d="M395 0h-370v99l238 503h-222v106h354v-97l-237 -503h237v-108zM378 907l-110 -144h-97l-109 144h89l69 -94l69 94h89z" />
    <glyph glyph-name="zcaron" unicode="&#x17e;" horiz-adv-x="367" 
d="M350 718l-110 -144h-97l-109 144h89l69 -94l69 94h89zM339 0h-313v95l192 319h-178v96h298v-91l-192 -323h193v-96z" />
    <glyph glyph-name="florin" unicode="&#x192;" horiz-adv-x="500" 
d="M473 700l-32 -92q-25 15 -48 15q-32 0 -48.5 -21.5t-23.5 -64.5l-18 -107h104v-84h-117l-56 -331q-25 -156 -151 -156q-47 0 -74 12l23 95q14 -8 30 -8q32 0 45 23.5t21 74.5l47 290h-93v84h103l16 99q15 93 53 144t121 51q57 0 98 -24z" />
    <glyph glyph-name="Scommaaccent" unicode="&#x218;" horiz-adv-x="449" 
d="M416 657l-66 -86q-39 47 -98 47q-37 0 -63.5 -25t-26.5 -74q0 -41 24 -66t74 -50q32 -16 54.5 -31t47 -39.5t37.5 -58.5t13 -77q0 -100 -58.5 -157.5t-144.5 -57.5q-57 0 -107.5 22.5t-81.5 58.5l65 88q50 -60 122 -60q38 0 63 27t25 72q0 42 -26.5 69t-79.5 54
q-68 34 -105 78.5t-37 123.5q0 102 60 156.5t141 54.5q110 0 168 -69zM257 -45l-57 -187h-81l47 187h91z" />
    <glyph glyph-name="scommaaccent" unicode="&#x219;" horiz-adv-x="371" 
d="M345 468l-60 -73q-33 43 -83 43q-25 0 -42 -18t-17 -46t16 -41.5t59 -29.5q121 -41 121 -153q0 -80 -47.5 -123.5t-116.5 -43.5q-98 0 -160 70l61 72q44 -51 98 -51q28 0 44 19t16 50q0 33 -20 49t-66 33q-49 17 -79 49.5t-30 95.5q0 71 47 114t113 43q87 0 146 -59z
M228 -45l-57 -187h-81l47 187h91z" />
    <glyph glyph-name="uni021A" unicode="&#x21a;" horiz-adv-x="380" 
d="M382 606h-133v-606h-118v606h-133v102h384v-102zM239 -45l-57 -187h-81l47 187h91z" />
    <glyph glyph-name="uni021B" unicode="&#x21b;" horiz-adv-x="284" 
d="M271 423h-89v-262q0 -80 51 -80q21 0 35 8l2 -88q-28 -14 -72 -14q-122 0 -122 149v287h-64v87h64v130h106v-130h89v-87zM221 -45l-57 -187h-81l47 187h91z" />
    <glyph glyph-name="circumflex" unicode="&#x2c6;" 
d="M284 575h-90l-69 93l-68 -93h-89l110 144h97z" />
    <glyph glyph-name="caron" unicode="&#x2c7;" 
d="M284 718l-110 -144h-97l-109 144h89l69 -94l69 94h89z" />
    <glyph glyph-name="uni02C9" unicode="&#x2c9;" 
d="M263 802h-274v66h274v-66z" />
    <glyph glyph-name="breve" unicode="&#x2d8;" 
d="M267 713q-7 -70 -45.5 -103t-96.5 -33q-57 0 -95.5 33t-44.5 103h66q4 -33 27 -51q21 -15 47 -15q65 0 76 66h66z" />
    <glyph glyph-name="dotaccent" unicode="&#x2d9;" 
d="M193 656q0 -30 -19.5 -50.5t-47.5 -20.5q-30 0 -48.5 20.5t-18.5 50.5q0 31 19 52t48 21t48 -21.5t19 -51.5z" />
    <glyph glyph-name="ring" unicode="&#x2da;" 
d="M224 664q0 -45 -27.5 -75.5t-70.5 -30.5t-70 30t-27 76t27 76t70 30t70.5 -30.5t27.5 -75.5zM181 664q0 28 -15 47t-40 19t-39.5 -19t-14.5 -47t14.5 -47t39.5 -19t40 19t15 47z" />
    <glyph glyph-name="ogonek" unicode="&#x2db;" 
d="M195 -138l25 -52q-45 -38 -97 -38q-40 0 -68 21.5t-28 64.5q0 65 92 142h73q-46 -43 -65 -69t-19 -51q0 -18 10 -28.5t26 -10.5q28 0 51 21z" />
    <glyph glyph-name="tilde" unicode="&#x2dc;" 
d="M268 705q-3 -58 -24 -88t-56 -30q-30 0 -67 25t-55 25q-31 0 -37 -50h-47q3 52 24.5 85t55.5 33q31 0 68 -25q38 -25 56 -25q30 0 36 50h46z" />
    <glyph glyph-name="hungarumlaut" unicode="&#x2dd;" 
d="M314 719l-110 -144h-82l90 144h102zM169 719l-109 -144h-82l90 144h101z" />
    <glyph glyph-name="uni0394" unicode="&#x394;" horiz-adv-x="685" 
d="M677 0h-669l270 712h115zM519 104l-185 477l-173 -477h358z" />
    <glyph glyph-name="uni03A9" unicode="&#x3a9;" horiz-adv-x="759" 
d="M701 0h-276v189q74 15 115.5 72.5t41.5 135.5q0 91 -58.5 155t-148.5 64q-92 0 -150.5 -63.5t-58.5 -156.5q0 -79 39.5 -133.5t114.5 -73.5v-189h-274v106h172v32q-87 27 -129.5 98t-42.5 168q0 137 95 227t232 90q139 0 233.5 -88t94.5 -226q0 -100 -42 -171.5
t-131 -97.5v-32h173v-106z" />
    <glyph glyph-name="uni03BC" unicode="&#x3bc;" horiz-adv-x="574" 
d="M68 480h120v-243q0 -26 2.5 -45.5t10 -44t26.5 -38t49 -13.5q56 0 83 34.5t27 87.5v262h120v-480h-114v77h-2q-41 -89 -137 -89q-45 0 -65 24v-240h-120v708z" />
    <glyph glyph-name="pi" unicode="&#x3c0;" horiz-adv-x="593" 
d="M580 13q-43 -20 -95 -20q-62 0 -83 33.5t-21 97.5v254h-183v-378h-117v378h-70v102h566v-102h-79v-237q0 -18 1.5 -28.5t10.5 -20t26 -9.5q21 0 44 10v-80z" />
    <glyph glyph-name="endash" unicode="&#x2013;" horiz-adv-x="360" 
d="M336 226h-312v87h312v-87z" />
    <glyph glyph-name="emdash" unicode="&#x2014;" horiz-adv-x="460" 
d="M436 226h-412v87h412v-87z" />
    <glyph glyph-name="quoteleft" unicode="&#x2018;" horiz-adv-x="210" 
d="M174 708l-46 -248h-92l58 248h80z" />
    <glyph glyph-name="quoteright" unicode="&#x2019;" horiz-adv-x="210" 
d="M36 460l47 248h91l-58 -248h-80z" />
    <glyph glyph-name="quotesinglbase" unicode="&#x201a;" horiz-adv-x="210" 
d="M174 126l-57 -248h-81l47 248h91z" />
    <glyph glyph-name="quotedblleft" unicode="&#x201c;" horiz-adv-x="360" 
d="M324 708l-47 -248h-91l57 248h81zM174 708l-46 -248h-92l58 248h80z" />
    <glyph glyph-name="quotedblright" unicode="&#x201d;" horiz-adv-x="360" 
d="M36 460l47 248h91l-57 -248h-81zM186 460l46 248h92l-58 -248h-80z" />
    <glyph glyph-name="quotedblbase" unicode="&#x201e;" horiz-adv-x="360" 
d="M36 -122l47 248h91l-57 -248h-81zM186 -122l46 248h92l-58 -248h-80z" />
    <glyph glyph-name="dagger" unicode="&#x2020;" horiz-adv-x="405" 
d="M392 410h-140v-539h-98v539h-139v96h139v202h98v-202h140v-96z" />
    <glyph glyph-name="daggerdbl" unicode="&#x2021;" horiz-adv-x="405" 
d="M392 58h-139v-187h-99v187h-139v93h139v277h-139v92h139v188h98v-188h140v-92h-140v-277h140v-93z" />
    <glyph glyph-name="bullet" unicode="&#x2022;" horiz-adv-x="500" 
d="M73 354q0 74 51.5 125.5t125.5 51.5t125.5 -51.5t51.5 -125.5t-51.5 -125.5t-125.5 -51.5t-125.5 51.5t-51.5 125.5z" />
    <glyph glyph-name="ellipsis" unicode="&#x2026;" horiz-adv-x="900" 
d="M219 65q0 -31 -19.5 -52t-49.5 -21t-49 21t-19 52t19.5 52.5t48.5 21.5q30 0 49.5 -21.5t19.5 -52.5zM819 65q0 -31 -19.5 -52t-49.5 -21t-49 21t-19 52t19.5 52.5t48.5 21.5q30 0 49.5 -21.5t19.5 -52.5zM519 65q0 -31 -19.5 -52t-49.5 -21t-49 21t-19 52t19.5 52.5
t48.5 21.5q30 0 49.5 -21.5t19.5 -52.5z" />
    <glyph glyph-name="perthousand" unicode="&#x2030;" horiz-adv-x="949" 
d="M300 540q0 -78 -36 -127.5t-98 -49.5q-60 0 -96 49.5t-36 127.5q0 80 35.5 130t96.5 50q62 0 98 -50t36 -130zM219 541q0 47 -14 76t-39 29q-24 0 -37.5 -29.5t-13.5 -75.5q0 -45 13.5 -74.5t37.5 -29.5q25 0 39 29.5t14 74.5zM610 165q0 -78 -36 -127.5t-98 -49.5
q-60 0 -96 49.5t-36 127.5q0 80 35.5 130t96.5 50q62 0 98 -50t36 -130zM529 166q0 47 -14 76t-39 29q-24 0 -37.5 -29.5t-13.5 -75.5q0 -45 13.5 -74.5t37.5 -29.5q25 0 39 29.5t14 74.5zM912 165q0 -78 -36 -127.5t-98 -49.5q-60 0 -96 49.5t-36 127.5q0 80 35.5 130
t96.5 50q62 0 98 -50t36 -130zM831 166q0 47 -14 76t-39 29q-24 0 -37.5 -29.5t-13.5 -75.5q0 -45 13.5 -74.5t37.5 -29.5q25 0 39 29.5t14 74.5zM498 715l-291 -737l-60 22l292 737z" />
    <glyph glyph-name="guilsinglleft" unicode="&#x2039;" horiz-adv-x="240" 
d="M35 256l106 223l64 -34l-88 -189l88 -188l-64 -35z" />
    <glyph glyph-name="guilsinglright" unicode="&#x203a;" horiz-adv-x="240" 
d="M205 256l-106 -223l-64 35l88 188l-88 189l64 34z" />
    <glyph glyph-name="fraction" unicode="&#x2044;" horiz-adv-x="100" 
d="M220 716l-278 -737l-63 19l278 738z" />
    <glyph glyph-name="Euro" unicode="&#x20ac;" horiz-adv-x="500" 
d="M451 613q-34 16 -85 16q-57 0 -96 -39.5t-53 -113.5h207l-20 -76h-203q-3 -21 -3 -47q0 -17 2 -43h190l-18 -76h-161q11 -70 51.5 -110.5t96.5 -40.5q52 0 94 23l15 -97q-47 -27 -122 -27q-101 0 -166.5 68.5t-84.5 183.5h-71l18 76h46q-1 13 -1 43q0 32 2 47h-63l18 76
h53q26 123 94.5 186.5t170.5 63.5q66 0 114 -21z" />
    <glyph glyph-name="afii61289" unicode="&#x2113;" horiz-adv-x="500" 
d="M440 48q-71 -62 -155 -62q-70 0 -110 37.5t-40 101.5v70l-57 -53h-2l-39 60l97 85v246q0 83 45.5 135.5t115.5 52.5q61 0 97.5 -39t36.5 -103q0 -143 -183 -310v-126q0 -40 19.5 -57.5t46.5 -17.5q41 0 88 38h2zM338 572q0 32 -12.5 53t-31.5 21q-20 0 -34 -24.5
t-14 -67.5v-190q92 101 92 208z" />
    <glyph glyph-name="trademark" unicode="&#x2122;" horiz-adv-x="760" 
d="M697 296h-73v326h-1l-89 -326h-60l-85 326h-2v-326h-68v412h115l73 -283l74 283h116v-412zM275 639h-77v-343h-80v343h-78v69h235v-69z" />
    <glyph glyph-name="Omega" unicode="&#x2126;" horiz-adv-x="759" 
d="M701 0h-276v189q74 15 115.5 72.5t41.5 135.5q0 91 -58.5 155t-148.5 64q-92 0 -150.5 -63.5t-58.5 -156.5q0 -79 39.5 -133.5t114.5 -73.5v-189h-274v106h172v32q-87 27 -129.5 98t-42.5 168q0 137 95 227t232 90q139 0 233.5 -88t94.5 -226q0 -100 -42 -171.5
t-131 -97.5v-32h173v-106z" />
    <glyph glyph-name="estimated" unicode="&#x212e;" horiz-adv-x="604" 
d="M561 259h-404v-181q59 -59 145 -59q122 0 193 120l35 -21q-46 -72 -98 -103.5t-130 -31.5q-115 0 -186.5 79t-71.5 197q0 119 71 197.5t187 78.5q115 0 186.5 -77t72.5 -199zM157 295h291v145q-63 60 -147 60t-144 -60v-145z" />
    <glyph glyph-name="partialdiff" unicode="&#x2202;" horiz-adv-x="556" 
d="M514 358q0 -56 -6 -104.5t-23.5 -99t-45 -86.5t-73.5 -58.5t-107 -22.5q-98 0 -158.5 64.5t-60.5 163.5q0 97 60 159t156 62q77 0 143 -55v28q1 38 -6.5 75.5t-23.5 72t-47.5 56t-73.5 21.5q-61 0 -122 -49l-59 70q86 66 175 66q74 0 129 -31.5t85 -85t44 -115t14 -131.5
zM398 264l-1 25q-57 64 -126 64q-59 0 -90.5 -41.5t-31.5 -102.5q0 -59 28.5 -98.5t85.5 -39.5q65 0 101 61.5t34 131.5z" />
    <glyph glyph-name="Delta" unicode="&#x2206;" horiz-adv-x="685" 
d="M677 0h-669l270 712h115zM519 104l-185 477l-173 -477h358z" />
    <glyph glyph-name="product" unicode="&#x220f;" horiz-adv-x="741" 
d="M679 -214h-114v897h-389v-897h-114v1000h617v-1000z" />
    <glyph glyph-name="summation" unicode="&#x2211;" horiz-adv-x="648" 
d="M624 -214h-599v89l303 417l-290 405v89h573v-103h-422l275 -390l-293 -404h453v-103z" />
    <glyph glyph-name="minus" unicode="&#x2212;" horiz-adv-x="666" 
d="M62 354h542v-102h-542v102z" />
    <glyph glyph-name="uni2215" unicode="&#x2215;" horiz-adv-x="100" 
d="M220 716l-278 -737l-63 19l278 738z" />
    <glyph glyph-name="uni2219" unicode="&#x2219;" horiz-adv-x="245" 
d="M191 263q0 -31 -19.5 -52t-49.5 -21t-49 21t-19 52t19.5 52.5t48.5 21.5q30 0 49.5 -21.5t19.5 -52.5z" />
    <glyph glyph-name="radical" unicode="&#x221a;" horiz-adv-x="537" 
d="M549 786l-211 -1000h-106l-152 317l-51 -25l-41 90l148 68l129 -273l168 823h116z" />
    <glyph glyph-name="infinity" unicode="&#x221e;" horiz-adv-x="815" 
d="M770 263q0 -78 -46 -130t-123 -52q-56 0 -100.5 29.5t-92.5 82.5q-27 -28 -42.5 -43t-40.5 -33.5t-51.5 -26.5t-57.5 -8q-77 0 -124 51t-47 129q0 77 45.5 128t121.5 51q59 0 103.5 -31t92.5 -88q48 57 92 88.5t102 31.5q76 0 122 -51t46 -128zM680 260q0 37 -21.5 61.5
t-58.5 24.5q-55 0 -135 -87q74 -82 138 -82q36 0 56.5 23.5t20.5 59.5zM350 259q-81 86 -138 86q-34 0 -55.5 -25t-21.5 -60q0 -37 21.5 -59.5t58.5 -22.5q63 0 135 81z" />
    <glyph glyph-name="integral" unicode="&#x222b;" horiz-adv-x="611" 
d="M486 709q0 -23 -15 -37.5t-37 -14.5q-27 0 -40 18.5t-19 36.5t-17 18q-16 0 -16 -26q0 -20 2 -61t2 -61v-589q0 -43 -5.5 -75.5t-19.5 -65t-44 -50t-75 -17.5q-42 0 -76.5 18.5t-34.5 57.5q0 23 15.5 38t37.5 15q21 0 34 -11.5t16.5 -25t9 -25t14.5 -11.5q4 0 7.5 2t5 5
t3 6.5t1.5 9v8.5v8v7q0 17 -2 51t-2 51v506q0 10 -0.5 39t0 43.5t1.5 42.5t5 43.5t10.5 38t17.5 35t26 25.5t36.5 18.5t48.5 5.5q41 0 75.5 -19.5t34.5 -57.5z" />
    <glyph glyph-name="approxequal" unicode="&#x2248;" horiz-adv-x="666" 
d="M602 451q-8 -74 -43.5 -123t-105.5 -49q-47 0 -136 35q-94 34 -117 34q-26 0 -42.5 -20.5t-21.5 -48.5h-71q7 72 40 118q38 55 106 55q45 0 130 -33q91 -33 128 -33q26 0 41.5 18.5t20.5 46.5h71zM600 243q-8 -75 -43 -123.5t-105 -48.5q-45 0 -136 35q-92 34 -118 34
t-42.5 -20.5t-21.5 -47.5h-71q7 72 43 122t103 50q45 0 130 -33q91 -33 128 -33q26 0 41.5 18.5t20.5 46.5h71z" />
    <glyph glyph-name="notequal" unicode="&#x2260;" horiz-adv-x="666" 
d="M586 162h-264l-74 -144l-88 45l50 99h-130v102h181l38 78h-219v102h270l72 143l90 -44l-51 -99h125v-102h-176l-38 -78h214v-102z" />
    <glyph glyph-name="lessequal" unicode="&#x2264;" horiz-adv-x="666" 
d="M586 144l-506 170v108l506 177v-113l-359 -118l359 -112v-112zM586 4h-506v107h506v-107z" />
    <glyph glyph-name="greaterequal" unicode="&#x2265;" horiz-adv-x="666" 
d="M80 144v112l359 112l-359 118v113l506 -177v-108zM80 4v107h506v-107h-506z" />
    <glyph glyph-name="lozenge" unicode="&#x25ca;" horiz-adv-x="593" 
d="M524 356l-178 -391h-100l-177 391l177 391h100zM415 356l-119 285l-118 -285l118 -286z" />
    <glyph glyph-name="uniF8FF" unicode="&#xf8ff;" horiz-adv-x="512" 
d="M222 117h56v67h-56v-67zM225 234h46q0 52 6 72q6 19 43 52q37 34 50 60t13 60q0 59 -35 95t-89 36q-56 0 -92 -34t-43 -103l50 -8q11 95 82 95q31 0 53.5 -24.5t22.5 -60.5q0 -20 -9.5 -37t-40.5 -46q-31 -31 -46 -59q-13 -25 -13 -81zM462 50h-412v617h412v-617z
M512 718h-512v-718h512v718z" />
    <glyph glyph-name="ydieresis.sc" horiz-adv-x="377" 
d="M189 325l81 237h123l-148 -346v-216h-115v216l-146 346h124zM170 702q0 -28 -17.5 -47t-42.5 -19t-42 19t-17 47q0 27 17 46t42 19q26 0 43 -19t17 -46zM327 702q0 -28 -17.5 -47t-42.5 -19q-26 0 -42.5 19t-16.5 47q0 27 16.5 46t42.5 19q25 0 42.5 -19t17.5 -46z" />
    <glyph glyph-name="n.sc" horiz-adv-x="521" 
d="M452 0h-130l-151 388h-2l5 -388h-105v562h132l149 -390h2l-5 390h105v-562z" />
    <glyph glyph-name="umacron.sc" horiz-adv-x="504" 
d="M442 203q0 -96 -46.5 -156.5t-145.5 -60.5q-98 0 -143 60t-45 157v359h114v-352q0 -117 74 -117q78 0 78 117v352h114v-359zM390 658h-274v66h274v-66z" />
    <glyph glyph-name="ohungarumlaut.sc" horiz-adv-x="513" 
d="M472 282q0 -132 -57.5 -214t-158.5 -82q-102 0 -159.5 81.5t-57.5 214.5t57.5 213.5t159.5 80.5q101 0 158.5 -80.5t57.5 -213.5zM358 282q0 87 -28 139.5t-74 52.5q-48 0 -75.5 -52.5t-27.5 -139.5q0 -86 27.5 -138.5t75.5 -52.5q47 0 74.5 52.5t27.5 138.5zM335 764
l-109 -144h-82l90 144h101zM480 764l-110 -144h-82l90 144h102z" />
    <glyph glyph-name="iogonek.sc" horiz-adv-x="254" 
d="M185 -138l25 -52q-45 -38 -97 -38q-40 0 -68 21.5t-28 64.5q0 65 92 142h-40v562h116v-562h-3q-46 -43 -65 -69t-19 -51q0 -18 10 -28.5t26 -10.5q28 0 51 21z" />
    <glyph glyph-name="p.sc" horiz-adv-x="435" 
d="M413 390q0 -84 -49 -130t-119 -46h-62v-214h-114v562h172q69 0 120.5 -41.5t51.5 -130.5zM301 388q0 74 -65 74h-53v-151h53q28 0 46.5 20t18.5 57z" />
    <glyph glyph-name="macron.sc" 
d="M263 658h-274v66h274v-66z" />
    <glyph glyph-name="ugrave.sc" horiz-adv-x="504" 
d="M442 203q0 -96 -46.5 -156.5t-145.5 -60.5q-98 0 -143 60t-45 157v359h114v-352q0 -117 74 -117q78 0 78 117v352h114v-359zM298 620h-85l-109 144h104z" />
    <glyph glyph-name="oe.sc" horiz-adv-x="595" 
d="M555 0h-290q-115 0 -175 74.5t-60 207.5q0 132 60 206t175 74h282v-100h-157v-123h145v-96h-145v-141h165v-102zM279 99v366h-18q-49 0 -83 -47.5t-34 -135.5q0 -89 34 -136t83 -47h18z" />
    <glyph glyph-name="udieresis.sc" horiz-adv-x="504" 
d="M442 203q0 -96 -46.5 -156.5t-145.5 -60.5q-98 0 -143 60t-45 157v359h114v-352q0 -117 74 -117q78 0 78 117v352h114v-359zM235 702q0 -28 -17.5 -47t-42.5 -19t-42 19t-17 47q0 27 17 46t42 19q26 0 43 -19t17 -46zM392 702q0 -28 -17.5 -47t-42.5 -19q-26 0 -42.5 19
t-16.5 47q0 27 16.5 46t42.5 19q25 0 42.5 -19t17.5 -46z" />
    <glyph glyph-name="grave.sc" 
d="M194 620h-85l-109 144h104z" />
    <glyph glyph-name="hungarumlaut.cap" 
d="M314 908l-110 -144h-82l90 144h102zM169 908l-109 -144h-82l90 144h101z" />
    <glyph glyph-name="otilde.sc" horiz-adv-x="513" 
d="M472 282q0 -132 -57.5 -214t-158.5 -82q-102 0 -159.5 81.5t-57.5 214.5t57.5 213.5t159.5 80.5q101 0 158.5 -80.5t57.5 -213.5zM358 282q0 87 -28 139.5t-74 52.5q-48 0 -75.5 -52.5t-27.5 -139.5q0 -86 27.5 -138.5t75.5 -52.5q47 0 74.5 52.5t27.5 138.5zM399 750
q-3 -58 -24 -88t-56 -30q-30 0 -67 25t-55 25q-31 0 -37 -50h-47q3 52 24.5 85t55.5 33q31 0 68 -25t56 -25q30 0 36 50h46z" />
    <glyph glyph-name="imacron.sc" horiz-adv-x="254" 
d="M184 0h-116v562h116v-562zM265 658h-274v66h274v-66z" />
    <glyph glyph-name="ocircumflex.sc" horiz-adv-x="513" 
d="M472 282q0 -132 -57.5 -214t-158.5 -82q-102 0 -159.5 81.5t-57.5 214.5t57.5 213.5t159.5 80.5q101 0 158.5 -80.5t57.5 -213.5zM358 282q0 87 -28 139.5t-74 52.5q-48 0 -75.5 -52.5t-27.5 -139.5q0 -86 27.5 -138.5t75.5 -52.5q47 0 74.5 52.5t27.5 138.5zM414 620
h-90l-69 93l-68 -93h-89l110 144h97z" />
    <glyph glyph-name="perthousand.sc" horiz-adv-x="732" 
d="M126 286q-51 0 -80 40.5t-29 102.5t29 102.5t80 40.5t80.5 -40.5t29.5 -102.5t-29.5 -102.5t-80.5 -40.5zM126 500q-30 0 -30 -70q0 -72 30 -72q31 0 31 72q0 70 -31 70zM380 -10q-51 0 -80.5 41t-29.5 102t29 102t81 41q51 0 79.5 -41t28.5 -102q0 -62 -28.5 -102.5
t-79.5 -40.5zM380 204q-31 0 -31 -71t31 -71q30 0 30 71t-30 71zM608 -10q-51 0 -79.5 40.5t-28.5 102.5q0 61 28.5 102t79.5 41t80.5 -41t29.5 -102q0 -62 -29.5 -102.5t-80.5 -40.5zM608 204q-29 0 -29 -71t29 -71q31 0 31 71t-31 71zM168 -20l-68 24l240 584l67 -24z" />
    <glyph glyph-name="napostrophe.sc" horiz-adv-x="603" 
d="M120 562l-57 -187h-81l47 187h91zM534 0h-130l-151 388h-2l5 -388h-105v562h132l149 -390h2l-5 390h105v-562z" />
    <glyph glyph-name="ij.sc" horiz-adv-x="616" 
d="M185 0h-116v562h116v-562zM555 168q0 -86 -39.5 -134t-119.5 -48q-61 0 -100 32t-54 90l102 39q5 -24 18.5 -39t31.5 -15q27 0 37 19.5t10 62.5v387h114v-394z" />
    <glyph glyph-name="percent.sc" horiz-adv-x="620" 
d="M590 142q0 -67 -32 -110t-89 -43q-56 0 -88.5 43t-32.5 110q0 66 32.5 109t88.5 43q57 0 89 -43t32 -109zM505 142q0 77 -36 77t-36 -77q0 -78 36 -78t36 78zM271 423q0 -66 -32 -109.5t-88 -43.5q-57 0 -89 43.5t-32 109.5t32 109t89 43t88.5 -43t31.5 -109zM187 423
q0 35 -9.5 56.5t-26.5 21.5q-35 0 -35 -78q0 -77 35 -77q36 0 36 77zM466 564l-243 -584l-70 24l242 585z" />
    <glyph glyph-name="obreve.sc" horiz-adv-x="513" 
d="M472 282q0 -132 -57.5 -214t-158.5 -82q-102 0 -159.5 81.5t-57.5 214.5t57.5 213.5t159.5 80.5q101 0 158.5 -80.5t57.5 -213.5zM358 282q0 87 -28 139.5t-74 52.5q-48 0 -75.5 -52.5t-27.5 -139.5q0 -86 27.5 -138.5t75.5 -52.5q47 0 74.5 52.5t27.5 138.5zM397 758
q-7 -70 -45.5 -103t-96.5 -33q-57 0 -95.5 33t-44.5 103h66q4 -33 25.5 -49.5t48.5 -16.5q65 0 76 66h66z" />
    <glyph glyph-name="two.onum" horiz-adv-x="479" 
d="M56 0v103q151 127 201.5 181.5t50.5 107.5q0 40 -20.5 65t-57.5 25q-28 0 -53 -20t-40 -56l-95 39q26 64 75 101.5t116 37.5q89 0 139 -49t50 -133q0 -34 -13.5 -69t-29 -59t-51.5 -60t-55.5 -52.5t-66.5 -56.5v-3h218v-102h-368z" />
    <glyph glyph-name="nine.sc" horiz-adv-x="455" 
d="M409 379q0 -76 -46 -163l-115 -216h-128l115 205l-2 1q-17 -6 -33 -6q-69 0 -112.5 47t-43.5 136q0 87 51 140t132 53q83 0 132.5 -53.5t49.5 -143.5zM296 385q0 45 -19.5 69.5t-49.5 24.5q-29 0 -48 -25t-19 -70q0 -44 18 -69.5t48 -25.5q29 0 49.5 27t20.5 69z" />
    <glyph glyph-name="oacute.sc" horiz-adv-x="513" 
d="M472 282q0 -132 -57.5 -214t-158.5 -82q-102 0 -159.5 81.5t-57.5 214.5t57.5 213.5t159.5 80.5q101 0 158.5 -80.5t57.5 -213.5zM358 282q0 87 -28 139.5t-74 52.5q-48 0 -75.5 -52.5t-27.5 -139.5q0 -86 27.5 -138.5t75.5 -52.5q47 0 74.5 52.5t27.5 138.5zM396 764
l-109 -144h-85l90 144h104z" />
    <glyph glyph-name="idotaccent.sc" horiz-adv-x="254" 
d="M185 0h-116v562h116v-562zM193 701q0 -30 -19.5 -50.5t-47.5 -20.5q-30 0 -48.5 20.5t-18.5 50.5q0 31 19 52t48 21t48 -21.5t19 -51.5z" />
    <glyph glyph-name="ucircumflex.sc" horiz-adv-x="504" 
d="M442 203q0 -96 -46.5 -156.5t-145.5 -60.5q-98 0 -143 60t-45 157v359h114v-352q0 -117 74 -117q78 0 78 117v352h114v-359zM412 620h-90l-69 93l-68 -93h-89l110 144h97z" />
    <glyph glyph-name="macron.cap" 
d="M263 802h-274v66h274v-66z" />
    <glyph glyph-name="oslash.sc" horiz-adv-x="513" 
d="M448 571l-37 -70q62 -81 62 -219q0 -132 -57.5 -214t-158.5 -82q-62 0 -111 33l-34 -66l-57 24l47 84q-63 81 -63 221q0 133 58 213.5t160 80.5q63 0 109 -32l26 52zM360 284q0 53 -14 104l-146 -273q23 -28 57 -28q46 0 74.5 54.5t28.5 142.5zM153 276q0 -63 12 -108
l148 281q-24 29 -57 29q-48 0 -75.5 -55t-27.5 -147z" />
    <glyph glyph-name="yacute.sc" horiz-adv-x="377" 
d="M189 325l81 237h123l-148 -346v-216h-115v216l-146 346h124zM337 764l-109 -144h-85l90 144h104z" />
    <glyph glyph-name="uhungarumlaut.sc" horiz-adv-x="504" 
d="M442 203q0 -96 -46.5 -156.5t-145.5 -60.5q-98 0 -143 60t-45 157v359h114v-352q0 -117 74 -117q78 0 78 117v352h114v-359zM333 764l-109 -144h-82l90 144h101zM478 764l-110 -144h-82l90 144h102z" />
    <glyph glyph-name="omacron.sc" horiz-adv-x="513" 
d="M472 282q0 -132 -57.5 -214t-158.5 -82q-102 0 -159.5 81.5t-57.5 214.5t57.5 213.5t159.5 80.5q101 0 158.5 -80.5t57.5 -213.5zM358 282q0 87 -28 139.5t-74 52.5q-48 0 -75.5 -52.5t-27.5 -139.5q0 -86 27.5 -138.5t75.5 -52.5q47 0 74.5 52.5t27.5 138.5zM393 658
h-274v66h274v-66z" />
    <glyph glyph-name="z.sc" horiz-adv-x="382" 
d="M349 0h-321v90l192 372h-178v100h307v-89l-186 -371h186v-102z" />
    <glyph glyph-name="questiondown.sc" horiz-adv-x="370" 
d="M23 135q0 47 19 79t56 66q22 20 29 35t7 38v24h103v-34q0 -69 -62 -129q-40 -40 -40 -71q0 -58 49 -58q23 0 38.5 21t17.5 53l101 -18q-9 -70 -51 -112.5t-113 -42.5t-112.5 39t-41.5 110zM111 500q0 29 20 49.5t49 20.5q30 0 49.5 -20t19.5 -50t-19.5 -50.5t-49.5 -20.5
q-29 0 -49 21t-20 50z" />
    <glyph glyph-name="idieresis.sc" horiz-adv-x="254" 
d="M184 0h-116v562h116v-562zM109 702q0 -28 -17.5 -47t-42.5 -19t-42 19t-17 47q0 27 17 46t42 19q26 0 43 -19t17 -46zM266 702q0 -28 -17.5 -47t-42.5 -19q-26 0 -42.5 19t-16.5 47q0 27 16.5 46t42.5 19q25 0 42.5 -19t17.5 -46z" />
    <glyph glyph-name="one.sc" horiz-adv-x="455" 
d="M320 0h-114v426l-90 -64l-56 89l157 111h103v-562z" />
    <glyph glyph-name="question.sc" horiz-adv-x="370" 
d="M347 427q0 -47 -19 -79t-56 -66q-22 -19 -29 -34.5t-7 -38.5v-24h-103v34q0 69 62 129q40 40 40 71q0 58 -49 58q-23 0 -38.5 -21t-17.5 -53l-101 18q9 70 51 112.5t113 42.5t112.5 -39t41.5 -110zM259 62q0 -29 -20 -49.5t-49 -20.5q-30 0 -49.5 20t-19.5 50t19.5 50.5
t49.5 20.5q29 0 49 -21t20 -50z" />
    <glyph glyph-name="iacute.sc" horiz-adv-x="254" 
d="M185 0h-116v562h116v-562zM271 764l-109 -144h-85l90 144h104z" />
    <glyph glyph-name="three.sc" horiz-adv-x="455" 
d="M400 161q0 -77 -49.5 -126t-128.5 -49q-71 0 -119.5 36t-65.5 104l108 26q18 -67 75 -67q33 0 49.5 23.5t16.5 56.5q0 38 -22.5 59t-60.5 21h-37v92h40q68 0 68 76q0 27 -14 45.5t-41 18.5q-42 0 -60 -54l-106 25q21 64 67 96t104 32q70 0 116.5 -41t46.5 -112
q0 -43 -19 -77t-55 -48v-4q87 -28 87 -133z" />
    <glyph glyph-name="ordfeminine.sc" horiz-adv-x="311" 
d="M296 397h-82l-16 61h-86l-15 -61h-79l88 319h102zM187 513l-30 135h-2l-32 -135h64z" />
    <glyph glyph-name="l.sc" horiz-adv-x="352" 
d="M346 0h-277v562h115v-460h162v-102z" />
    <glyph glyph-name="scommaaccent.sc" horiz-adv-x="378" 
d="M231 -45l-57 -187h-81l47 187h91zM355 514l-67 -82q-33 41 -82 41q-26 0 -43 -15.5t-17 -48.5q0 -26 17.5 -44t54.5 -36q36 -17 60.5 -34t47 -52t22.5 -80q0 -81 -50.5 -129t-123.5 -48q-100 0 -166 71l66 84q47 -51 98 -51q28 0 44.5 17.5t16.5 48.5q0 30 -21.5 49.5
t-63.5 40.5q-53 24 -83.5 59t-30.5 99q0 83 51 127.5t120 44.5q95 0 150 -62z" />
    <glyph glyph-name="uring.sc" horiz-adv-x="504" 
d="M442 203q0 -96 -46.5 -156.5t-145.5 -60.5q-98 0 -143 60t-45 157v359h114v-352q0 -117 74 -117q78 0 78 117v352h114v-359zM351 709q0 -45 -27.5 -75.5t-70.5 -30.5t-70 30t-27 76t27 76t70 30t70.5 -30.5t27.5 -75.5zM308 709q0 28 -15 47t-40 19t-39.5 -19t-14.5 -47
t14.5 -47t39.5 -19t40 19t15 47z" />
    <glyph glyph-name="i.sc" horiz-adv-x="254" 
d="M185 0h-116v562h116v-562z" />
    <glyph glyph-name="hcircumflex.sc" horiz-adv-x="524" 
d="M455 0h-114v242h-158v-242h-114v562h114v-218h158v218h114v-562zM422 620h-90l-69 93l-68 -93h-89l110 144h97z" />
    <glyph glyph-name="ograve.sc" horiz-adv-x="513" 
d="M472 282q0 -132 -57.5 -214t-158.5 -82q-102 0 -159.5 81.5t-57.5 214.5t57.5 213.5t159.5 80.5q101 0 158.5 -80.5t57.5 -213.5zM358 282q0 87 -28 139.5t-74 52.5q-48 0 -75.5 -52.5t-27.5 -139.5q0 -86 27.5 -138.5t75.5 -52.5q47 0 74.5 52.5t27.5 138.5zM305 620
h-85l-109 144h104z" />
    <glyph glyph-name="ycircumflex.sc" horiz-adv-x="377" 
d="M189 325l81 237h123l-148 -346v-216h-115v216l-146 346h124zM348 620h-90l-69 93l-68 -93h-89l110 144h97z" />
    <glyph glyph-name="o.sc" horiz-adv-x="513" 
d="M472 282q0 -132 -57.5 -214t-158.5 -82q-102 0 -159.5 81.5t-57.5 214.5t57.5 213.5t159.5 80.5q101 0 158.5 -80.5t57.5 -213.5zM358 282q0 87 -28 139.5t-74 52.5q-48 0 -75.5 -52.5t-27.5 -139.5q0 -86 27.5 -138.5t75.5 -52.5q47 0 74.5 52.5t27.5 138.5z" />
    <glyph glyph-name="scircumflex.sc" horiz-adv-x="378" 
d="M355 514l-67 -82q-33 41 -82 41q-26 0 -43 -15.5t-17 -48.5q0 -26 17.5 -44t54.5 -36q36 -17 60.5 -34t47 -52t22.5 -80q0 -81 -50.5 -129t-123.5 -48q-100 0 -166 71l66 84q47 -51 98 -51q28 0 44.5 17.5t16.5 48.5q0 30 -21.5 49.5t-63.5 40.5q-53 24 -83.5 59
t-30.5 99q0 83 51 127.5t120 44.5q95 0 150 -62zM368 620h-90l-69 93l-68 -93h-89l110 144h97z" />
    <glyph glyph-name="j.sc" horiz-adv-x="354" 
d="M293 168q0 -86 -39.5 -134t-119.5 -48q-61 0 -100 32t-54 90l102 39q5 -24 18.5 -39t31.5 -15q27 0 37 19.5t10 62.5v387h114v-394z" />
    <glyph glyph-name="igrave.sc" horiz-adv-x="254" 
d="M184 0h-116v562h116v-562zM181 620h-85l-109 144h104z" />
    <glyph glyph-name="aring.sc" horiz-adv-x="432" 
d="M427 0h-113l-27 112h-144l-26 -112h-112l142 562h141zM269 204l-53 252h-2l-53 -252h108zM313 709q0 -45 -27.5 -75.5t-70.5 -30.5t-70 30t-27 76t27 76t70 30t70.5 -30.5t27.5 -75.5zM270 709q0 28 -15 47t-40 19t-39.5 -19t-14.5 -47t14.5 -47t39.5 -19t40 19t15 47z
" />
    <glyph glyph-name="ring.sc" 
d="M224 709q0 -45 -27.5 -75.5t-70.5 -30.5t-70 30t-27 76t27 76t70 30t70.5 -30.5t27.5 -75.5zM181 709q0 28 -15 47t-40 19t-39.5 -19t-14.5 -47t14.5 -47t39.5 -19t40 19t15 47z" />
    <glyph glyph-name="hungarumlaut.sc" 
d="M169 764l-109 -144h-82l90 144h101zM314 764l-110 -144h-82l90 144h102z" />
    <glyph glyph-name="sterling.sc" horiz-adv-x="455" 
d="M426 533l-60 -88q-25 25 -53 25q-63 0 -63 -88v-45h98v-90h-98v-143h150v-104h-335v104h69v143h-65v90h65v54q0 74 42 129.5t128 55.5q68 0 122 -43z" />
    <glyph glyph-name="nacute.sc" horiz-adv-x="521" 
d="M452 0h-130l-151 388h-2l5 -388h-105v562h132l149 -390h2l-5 390h105v-562zM410 764l-109 -144h-85l90 144h104z" />
    <glyph glyph-name="ubreve.sc" horiz-adv-x="504" 
d="M442 203q0 -96 -46.5 -156.5t-145.5 -60.5q-98 0 -143 60t-45 157v359h114v-352q0 -117 74 -117q78 0 78 117v352h114v-359zM394 758q-7 -70 -45.5 -103t-96.5 -33q-57 0 -95.5 33t-44.5 103h66q4 -33 25.5 -49.5t48.5 -16.5q65 0 76 66h66z" />
    <glyph glyph-name="seven.sc" horiz-adv-x="455" 
d="M396 478l-177 -478h-126l180 459h-221v103h344v-84z" />
    <glyph glyph-name="odieresis.sc" horiz-adv-x="513" 
d="M472 282q0 -132 -57.5 -214t-158.5 -82q-102 0 -159.5 81.5t-57.5 214.5t57.5 213.5t159.5 80.5q101 0 158.5 -80.5t57.5 -213.5zM358 282q0 87 -28 139.5t-74 52.5q-48 0 -75.5 -52.5t-27.5 -139.5q0 -86 27.5 -138.5t75.5 -52.5q47 0 74.5 52.5t27.5 138.5zM237 702
q0 -28 -17.5 -47t-42.5 -19t-42 19t-17 47q0 27 17 46t42 19q26 0 43 -19t17 -46zM394 702q0 -28 -17.5 -47t-42.5 -19q-26 0 -42.5 19t-16.5 47q0 27 16.5 46t42.5 19q25 0 42.5 -19t17.5 -46z" />
    <glyph glyph-name="zcaron.sc" horiz-adv-x="382" 
d="M349 0h-321v90l192 372h-178v100h307v-89l-186 -371h186v-102zM355 763l-110 -144h-97l-109 144h89l69 -94l69 94h89z" />
    <glyph glyph-name="nine.onum" horiz-adv-x="512" 
d="M256 585q96 0 154 -63.5t58 -174.5q0 -237 -277 -496l-97 63q57 50 112 113t86 118l-1 1q-28 -23 -68 -23q-76 0 -127.5 57t-51.5 166q0 110 59 174.5t153 64.5zM158 348q0 -63 25 -101t71 -38q44 0 71.5 39.5t27.5 100.5q0 63 -26.5 101t-71.5 38t-71 -38.5t-26 -101.5z
" />
    <glyph glyph-name="germandbls.sc" horiz-adv-x="756" 
d="M355 514l-67 -82q-33 41 -82 41q-26 0 -43 -15.5t-17 -48.5q0 -26 17.5 -44t54.5 -36q36 -17 60.5 -34t47 -52t22.5 -80q0 -81 -50.5 -129t-123.5 -48q-100 0 -166 71l66 84q47 -51 98 -51q28 0 44.5 17.5t16.5 48.5q0 30 -21.5 49.5t-63.5 40.5q-53 24 -83.5 59
t-30.5 99q0 83 51 127.5t120 44.5q95 0 150 -62zM733 514l-67 -82q-33 41 -82 41q-26 0 -43 -15.5t-17 -48.5q0 -26 17.5 -44t54.5 -36q36 -17 60.5 -34t47 -52t22.5 -80q0 -81 -50.5 -129t-123.5 -48q-100 0 -166 71l66 84q47 -51 98 -51q28 0 44.5 17.5t16.5 48.5
q0 30 -21.5 49.5t-63.5 40.5q-53 24 -83.5 59t-30.5 99q0 83 51 127.5t120 44.5q95 0 150 -62z" />
    <glyph glyph-name="aacute.sc" horiz-adv-x="432" 
d="M427 0h-113l-27 112h-144l-26 -112h-112l142 562h141zM269 204l-53 252h-2l-53 -252h108zM353 764l-109 -144h-85l90 144h104z" />
    <glyph glyph-name="q.sc" horiz-adv-x="513" 
d="M497 0h-244q-99 0 -156.5 77.5t-57.5 207.5q0 132 58 211.5t159 79.5t158 -78.5t57 -206.5q0 -56 -17 -110t-44 -82l87 3v-102zM359 284q0 86 -28.5 138t-74.5 52q-48 0 -75.5 -52t-27.5 -138q0 -85 27.5 -136.5t75.5 -51.5q47 0 75 51.5t28 136.5z" />
    <glyph glyph-name="exclamdown.sc" horiz-adv-x="270" 
d="M193 377v-377h-117v377h117zM204 500q0 -29 -20 -50t-49 -21q-30 0 -49.5 20.5t-19.5 50.5t19.5 50t49.5 20q29 0 49 -20.5t20 -49.5z" />
    <glyph glyph-name="jcircumflex.sc" horiz-adv-x="354" 
d="M293 168q0 -86 -39.5 -134t-119.5 -48q-61 0 -100 32t-54 90l102 39q5 -24 18.5 -39t31.5 -15q27 0 37 19.5t10 62.5v387h114v-394zM390 620h-90l-69 93l-68 -93h-89l110 144h97z" />
    <glyph glyph-name="lacute.sc" horiz-adv-x="352" 
d="M346 0h-277v562h115v-460h162v-102zM278 764l-109 -144h-85l90 144h104z" />
    <glyph glyph-name="zacute.sc" horiz-adv-x="382" 
d="M349 0h-321v90l192 372h-178v100h307v-89l-186 -371h186v-102zM335 764l-109 -144h-85l90 144h104z" />
    <glyph glyph-name="six.onum" horiz-adv-x="512" 
d="M316 725l96 -62q-129 -113 -191 -226l1 -1q26 21 68 21q76 0 127 -57.5t51 -169.5q0 -113 -59 -178.5t-153 -65.5q-96 0 -154 65t-58 176q0 239 272 498zM354 231q0 64 -25 103t-71 39q-44 0 -71.5 -41t-27.5 -103q0 -65 26.5 -104.5t71.5 -39.5t71 40t26 106z" />
    <glyph glyph-name="k.sc" horiz-adv-x="458" 
d="M457 0h-131l-141 273h-2v-273h-114v562h114v-247h2l133 247h128l-157 -258z" />
    <glyph glyph-name="tcommaaccent.sc" horiz-adv-x="335" 
d="M209 -45l-57 -187h-81l47 187h91zM333 462h-110v-462h-113v462h-108v100h331v-100z" />
    <glyph glyph-name="r.sc" horiz-adv-x="457" 
d="M438 0h-122l-86 231h-48v-231h-113v562h174q80 0 128.5 -41t48.5 -123q0 -56 -26 -94t-60 -52zM307 393q0 71 -71 71h-54v-145h53q32 0 52 19t20 55z" />
    <glyph glyph-name="lslash.sc" horiz-adv-x="352" 
d="M345 0h-277v171l-39 -34v94l39 33v298h117v-228l114 95v-92l-114 -96v-139h160v-102z" />
    <glyph glyph-name="scaron.sc" horiz-adv-x="378" 
d="M355 514l-67 -82q-33 41 -82 41q-26 0 -43 -15.5t-17 -48.5q0 -26 17.5 -44t54.5 -36q36 -17 60.5 -34t47 -52t22.5 -80q0 -81 -50.5 -129t-123.5 -48q-100 0 -166 71l66 84q47 -51 98 -51q28 0 44.5 17.5t16.5 48.5q0 30 -21.5 49.5t-63.5 40.5q-53 24 -83.5 59
t-30.5 99q0 83 51 127.5t120 44.5q95 0 150 -62zM370 763l-110 -144h-97l-109 144h89l69 -94l69 94h89z" />
    <glyph glyph-name="icircumflex.sc" horiz-adv-x="254" 
d="M184 0h-116v562h116v-562zM286 620h-90l-69 93l-68 -93h-89l110 144h97z" />
    <glyph glyph-name="itilde.sc" horiz-adv-x="254" 
d="M184 0h-116v562h116v-562zM273 750q-3 -58 -24 -88t-56 -30q-30 0 -67 25t-55 25q-31 0 -37 -50h-47q3 52 24.5 85t55.5 33q31 0 68 -25t56 -25q30 0 36 50h46z" />
    <glyph glyph-name="s.sc" horiz-adv-x="378" 
d="M355 514l-67 -82q-33 41 -82 41q-26 0 -43 -15.5t-17 -48.5q0 -26 17.5 -44t54.5 -36q36 -17 60.5 -34t47 -52t22.5 -80q0 -81 -50.5 -129t-123.5 -48q-100 0 -166 71l66 84q47 -51 98 -51q28 0 44.5 17.5t16.5 48.5q0 30 -21.5 49.5t-63.5 40.5q-53 24 -83.5 59
t-30.5 99q0 83 51 127.5t120 44.5q95 0 150 -62z" />
    <glyph glyph-name="hbar.sc" horiz-adv-x="524" 
d="M455 0h-114v232h-158v-232h-114v562h114v-95h158v95h114v-562zM183 334h158v66h-158v-66z" />
    <glyph glyph-name="y.sc" horiz-adv-x="377" 
d="M189 325l81 237h123l-148 -346v-216h-115v216l-146 346h124z" />
    <glyph glyph-name="kcommaaccent.sc" horiz-adv-x="458" 
d="M300 -45l-57 -187h-81l47 187h91zM457 0h-131l-141 273h-2v-273h-114v562h114v-247h2l133 247h128l-157 -258z" />
    <glyph glyph-name="zdotaccent.sc" horiz-adv-x="382" 
d="M349 0h-321v90l192 372h-178v100h307v-89l-186 -371h186v-102zM264 701q0 -30 -19.5 -50.5t-47.5 -20.5q-30 0 -48.5 20.5t-18.5 50.5q0 31 19 52t48 21t48 -21.5t19 -51.5z" />
    <glyph glyph-name="exclam.sc" horiz-adv-x="270" 
d="M193 185h-117v377h117v-377zM204 62q0 -29 -20 -49.5t-49 -20.5q-30 0 -49.5 20t-19.5 50t19.5 50.5t49.5 20.5q29 0 49 -21t20 -50z" />
    <glyph glyph-name="a.sc" horiz-adv-x="432" 
d="M427 0h-113l-27 112h-144l-26 -112h-112l142 562h141zM269 204l-53 252h-2l-53 -252h108z" />
    <glyph glyph-name="h.sc" horiz-adv-x="524" 
d="M455 0h-114v242h-158v-242h-114v562h114v-218h158v218h114v-562z" />
    <glyph glyph-name="m.sc" horiz-adv-x="659" 
d="M590 0h-110l5 419h-3l-111 -419h-89l-108 419h-3l5 -419h-107v562h164l95 -391h3l89 391h170v-562z" />
    <glyph glyph-name="tilde.sc" 
d="M268 750q-3 -58 -24 -88t-56 -30q-30 0 -67 25t-55 25q-31 0 -37 -50h-47q3 52 24.5 85t55.5 33q31 0 68 -25q38 -25 56 -25q30 0 36 50h46z" />
    <glyph glyph-name="grave.cap" 
d="M194 764h-85l-109 144h104z" />
    <glyph glyph-name="seven.onum" horiz-adv-x="452" 
d="M420 568v-96q-151 -382 -233 -633q-29 7 -116 25q108 309 226 596h-262v108h385z" />
    <glyph glyph-name="tbar.sc" horiz-adv-x="335" 
d="M333 462h-110v-92h73v-76h-73v-294h-113v294h-71v76h71v92h-108v100h331v-100z" />
    <glyph glyph-name="acute.cap" 
d="M252 908l-109 -144h-85l90 144h104z" />
    <glyph glyph-name="wcircumflex.sc" horiz-adv-x="686" 
d="M672 562l-122 -562h-130l-80 391h-1l-81 -391h-127l-117 562h119l70 -419h2l82 419h110l83 -419h2l72 419h118zM500 620h-90l-69 93l-68 -93h-89l110 144h97z" />
    <glyph glyph-name="ebreve.sc" horiz-adv-x="395" 
d="M355 0h-286v562h277v-100h-164v-123h152v-96h-152v-141h173v-102zM350 758q-7 -70 -45.5 -103t-96.5 -33q-57 0 -95.5 33t-44.5 103h66q4 -33 25.5 -49.5t48.5 -16.5q65 0 76 66h66z" />
    <glyph glyph-name="ncommaaccent.sc" horiz-adv-x="521" 
d="M312 -45l-57 -187h-81l47 187h91zM452 0h-130l-151 388h-2l5 -388h-105v562h132l149 -390h2l-5 390h105v-562z" />
    <glyph glyph-name="three.onum" horiz-adv-x="453" 
d="M400 453q-94 -90 -181 -165l1 -3q6 2 24 2q76 0 125.5 -54.5t49.5 -142.5q0 -120 -74 -185t-185 -65q-60 0 -103 9l13 108q33 -8 81 -8q69 0 109 36t40 101q0 53 -33.5 84t-94.5 31q-41 0 -88 -14l-20 92q89 75 204 181v4h-217v104h349v-115z" />
    <glyph glyph-name="one.onum" horiz-adv-x="394" 
d="M284 0h-114v426l-90 -64l-56 89l157 111h103v-562z" />
    <glyph glyph-name="ntilde.sc" horiz-adv-x="521" 
d="M452 0h-130l-151 388h-2l5 -388h-105v562h132l149 -390h2l-5 390h105v-562zM405 750q-3 -58 -24 -88t-56 -30q-30 0 -67 25t-55 25q-31 0 -37 -50h-47q3 52 24.5 85t55.5 33q31 0 68 -25t56 -25q30 0 36 50h46z" />
    <glyph glyph-name="w.sc" horiz-adv-x="686" 
d="M672 562l-122 -562h-130l-80 391h-1l-81 -391h-127l-117 562h119l70 -419h2l82 419h110l83 -419h2l72 419h118z" />
    <glyph glyph-name="acute.sc" 
d="M252 764l-109 -144h-85l90 144h104z" />
    <glyph glyph-name="four.sc" horiz-adv-x="455" 
d="M416 118h-63v-118h-109v118h-207v93l169 351h147v-348h63v-96zM246 214v219h-3l-98 -219h101z" />
    <glyph glyph-name="Euro.sc" horiz-adv-x="455" 
d="M390 460q-36 16 -74 16q-81 0 -105 -95h165l-22 -78h-160q-1 -9 -1 -26q0 -3 0.5 -10.5t0.5 -11.5h154l-19 -78h-123q10 -44 38.5 -69t65.5 -25q38 0 83 24l15 -96q-45 -25 -108 -25q-83 0 -137.5 52t-71.5 139h-61l20 78h33v22q0 17 1 26h-52l19 78h42q22 92 79 140.5
t140 48.5q58 0 104 -20z" />
    <glyph glyph-name="dotaccent.cap" 
d="M193 845q0 -30 -19.5 -50.5t-47.5 -20.5q-30 0 -48.5 20.5t-18.5 50.5q0 31 19 52t48 21t48 -21.5t19 -51.5z" />
    <glyph glyph-name="aogonek.sc" horiz-adv-x="432" 
d="M392 -138l25 -52q-45 -38 -97 -38q-40 0 -68 21.5t-28 64.5q0 65 92 142h-2l-27 112h-144l-26 -112h-112l142 562h141l139 -562h-38q-46 -43 -65 -69t-19 -51q0 -18 10 -28.5t26 -10.5q29 0 51 21zM269 204l-53 252h-2l-53 -252h108z" />
    <glyph glyph-name="five.onum" horiz-adv-x="453" 
d="M192 461l-12 -160q25 5 42 5q87 0 140.5 -55.5t53.5 -156.5q0 -125 -72.5 -189.5t-181.5 -64.5q-45 0 -101 8l12 110q40 -8 77 -8q69 0 106.5 36t37.5 105q0 60 -33.5 91.5t-88.5 31.5t-104 -17l27 371h311v-107h-214z" />
    <glyph glyph-name="florin.sc" horiz-adv-x="455" 
d="M391 459q-29 17 -44 17q-20 0 -30.5 -13t-15.5 -44l-13 -70h81v-86h-95l-42 -246q-23 -129 -131 -129q-39 0 -72 14l24 95q22 -12 31 -12q15 0 23.5 10t11.5 21.5t7 35.5l35 211h-72v86h84q1 8 5 32t6 35t7 33t10 33.5t13.5 29t19.5 26.5t25 19t33 14t41 4q48 0 91 -24z
" />
    <glyph glyph-name="atilde.sc" horiz-adv-x="432" 
d="M427 0h-113l-27 112h-144l-26 -112h-112l142 562h141zM269 204l-53 252h-2l-53 -252h108zM357 750q-3 -58 -24 -88t-56 -30q-30 0 -67 25t-55 25q-31 0 -37 -50h-47q3 52 24.5 85t55.5 33q31 0 68 -25t56 -25q30 0 36 50h46z" />
    <glyph glyph-name="dollar.sc" horiz-adv-x="455" 
d="M398 164q0 -70 -39.5 -114.5t-103.5 -50.5v-63h-62v63q-82 9 -144 63l60 84q41 -41 84 -48v142q-63 22 -98 57.5t-35 101.5q0 68 39 111t98 51v64h62v-63q80 -4 133 -57l-58 -81q-32 36 -75 43v-136q66 -26 102.5 -62t36.5 -105zM195 349v119q-38 -11 -38 -59
q0 -44 38 -60zM296 160q0 43 -40 62v-125q40 11 40 63z" />
    <glyph glyph-name="ccedilla.sc" horiz-adv-x="427" 
d="M345 420q-29 50 -85 50q-50 0 -78 -52t-28 -137q0 -84 28.5 -136t79.5 -52t83 52l69 -76q-49 -70 -127 -81l-37 -55q12 3 27 3q33 0 57.5 -18.5t24.5 -57.5q0 -49 -37.5 -70.5t-85.5 -21.5q-59 0 -99 20l20 50q34 -16 72 -16q20 0 36 9t16 29q0 32 -45 32q-23 0 -42 -8
l-24 22l53 83q-85 14 -134.5 95t-49.5 197q0 129 59.5 212t158.5 83q103 0 158 -77z" />
    <glyph glyph-name="gbreve.sc" horiz-adv-x="481" 
d="M425 37q-66 -51 -158 -51q-106 0 -167 82t-61 214q0 129 59.5 211.5t161.5 82.5q106 0 161 -74l-70 -79q-37 49 -89 49t-80 -53t-28 -137q0 -86 30 -139.5t83 -53.5q34 0 51 11v128h-71v102h178v-293zM402 758q-7 -70 -45.5 -103t-96.5 -33q-57 0 -95.5 33t-44.5 103h66
q4 -33 25.5 -49.5t48.5 -16.5q65 0 76 66h66z" />
    <glyph glyph-name="lcaron.sc" horiz-adv-x="352" 
d="M360 562l-57 -187h-81l47 187h91zM346 0h-277v562h115v-460h162v-102z" />
    <glyph glyph-name="racute.sc" horiz-adv-x="457" 
d="M438 0h-122l-86 231h-48v-231h-113v562h174q80 0 128.5 -41t48.5 -123q0 -56 -26 -94t-60 -52zM307 393q0 71 -71 71h-54v-145h53q32 0 52 19t20 55zM359 764l-109 -144h-85l90 144h104z" />
    <glyph glyph-name="dcroat.sc" horiz-adv-x="491" 
d="M69 246h-52v76h52v240h153q113 0 171.5 -74.5t58.5 -207.5t-59 -206.5t-172 -73.5h-152v246zM183 322h96v-76h-96v-147h39q50 0 83 46t33 135q0 92 -32.5 138.5t-83.5 46.5h-39v-143z" />
    <glyph glyph-name="four.onum" horiz-adv-x="511" 
d="M298 111v226h110v-226h77v-103h-77v-168h-112v168h-264v114l219 463h124l-227 -474h150z" />
    <glyph glyph-name="tilde.cap" 
d="M268 894q-3 -58 -24 -88t-56 -30q-30 0 -67 25t-55 25q-31 0 -37 -50h-47q3 52 24.5 85t55.5 33q31 0 68 -25q38 -25 56 -25q30 0 36 50h46z" />
    <glyph glyph-name="utilde.sc" horiz-adv-x="504" 
d="M442 203q0 -96 -46.5 -156.5t-145.5 -60.5q-98 0 -143 60t-45 157v359h114v-352q0 -117 74 -117q78 0 78 117v352h114v-359zM396 750q-3 -58 -24 -88t-56 -30q-30 0 -67 25t-55 25q-31 0 -37 -50h-47q3 52 24.5 85t55.5 33q30 0 68 -25t56 -25q30 0 36 50h46z" />
    <glyph glyph-name="acircumflex.sc" horiz-adv-x="432" 
d="M427 0h-113l-27 112h-144l-26 -112h-112l142 562h141zM269 204l-53 252h-2l-53 -252h108zM373 620h-90l-69 93l-68 -93h-89l110 144h97z" />
    <glyph glyph-name="fi.sc" horiz-adv-x="638" 
d="M569 0h-118v562h118v-562zM346 460h-164v-130h152v-98h-152v-232h-114v562h278v-102z" />
    <glyph glyph-name="ldot.sc" horiz-adv-x="352" 
d="M346 0h-277v562h115v-460h162v-102zM357 321q0 -30 -19.5 -50.5t-47.5 -20.5q-30 0 -48.5 20.5t-18.5 50.5q0 31 19 52t48 21t48 -21.5t19 -51.5z" />
    <glyph glyph-name="zero.sc" horiz-adv-x="455" 
d="M416 281q0 -42 -4.5 -80t-17 -78.5t-32.5 -69.5t-54.5 -48t-79.5 -19q-56 0 -95.5 27t-58.5 73.5t-27 93.5t-8 101q0 55 8 101.5t27 93t58.5 73.5t95.5 27t95 -27t58 -73t27 -93.5t8 -101.5zM301 281q0 44 -4.5 83t-22 75t-46.5 36q-23 0 -38.5 -19.5t-22.5 -52
t-10 -61.5t-3 -61t3 -61t10 -61t22.5 -51.5t38.5 -19.5q29 0 46.5 35.5t22 74.5t4.5 83z" />
    <glyph glyph-name="b.sc" horiz-adv-x="460" 
d="M331 297q85 -31 85 -135q0 -83 -51 -122.5t-118 -39.5h-178v562h160q29 0 55.5 -6t53.5 -21t43 -45.5t16 -73.5q0 -88 -66 -119zM224 467h-45v-132h46q27 0 46.5 17t19.5 51q0 64 -67 64zM229 245h-50v-148h52q33 0 53.5 18t20.5 54q0 39 -23 57.5t-53 18.5z" />
    <glyph glyph-name="caron.cap" 
d="M284 907l-110 -144h-97l-109 144h89l69 -94l69 94h89z" />
    <glyph glyph-name="two.sc" horiz-adv-x="455" 
d="M402 410q0 -50 -23 -90.5t-67 -90.5l-112 -127h195v-102h-332v99l172 199q51 59 51 111q0 30 -14.5 47.5t-40.5 17.5q-55 0 -65 -80l-109 10q21 172 180 172q79 0 122 -46t43 -120z" />
    <glyph glyph-name="dotaccent.sc" 
d="M193 701q0 -30 -19.5 -50.5t-47.5 -20.5q-30 0 -48.5 20.5t-18.5 50.5q0 31 19 52t48 21t48 -21.5t19 -51.5z" />
    <glyph glyph-name="yen.sc" horiz-adv-x="455" 
d="M321 332h70v-81h-109v-49h109v-80h-109v-122h-112v122h-108v80h108v49h-108v82h72l-106 229h119l81 -205l82 205h117z" />
    <glyph glyph-name="scedilla.sc" horiz-adv-x="378" 
d="M355 514l-67 -82q-33 41 -82 41q-26 0 -43 -15.5t-17 -48.5q0 -26 17.5 -44t54.5 -36q36 -17 60.5 -34t47 -52t22.5 -80q0 -69 -37 -114t-96 -58l-38 -58q12 3 27 3q33 0 57.5 -18.5t24.5 -57.5q0 -49 -37.5 -70.5t-85.5 -21.5q-59 0 -99 20l20 50q34 -16 72 -16
q20 0 36 9t16 29q0 32 -45 32q-23 0 -42 -8l-24 22l53 82q-87 9 -142 69l66 84q47 -51 98 -51q28 0 44.5 17.5t16.5 48.5q0 30 -21.5 49.5t-63.5 40.5q-53 24 -83.5 59t-30.5 99q0 83 51 127.5t120 44.5q95 0 150 -62z" />
    <glyph glyph-name="cent.sc" horiz-adv-x="455" 
d="M398 48q-36 -54 -111 -60v-60h-53v60q-84 5 -130 78t-46 187q0 112 46 185.5t130 80.5v64h53v-64q69 -3 110 -49l-48 -80q-26 30 -62 33v-341q40 3 69 41zM235 83v339q-37 -5 -55 -53.5t-18 -117.5t18 -115.5t55 -52.5z" />
    <glyph glyph-name="uogonek.sc" horiz-adv-x="504" 
d="M325 -138l25 -52q-45 -38 -97 -38q-40 0 -68 21.5t-28 64.5q0 63 76 129q-89 6 -130 65t-41 151v359h114v-352q0 -117 74 -117q78 0 78 117v352h114v-359q0 -78 -30.5 -133.5t-95.5 -74.5q-43 -40 -60.5 -65.5t-17.5 -49.5q0 -18 10 -28.5t26 -10.5q28 0 51 21z" />
    <glyph glyph-name="emacron.sc" horiz-adv-x="395" 
d="M355 0h-286v562h277v-100h-164v-123h152v-96h-152v-141h173v-102zM345 658h-274v66h274v-66z" />
    <glyph glyph-name="rcaron.sc" horiz-adv-x="456" 
d="M438 0h-122l-86 231h-48v-231h-113v562h174q80 0 128.5 -41t48.5 -123q0 -56 -26 -94t-60 -52zM307 393q0 71 -71 71h-54v-145h53q32 0 52 19t20 55zM395 763l-110 -144h-97l-109 144h89l69 -94l69 94h89z" />
    <glyph glyph-name="eth.sc" horiz-adv-x="491" 
d="M69 246h-52v76h52v240h153q113 0 171.5 -74.5t58.5 -207.5t-59 -206.5t-172 -73.5h-152v246zM183 322h96v-76h-96v-147h39q50 0 83 46t33 135q0 92 -32.5 138.5t-83.5 46.5h-39v-143z" />
    <glyph glyph-name="ampersand.sc" horiz-adv-x="483" 
d="M483 0h-135l-34 49q-46 -63 -125 -63q-74 0 -117 45t-43 123q0 105 92 160q-41 58 -41 119q0 67 40 106t104 39q61 0 99 -37t38 -100q0 -88 -103 -151l52 -71l38 90h115l-85 -169zM262 436q0 25 -10 40t-27 15q-18 0 -30 -16t-12 -41q0 -36 26 -76q53 33 53 78zM254 128
l-80 113q-39 -31 -39 -78q0 -37 17 -58t44 -21q39 0 58 44z" />
    <glyph glyph-name="eight.onum" horiz-adv-x="504" 
d="M464 196q0 -93 -58 -151.5t-155 -58.5q-96 0 -153 58.5t-57 151.5q0 69 31.5 114.5t81.5 62.5v2q-97 41 -97 159q0 79 50.5 133.5t143.5 54.5t145.5 -54.5t52.5 -133.5q0 -57 -25 -98.5t-71 -60.5v-2q50 -18 80.5 -63t30.5 -114zM332 526q0 47 -21.5 77t-59.5 30
t-59 -29.5t-21 -77.5q0 -45 22 -77.5t58 -32.5t58.5 32.5t22.5 77.5zM342 202q0 55 -25.5 89.5t-65.5 34.5t-65 -34.5t-25 -89.5q0 -54 24 -88.5t66 -34.5t66.5 34.5t24.5 88.5z" />
    <glyph glyph-name="ncaron.sc" horiz-adv-x="521" 
d="M452 0h-130l-151 388h-2l5 -388h-105v562h132l149 -390h2l-5 390h105v-562zM419 763l-110 -144h-97l-109 144h89l69 -94l69 94h89z" />
    <glyph glyph-name="x.sc" horiz-adv-x="434" 
d="M431 0h-126l-86 208l-87 -208h-127l139 294l-126 268h126l76 -186l75 186h125l-126 -268z" />
    <glyph glyph-name="breve.sc" 
d="M267 758q-7 -70 -45.5 -103t-96.5 -33q-57 0 -95.5 33t-44.5 103h66q4 -33 25.5 -49.5t48.5 -16.5q65 0 76 66h66z" />
    <glyph glyph-name="fl.sc" horiz-adv-x="733" 
d="M727 0h-277v562h120v-460h157v-102zM346 460h-164v-130h152v-98h-152v-232h-114v562h278v-102z" />
    <glyph glyph-name="dcaron.sc" horiz-adv-x="491" 
d="M221 0h-152v562h153q113 0 171.5 -74.5t58.5 -207.5t-59 -206.5t-172 -73.5zM222 465h-39v-366h39q50 0 83 46.5t33 135.5q0 91 -32.5 137.5t-83.5 46.5zM391 763l-110 -144h-97l-109 144h89l69 -94l69 94h89z" />
    <glyph glyph-name="agrave.sc" horiz-adv-x="432" 
d="M427 0h-113l-27 112h-144l-26 -112h-112l142 562h141zM269 204l-53 252h-2l-53 -252h108zM278 620h-85l-109 144h104z" />
    <glyph glyph-name="rcommaaccent.sc" horiz-adv-x="457" 
d="M291 -45l-57 -187h-81l47 187h91zM438 0h-122l-86 231h-48v-231h-113v562h174q80 0 128.5 -41t48.5 -123q0 -56 -26 -94t-60 -52zM307 393q0 71 -71 71h-54v-145h53q32 0 52 19t20 55z" />
    <glyph glyph-name="u.sc" horiz-adv-x="504" 
d="M442 203q0 -96 -46.5 -156.5t-145.5 -60.5q-98 0 -143 60t-45 157v359h114v-352q0 -117 74 -117q78 0 78 117v352h114v-359z" />
    <glyph glyph-name="uacute.sc" horiz-adv-x="504" 
d="M442 203q0 -96 -46.5 -156.5t-145.5 -60.5q-98 0 -143 60t-45 157v359h114v-352q0 -117 74 -117q78 0 78 117v352h114v-359zM399 764l-109 -144h-85l90 144h104z" />
    <glyph glyph-name="zero.onum" horiz-adv-x="521" 
d="M477 282q0 -132 -57.5 -214t-158.5 -82q-102 0 -159.5 81.5t-57.5 214.5t57.5 213.5t159.5 80.5q101 0 158.5 -80.5t57.5 -213.5zM363 282q0 87 -28 139.5t-74 52.5q-48 0 -75.5 -52.5t-27.5 -139.5q0 -86 27.5 -138.5t75.5 -52.5q47 0 74.5 52.5t27.5 138.5z" />
    <glyph glyph-name="eacute.sc" horiz-adv-x="395" 
d="M355 0h-286v562h277v-100h-164v-123h152v-96h-152v-141h173v-102zM350 764l-109 -144h-85l90 144h104z" />
    <glyph glyph-name="dotlessj" horiz-adv-x="249" 
d="M182 -50q0 -190 -158 -190q-29 0 -50 6l8 102q12 -4 27 -4q61 0 61 95v551h112v-560z" />
    <glyph glyph-name="eight.sc" horiz-adv-x="455" 
d="M413 156q0 -75 -51 -122.5t-135 -47.5t-134 47.5t-50 122.5q0 55 25.5 91t62.5 49v2q-76 33 -76 125q0 65 45 109t127 44t128 -44.5t46 -108.5q0 -91 -76 -125v-2q38 -15 63 -50t25 -90zM287 414q0 31 -16.5 51.5t-43.5 20.5q-28 0 -44 -20t-16 -52q0 -30 17 -52t43 -22
t43 22t17 52zM297 165q0 37 -20 60.5t-50 23.5q-29 0 -48.5 -23.5t-19.5 -60.5q0 -36 19 -60t49 -24t50 24t20 60z" />
    <glyph glyph-name="dieresis.sc" 
d="M107 702q0 -28 -17.5 -47t-42.5 -19t-42 19t-17 47q0 27 17 46t42 19q26 0 43 -19t17 -46zM264 702q0 -28 -17.5 -47t-42.5 -19q-26 0 -42.5 19t-16.5 47q0 27 16.5 46t42.5 19q25 0 42.5 -19t17.5 -46z" />
    <glyph glyph-name="edieresis.sc" horiz-adv-x="395" 
d="M355 0h-286v562h277v-100h-164v-123h152v-96h-152v-141h173v-102zM186 702q0 -28 -17.5 -47t-42.5 -19t-42 19t-17 47q0 27 17 46t42 19q26 0 43 -19t17 -46zM343 702q0 -28 -17.5 -47t-42.5 -19q-26 0 -42.5 19t-16.5 47q0 27 16.5 46t42.5 19q25 0 42.5 -19t17.5 -46z
" />
    <glyph glyph-name="caron.alt" 
d="M201 708l-57 -187h-81l47 187h91z" />
    <glyph glyph-name="amacron.sc" horiz-adv-x="432" 
d="M427 0h-113l-27 112h-144l-26 -112h-112l142 562h141zM269 204l-53 252h-2l-53 -252h108zM352 658h-274v66h274v-66z" />
    <glyph glyph-name="ccircumflex.sc" horiz-adv-x="427" 
d="M345 420q-29 50 -85 50q-50 0 -78 -52t-28 -137q0 -84 28.5 -136t79.5 -52t83 52l69 -76q-59 -83 -157 -83q-100 0 -159 83.5t-59 211.5q0 129 59.5 212t158.5 83q103 0 158 -77zM418 620h-90l-69 93l-68 -93h-89l110 144h97z" />
    <glyph glyph-name="g.sc" horiz-adv-x="481" 
d="M425 37q-66 -51 -158 -51q-106 0 -167 82t-61 214q0 129 59.5 211.5t161.5 82.5q106 0 161 -74l-70 -79q-37 49 -89 49t-80 -53t-28 -137q0 -86 30 -139.5t83 -53.5q34 0 51 11v128h-71v102h178v-293z" />
    <glyph glyph-name="ecaron.sc" horiz-adv-x="395" 
d="M355 0h-286v562h277v-100h-164v-123h152v-96h-152v-141h173v-102zM367 763l-110 -144h-97l-109 144h89l69 -94l69 94h89z" />
    <glyph glyph-name="eogonek.sc" horiz-adv-x="395" 
d="M330 -138l25 -52q-45 -38 -97 -38q-40 0 -68 21.5t-28 64.5q0 65 92 142h-185v562h277v-100h-164v-123h152v-96h-152v-141h173v-102h-28q-46 -43 -65 -69t-19 -51q0 -18 10 -28.5t26 -10.5q29 0 51 21z" />
    <glyph glyph-name="lcommaaccent.sc" horiz-adv-x="352" 
d="M259 -45l-57 -187h-81l47 187h91zM346 0h-277v562h115v-460h162v-102z" />
    <glyph glyph-name="ae.sc" horiz-adv-x="561" 
d="M250 0v115h-106l-42 -115h-121l208 562h324v-102h-154v-123h143v-95h-143v-139h162v-103h-271zM250 425l-76 -216h76v216z" />
    <glyph glyph-name="ccaron.sc" horiz-adv-x="427" 
d="M345 420q-29 50 -85 50q-50 0 -78 -52t-28 -137q0 -84 28.5 -136t79.5 -52t83 52l69 -76q-59 -83 -157 -83q-100 0 -159 83.5t-59 211.5q0 129 59.5 212t158.5 83q103 0 158 -77zM417 763l-110 -144h-97l-109 144h89l69 -94l69 94h89z" />
    <glyph glyph-name="v.sc" horiz-adv-x="435" 
d="M431 562l-141 -562h-144l-142 562h121l95 -437h3l90 437h118z" />
    <glyph glyph-name="thorn.sc" horiz-adv-x="426" 
d="M412 293q0 -84 -49 -130t-119 -46h-57v-117h-119v562h119v-97h53q69 0 120.5 -41.5t51.5 -130.5zM297 291q0 74 -65 74h-45v-151h45q28 0 46.5 20t18.5 57z" />
    <glyph glyph-name="ring.cap" 
d="M224 853q0 -45 -27.5 -75.5t-70.5 -30.5t-70 30t-27 76t27 76t70 30t70.5 -30.5t27.5 -75.5zM181 853q0 28 -15 47t-40 19t-39.5 -19t-14.5 -47t14.5 -47t39.5 -19t40 19t15 47z" />
    <glyph glyph-name="e.sc" horiz-adv-x="395" 
d="M355 0h-286v562h277v-100h-164v-123h152v-96h-152v-141h173v-102z" />
    <glyph glyph-name="abreve.sc" horiz-adv-x="432" 
d="M427 0h-113l-27 112h-144l-26 -112h-112l142 562h141zM269 204l-53 252h-2l-53 -252h108zM357 758q-7 -70 -45.5 -103t-96.5 -33q-57 0 -95.5 33t-44.5 103h66q4 -33 25.5 -49.5t48.5 -16.5q65 0 76 66h66z" />
    <glyph glyph-name="adieresis.sc" horiz-adv-x="432" 
d="M427 0h-113l-27 112h-144l-26 -112h-112l142 562h141zM269 204l-53 252h-2l-53 -252h108zM196 702q0 -28 -17.5 -47t-42.5 -19t-42 19t-17 47q0 27 17 46t42 19q26 0 43 -19t17 -46zM353 702q0 -28 -17.5 -47t-42.5 -19q-26 0 -42.5 19t-16.5 47q0 27 16.5 46t42.5 19
q25 0 42.5 -19t17.5 -46z" />
    <glyph glyph-name="five.sc" horiz-adv-x="455" 
d="M394 183q0 -93 -49.5 -145t-128.5 -52q-68 0 -114 36t-62 102l103 31q7 -33 26.5 -50.5t44.5 -17.5q29 0 47.5 24t18.5 67q0 96 -82 96q-52 0 -121 -30l11 318h286v-100h-184l-4 -103q19 6 43 6q79 0 122 -50t43 -132z" />
    <glyph glyph-name="ecircumflex.sc" horiz-adv-x="395" 
d="M355 0h-286v562h277v-100h-164v-123h152v-96h-152v-141h173v-102zM366 620h-90l-69 93l-68 -93h-89l110 144h97z" />
    <glyph glyph-name="circumflex.cap" 
d="M284 764h-90l-69 93l-68 -93h-89l110 144h97z" />
    <glyph glyph-name="commaaccent" 
d="M182 -45l-57 -187h-81l47 187h91z" />
    <glyph glyph-name="cacute.sc" horiz-adv-x="427" 
d="M345 420q-29 50 -85 50q-50 0 -78 -52t-28 -137q0 -84 28.5 -136t79.5 -52t83 52l69 -76q-59 -83 -157 -83q-100 0 -159 83.5t-59 211.5q0 129 59.5 212t158.5 83q103 0 158 -77zM399 764l-109 -144h-85l90 144h104z" />
    <glyph glyph-name="breve.cap" 
d="M267 902q-7 -70 -45.5 -103t-96.5 -33q-57 0 -95.5 33t-44.5 103h66q4 -33 25.5 -49.5t48.5 -16.5q65 0 76 66h66z" />
    <glyph glyph-name="edotaccent.sc" horiz-adv-x="395" 
d="M355 0h-286v562h277v-100h-164v-123h152v-96h-152v-141h173v-102zM278 701q0 -30 -19.5 -50.5t-47.5 -20.5q-30 0 -48.5 20.5t-18.5 50.5q0 31 19 52t48 21t48 -21.5t19 -51.5z" />
    <glyph glyph-name="six.sc" horiz-adv-x="455" 
d="M411 185q0 -91 -51.5 -145t-132.5 -54q-83 0 -133.5 53.5t-50.5 143.5q0 75 48 164l114 215h127l-113 -199l2 -1q19 6 34 6q68 0 112 -47t44 -136zM295 184q0 45 -18.5 70t-48.5 25q-29 0 -49.5 -26.5t-20.5 -69.5q0 -45 19 -70.5t50 -25.5t49.5 26t18.5 71z" />
    <glyph glyph-name="egrave.sc" horiz-adv-x="395" 
d="M355 0h-286v562h277v-100h-164v-123h152v-96h-152v-141h173v-102zM265 620h-85l-109 144h104z" />
    <glyph glyph-name="c.sc" horiz-adv-x="427" 
d="M345 420q-29 50 -85 50q-50 0 -78 -52t-28 -137q0 -84 28.5 -136t79.5 -52t83 52l69 -76q-59 -83 -157 -83q-100 0 -159 83.5t-59 211.5q0 129 59.5 212t158.5 83q103 0 158 -77z" />
    <glyph glyph-name="circumflex.sc" 
d="M284 620h-90l-69 93l-68 -93h-89l110 144h97z" />
    <glyph glyph-name="t.sc" horiz-adv-x="335" 
d="M333 462h-110v-462h-113v462h-108v100h331v-100z" />
    <glyph glyph-name="dieresis.cap" 
d="M264 846q0 -28 -17.5 -47t-42.5 -19q-26 0 -42.5 19t-16.5 47q0 27 16.5 46t42.5 19q25 0 42.5 -19t17.5 -46zM107 846q0 -28 -17.5 -47t-42.5 -19t-42 19t-17 47q0 27 17 46t42 19q26 0 43 -19t17 -46z" />
    <glyph glyph-name="sacute.sc" horiz-adv-x="378" 
d="M355 514l-67 -82q-33 41 -82 41q-26 0 -43 -15.5t-17 -48.5q0 -26 17.5 -44t54.5 -36q36 -17 60.5 -34t47 -52t22.5 -80q0 -81 -50.5 -129t-123.5 -48q-100 0 -166 71l66 84q47 -51 98 -51q28 0 44.5 17.5t16.5 48.5q0 30 -21.5 49.5t-63.5 40.5q-53 24 -83.5 59
t-30.5 99q0 83 51 127.5t120 44.5q95 0 150 -62zM355 764l-109 -144h-85l90 144h104z" />
    <glyph glyph-name="caron.sc" 
d="M284 763l-110 -144h-97l-109 144h89l69 -94l69 94h89z" />
    <glyph glyph-name="d.sc" horiz-adv-x="493" 
d="M221 0h-152v562h153q113 0 171.5 -74.5t58.5 -207.5t-59 -206.5t-172 -73.5zM222 465h-39v-366h39q50 0 83 46.5t33 135.5q0 91 -32.5 137.5t-83.5 46.5z" />
    <glyph glyph-name="cdotaccent.sc" horiz-adv-x="427" 
d="M345 420q-29 50 -85 50q-50 0 -78 -52t-28 -137q0 -84 28.5 -136t79.5 -52t83 52l69 -76q-59 -83 -157 -83q-100 0 -159 83.5t-59 211.5q0 129 59.5 212t158.5 83q103 0 158 -77zM325 701q0 -30 -19.5 -50.5t-47.5 -20.5q-30 0 -48.5 20.5t-18.5 50.5q0 31 19 52t48 21
t48 -21.5t19 -51.5z" />
    <glyph glyph-name="f.sc" horiz-adv-x="383" 
d="M347 460h-164v-130h152v-98h-152v-232h-114v562h278v-102z" />
    <glyph glyph-name="commaaccent.alt" 
d="M63 575l57 187h81l-47 -187h-91z" />
    <glyph glyph-name="tcaron.sc" horiz-adv-x="335" 
d="M333 462h-110v-462h-113v462h-108v100h331v-100zM326 763l-110 -144h-97l-109 144h89l69 -94l69 94h89z" />
    <glyph glyph-name="gdotaccent.sc" horiz-adv-x="481" 
d="M425 37q-66 -51 -158 -51q-106 0 -167 82t-61 214q0 129 59.5 211.5t161.5 82.5q106 0 161 -74l-70 -79q-37 49 -89 49t-80 -53t-28 -137q0 -86 30 -139.5t83 -53.5q34 0 51 11v128h-71v102h178v-293zM328 701q0 -30 -19.5 -50.5t-47.5 -20.5q-30 0 -48.5 20.5
t-18.5 50.5q0 31 19 52t48 21t48 -21.5t19 -51.5z" />
    <glyph glyph-name="gcommaaccent.sc" horiz-adv-x="481" 
d="M305 -45l-57 -187h-81l47 187h91zM425 37q-66 -51 -158 -51q-106 0 -167 82t-61 214q0 129 59.5 211.5t161.5 82.5q106 0 161 -74l-70 -79q-37 49 -89 49t-80 -53t-28 -137q0 -86 30 -139.5t83 -53.5q34 0 51 11v128h-71v102h178v-293z" />
    <glyph glyph-name="gcircumflex.sc" horiz-adv-x="481" 
d="M425 37q-66 -51 -158 -51q-106 0 -167 82t-61 214q0 129 59.5 211.5t161.5 82.5q106 0 161 -74l-70 -79q-37 49 -89 49t-80 -53t-28 -137q0 -86 30 -139.5t83 -53.5q34 0 51 11v128h-71v102h178v-293zM420 620h-90l-69 93l-68 -93h-89l110 144h97z" />
    </font>
</defs>
</svg>
