<?xml version="1.0" standalone="no"?>
<!DOCTYPE svg PUBLIC "-//W3C//DTD SVG 1.1//EN" "http://www.w3.org/Graphics/SVG/1.1/DTD/svg11.dtd" >
<svg>
<metadata>
Created by FontForge 20120731 at Wed Jun 29 10:59:34 2016
 By ,,,
Copyright (c) 2011 Natanael Gama (exo@ndiscovered.com), with Reserved Font Name "Exo"
</metadata>
<defs>
<font id="Exo-Regular" horiz-adv-x="544" >
  <font-face 
    font-family="Exo"
    font-weight="400"
    font-stretch="normal"
    units-per-em="1000"
    panose-1="2 0 5 3 0 0 0 0 0 0"
    ascent="800"
    descent="-200"
    x-height="531"
    cap-height="732"
    bbox="-90 -272.75 1339 1002"
    underline-thickness="50"
    underline-position="-50"
    unicode-range="U+000D-FB06"
  />
<missing-glyph horiz-adv-x="758" 
d="M644 506l-252 -240l252 -241v481zM127 13h507l-253 243zM114 22l256 244l-256 241v-485zM635 518h-511l257 -242zM100 0v531h558v-531h-558z" />
    <glyph glyph-name="fi" unicode="fi" horiz-adv-x="608" 
d="M20 457v57l98 17v53q0 89 54 145.5t143 56.5q78 0 189 -34v-49l-172 11q-57 4 -98.5 -26t-41.5 -104v-53l361 -10v-521h-75v457h-286v-457h-74v457h-98z" />
    <glyph glyph-name="fl" unicode="fl" horiz-adv-x="717" 
d="M20 457v57l99 17v53q0 89 39.5 145.5t123.5 56.5h269v-597q0 -63 11.5 -84.5t45.5 -30.5q82 -21 89 -21v-53h-88q-71 0 -101.5 42t-30.5 147v525h-178q-53 0 -79.5 -27t-26.5 -103v-53h146v-74h-148v-457h-74v457h-97z" />
    <glyph glyph-name=".notdef" horiz-adv-x="758" 
d="M644 506l-252 -240l252 -241v481zM127 13h507l-253 243zM114 22l256 244l-256 241v-485zM635 518h-511l257 -242zM100 0v531h558v-531h-558z" />
    <glyph glyph-name=".notdef" horiz-adv-x="758" 
d="M644 506l-252 -240l252 -241v481zM127 13h507l-253 243zM114 22l256 244l-256 241v-485zM635 518h-511l257 -242zM100 0v531h558v-531h-558z" />
    <glyph glyph-name=".null" horiz-adv-x="0" 
 />
    <glyph glyph-name="uni000D" unicode="&#xd;" horiz-adv-x="1000" 
 />
    <glyph glyph-name="space" unicode=" " horiz-adv-x="250" 
 />
    <glyph glyph-name="exclam" unicode="!" horiz-adv-x="269" 
d="M82 23v57q0 25 24 25h55q23 0 23 -25v-57q0 -23 -23 -23h-55q-24 0 -24 23zM88 731h89l-7 -535h-75z" />
    <glyph glyph-name="quotedbl" unicode="&#x22;" horiz-adv-x="380" 
d="M85 665v67h75v-67l-10 -134h-54zM220 665v67h75v-67l-10 -134h-54z" />
    <glyph glyph-name="numbersign" unicode="#" horiz-adv-x="687" 
d="M20 232l8 52h159l26 165h-159l9 52h158l37 231h52l-37 -231h166l36 231h52l-36 -231h177l-9 -52h-177l-26 -166h177l-8 -52h-177l-37 -231h-52l37 231l-166 1l-37 -232h-52l37 232h-158zM239 284l165 -1l26 166h-165z" />
    <glyph glyph-name="dollar" unicode="$" horiz-adv-x="575" 
d="M55 494v66q1 99 50.5 137.5t138.5 40.5v86h58v-89q37 -3 110 -11.5t81 -9.5v-58l-240 9q-29 1 -49.5 -2t-38.5 -13.5t-27 -33t-9 -56.5v-66q0 -98 104 -98h130q49 0 82 -14.5t48.5 -41.5t21 -54t5.5 -62v-68q0 -50 -18.5 -84.5t-51 -52t-69 -23.5t-79.5 -4v-82h-58v87
q-37 4 -99.5 12t-66.5 8v55q13 0 99.5 -3t139.5 -3q129 0 129 90v68q0 98 -83 98h-130q-52 0 -89 15t-55.5 41.5t-26 54.5t-7.5 61z" />
    <glyph glyph-name="percent" unicode="%" horiz-adv-x="955" 
d="M42 474v133q0 66 28 95.5t101 29.5h101q71 0 99 -29.5t28 -95.5v-133q0 -66 -28 -95.5t-101 -29.5h-101q-71 0 -99 29.5t-28 95.5zM107 474q0 -36 13 -48t49 -12h101q42 0 53 12t11 48v133q0 36 -13 48t-49 12h-101q-41 0 -52.5 -12t-11.5 -48v-133zM227 0l438 732h71
l-438 -732h-71zM556 127v133q0 66 28 95.5t101 29.5h101q71 0 99 -29.5t28 -95.5v-133q0 -66 -28 -95.5t-101 -29.5h-101q-71 0 -99 29.5t-28 95.5zM621 127q0 -36 13 -48t49 -12h101q42 0 53 12t11 48v133q0 36 -13 48t-49 12h-101q-41 0 -52.5 -12t-11.5 -48v-133z" />
    <glyph glyph-name="ampersand" unicode="&#x26;" horiz-adv-x="637" 
d="M78 82q-54 73 -42.5 150t78.5 134l86 73l-63 85q-38 55 -32.5 99.5t35.5 73.5t67 33q129 12 266 -20v-50h-203q-45 0 -68 -10.5t-21 -38.5t35 -73l235 -318l114 119l23 -24l-51 -107l-41 -45l117 -163h-88l-82 111l-72 -67q-60 -57 -150.5 -47t-142.5 85zM141 122
q32 -41 83 -51.5t94 24.5l80 75l-156 208l-78 -65q-105 -86 -23 -191z" />
    <glyph glyph-name="quotesingle" unicode="'" horiz-adv-x="185" 
d="M55 665v67h75v-67l-10 -134h-54z" />
    <glyph glyph-name="parenleft" unicode="(" horiz-adv-x="335" 
d="M75 326q0 77 16.5 160t39.5 147t46.5 117t40.5 82l16 28h81q-7 -11 -18 -30t-39.5 -79t-50.5 -120t-40 -144.5t-18 -160.5q0 -84 17 -170t41.5 -149t49 -114t41.5 -77l17 -26h-81l-17 25.5t-38.5 71.5t-48.5 114t-38 148t-17 177z" />
    <glyph glyph-name="parenright" unicode=")" horiz-adv-x="335" 
d="M20 -210q7 10 18 27.5t39.5 74.5t50.5 116t40 146.5t18 171.5q0 76 -17 159t-41.5 147t-49 117.5t-41.5 82.5l-17 28h81q6 -11 17 -30t38.5 -78.5t48.5 -119.5t38 -144.5t17 -161.5q0 -88 -16.5 -176t-40 -150t-46.5 -111.5t-39 -74.5l-17 -24h-81z" />
    <glyph glyph-name="asterisk" unicode="*" horiz-adv-x="440" 
d="M50 566v40l139 29l5 -74zM118 414l24 135l72 -17l-59 -130zM176 717l39 16l75 -118l-68 -31zM208 476l41 62l110 -91l-21 -32zM251 571l120 76l19 -35l-91 -97z" />
    <glyph glyph-name="plus" unicode="+" horiz-adv-x="516" 
d="M50 319v74h170v171h74v-171h172v-74h-172v-171h-74v171h-170z" />
    <glyph glyph-name="comma" unicode="," horiz-adv-x="270" 
d="M85 25v54q0 27 25 27h51q24 0 24 -27v-90q0 -27 -10 -44.5t-23.5 -24t-27.5 -9t-24 -1.5l-10 2v32q31 -1 31 31v25h-11q-25 0 -25 25z" />
    <glyph glyph-name="hyphen" unicode="-" horiz-adv-x="354" 
d="M20 253v74h314v-74h-314z" />
    <glyph glyph-name="period" unicode="." horiz-adv-x="272" 
d="M85 23v57q0 25 24 25h53q25 0 25 -25v-57q0 -23 -25 -23h-53q-24 0 -24 23z" />
    <glyph glyph-name="slash" unicode="/" horiz-adv-x="400" 
d="M20 -72l281 842h79l-281 -842h-79z" />
    <glyph glyph-name="zero" unicode="0" horiz-adv-x="643" 
d="M70 162v408q0 78 48.5 120t123.5 42h164q86 0 126.5 -45.5t40.5 -116.5v-408q0 -162 -167 -162h-164q-75 0 -123.5 39t-48.5 123zM144 162q0 -46 28.5 -67t69.5 -21h164q93 0 93 88v408q0 88 -93 88h-164q-50 0 -74 -24.5t-24 -63.5v-408z" />
    <glyph glyph-name="one" unicode="1" horiz-adv-x="362" 
d="M40 594v53l168 85h74v-732h-74v648z" />
    <glyph glyph-name="two" unicode="2" horiz-adv-x="597" 
d="M40 667v55q157 20 304 20q101 0 152 -62t51 -148q0 -55 -31 -118t-73 -113.5t-97 -101t-90.5 -78t-65.5 -47.5h357v-74h-500v68q44 30 87 61.5t108.5 86t112.5 104.5t82 108.5t35 105.5q0 59 -32 96t-97 37h-303z" />
    <glyph glyph-name="three" unicode="3" horiz-adv-x="594" 
d="M30 660v46q41 15 95.5 21.5t107.5 7t115 -0.5q80 -1 125.5 -47.5t45.5 -117.5v-69q0 -110 -66 -136q66 -42 66 -144v-59q0 -168 -178 -168h-37h-38t-34 0.5t-37 1t-32.5 2t-34.5 3.5l-30 5t-33 7t-29 9l1 47h298q23 0 39.5 3t33.5 12t26 28.5t9 49.5v59q0 102 -102 106
l-243 7v58l243 10q104 5 104 99v69q0 45 -30.5 68t-73.5 23h-311z" />
    <glyph glyph-name="four" unicode="4" horiz-adv-x="603" 
d="M20 224l321 508h88l-294 -467h284v207l37 75h37v-282h90v-59l-90 -19v-185h-74v185h-365z" />
    <glyph glyph-name="five" unicode="5" horiz-adv-x="603" 
d="M76 20v55h304q47 0 68.5 27t21.5 66v110q0 18 -2 29.5t-9.5 29t-27.5 26.5t-51 9h-154q-33 0 -57.5 -19t-24.5 -56h-66l22 435h422v-74h-354l-12 -242q19 23 74 30q24 3 53 3t59 -1.5t38 -1.5q85 0 124.5 -44.5t39.5 -121.5v-114q0 -48 -16.5 -83.5t-43 -53t-52.5 -25.5
t-52 -8q-101 0 -155 4t-149 20z" />
    <glyph glyph-name="six" unicode="6" horiz-adv-x="623" 
d="M65 384q0 183 50.5 268.5t121.5 85.5q163 0 302 -19v-55h-289q-32 0 -55 -27t-34 -71t-16 -82t-6 -77q178 21 263 21q93 0 127 -40t34 -109v-131q0 -149 -161 -149h-149q-44 0 -76 16.5t-58.5 57.5t-40 118.5t-13.5 192.5zM139 354q0 -31 1 -54.5t4 -59.5t11 -62.5
t19.5 -52t32 -39t46.5 -13.5h149q44 0 66 16t22 65v125q0 75 -88 75h-263z" />
    <glyph glyph-name="seven" unicode="7" horiz-adv-x="546" 
d="M30 658v74h459l27 -48l-265 -684h-88l258 658h-391z" />
    <glyph glyph-name="eight" unicode="8" horiz-adv-x="634" 
d="M75 154v98q0 34 14 57.5t30 32.5t41 17q-44 15 -64.5 54.5t-20.5 85.5v65q0 95 46 134t130 39h146q82 0 122 -41t40 -132v-65q1 -12 -1 -26t-8.5 -34t-23.5 -35.5t-42 -20.5q37 -7 56.5 -49t18.5 -82v-98q0 -46 -16 -78.5t-42.5 -48t-51.5 -21.5t-53 -6h-145
q-49 0 -84 12.5t-52.5 29t-27 41t-11 39t-1.5 32.5zM149 151q0 -77 102 -77h145q36 0 62.5 20t26.5 57v105q0 40 -25 60.5t-61 20.5h-159q-39 0 -65 -19t-26 -62v-105zM149 494q0 -45 28.5 -64.5t62.5 -19.5h159q86 0 86 84v68q0 54 -21.5 77.5t-66.5 23.5h-146
q-54 0 -78 -19t-24 -82v-68z" />
    <glyph glyph-name="nine" unicode="9" horiz-adv-x="623" 
d="M60 458v131q0 149 161 149h149q44 0 76 -16.5t58.5 -57.5t40 -118.5t13.5 -192.5q0 -183 -50.5 -268.5t-121.5 -85.5q-210 0 -302 19v55h289q32 0 55 27t34 71t16 82t6 77q-179 -21 -263 -21q-93 0 -127 40t-34 109zM133 458q0 -75 88 -75h263q0 31 -1 54.5t-4 59.5
t-11 62.5t-19.5 52t-32 39t-46.5 13.5h-149q-44 0 -66 -16t-22 -65v-125z" />
    <glyph glyph-name="colon" unicode=":" horiz-adv-x="272" 
d="M85 23v57q0 25 24 25h53q25 0 25 -25v-57q0 -23 -25 -23h-53q-24 0 -24 23zM85 450v57q0 25 24 25h53q25 0 25 -25v-57q0 -23 -25 -23h-53q-24 0 -24 23z" />
    <glyph glyph-name="semicolon" unicode=";" horiz-adv-x="274" 
d="M85 25v54q0 11 7 19t18 8h51q11 0 17.5 -7.5t6.5 -19.5v-90q0 -27 -10 -44.5t-23.5 -24t-27.5 -9t-24 -1.5l-10 2v32q31 -1 31 31v25h-11q-10 0 -17.5 8t-7.5 17zM87 451v57q0 25 24 25h53q25 0 25 -25v-57q0 -23 -25 -23h-53q-24 0 -24 23z" />
    <glyph glyph-name="less" unicode="&#x3c;" horiz-adv-x="475" 
d="M50 314v80l375 162v-80l-276 -122l276 -132v-82z" />
    <glyph glyph-name="equal" unicode="=" horiz-adv-x="467" 
d="M20 212v74h427v-74h-427zM20 421v74h427v-74h-427z" />
    <glyph glyph-name="greater" unicode="&#x3e;" horiz-adv-x="475" 
d="M50 140v82l276 132l-276 122v80l375 -162v-80z" />
    <glyph glyph-name="question" unicode="?" horiz-adv-x="541" 
d="M20 664v55q13 2 48 6.5t45 5.5t43.5 4.5t44 3.5t47.5 1.5t54 -1.5q106 0 152.5 -51.5t46.5 -133.5v-101q0 -97 -67.5 -135.5t-175.5 -21.5v-101h-75v162h142q42 2 72.5 26t30.5 70v101q0 58 -32 84t-105 26h-271zM170 23v57q0 25 24 25h55q23 0 23 -25v-57q0 -23 -23 -23
h-55q-24 0 -24 23z" />
    <glyph glyph-name="at" unicode="@" horiz-adv-x="844" 
d="M65 0v348q0 17 1.5 31.5t10.5 41t25 44.5t50 32.5t81 14.5h215q63 0 108 -32.5t45 -107.5v-372h-56l-14 64l-10 -8q-10 -7 -27.5 -17.5t-39 -21.5t-49 -18.5t-52.5 -7.5q-55 -1 -92 32.5t-36 84.5v53q0 61 34 97t95 36h175q1 76 0 76q0 40 -20 54t-64 14h-212
q-44 0 -69 -18t-25 -72v-348q0 -103 94 -103h349q59 0 81 24.5t22 78.5v512q0 56 -28 85t-75 29h-404v47q135 28 288 27h116q82 -2 129.5 -49.5t47.5 -138.5v-512q0 -178 -177 -178h-349q-78 0 -123 46t-45 132zM299 114q0 -17 18.5 -33.5t42.5 -15.5q27 0 62 10t51 17.5
t56 26.5v123l-170 -16q-29 -3 -45 -21.5t-15 -45.5v-45z" />
    <glyph glyph-name="A" unicode="A" horiz-adv-x="670" 
d="M45 0l269 732h74l257 -732h-88l-63 204h-292l-66 -204h-91zM229 278h239l-118 341z" />
    <glyph glyph-name="B" unicode="B" horiz-adv-x="596" 
d="M80 0v732h282q99 0 144.5 -58t45.5 -132q0 -133 -92 -162q38 -9 67 -53.5t29 -122.5q0 -41 -9 -75.5t-30 -64.5t-60.5 -47t-94.5 -17h-282zM155 74h207q120 0 120 132q0 60 -30 100t-90 40h-207v-272zM155 420h207q116 0 116 122q0 116 -116 116h-207v-238z" />
    <glyph glyph-name="C" unicode="C" horiz-adv-x="578" 
d="M55 368q0 190 51.5 281t192.5 91q109 0 244 -25v-59h-9q-9 1 -24 2t-34.5 2t-42.5 2t-45.5 2t-46 1.5t-42.5 0.5q-65 0 -100.5 -24.5t-52.5 -89t-17 -186.5q0 -298 170 -298l244 7v-59q-118 -22 -244 -22q-244 0 -244 374z" />
    <glyph glyph-name="D" unicode="D" horiz-adv-x="657" 
d="M80 0v732h272q65 0 113.5 -24.5t75.5 -61.5t44 -89t22 -97.5t5 -96.5q0 -52 -8.5 -101.5t-28 -97.5t-48.5 -84t-74 -58t-101 -22h-272zM154 77h198q63 0 106 40.5t61.5 103t18.5 143.5q0 155 -47.5 224.5t-138.5 69.5h-198v-581z" />
    <glyph glyph-name="E" unicode="E" horiz-adv-x="567" 
d="M80 123v479q0 69 35.5 100.5t90.5 29.5l316 -16v-58h-316q-24 0 -36.5 -9.5t-14 -19t-1.5 -27.5v-200l328 -10v-59l-328 -10v-200q0 -25 11 -37t21 -13.5t30 -1.5h306v-57l-306 -17q-136 -8 -136 126z" />
    <glyph glyph-name="F" unicode="F" horiz-adv-x="567" 
d="M80 0v602q0 69 35.5 100.5t90.5 29.5l316 -16v-58h-316q-24 0 -36.5 -9.5t-14 -19t-1.5 -27.5v-200l328 -10v-59l-328 -10v-323h-74z" />
    <glyph glyph-name="G" unicode="G" horiz-adv-x="614" 
d="M55 370q0 83 9 143.5t33 115t72 83t120 28.5q39 0 120.5 -8.5t133.5 -18.5v-59q-1 0 -18.5 1t-45 3t-59.5 4t-67.5 3t-63.5 1q-95 0 -127.5 -68.5t-32.5 -229.5q0 -167 36 -233t128 -67q34 0 82 11.5t79 22.5l31 12v200h-168v50q91 25 174 25q32 0 68 -3v-386h-56l-16 49
q-98 -54 -194 -54q-60 -1 -104 18.5t-69.5 51t-40.5 82t-19.5 102t-4.5 121.5z" />
    <glyph glyph-name="H" unicode="H" horiz-adv-x="638" 
d="M80 0v732h74v-341h350v341h74v-732h-74v317h-350v-317h-74z" />
    <glyph glyph-name="I" unicode="I" horiz-adv-x="214" 
d="M80 0v732h74v-732h-74z" />
    <glyph glyph-name="J" unicode="J" horiz-adv-x="359" 
d="M35 21l4 54q87 -21 123 -13q62 14 63 103v567h74v-567q0 -114 -52 -147q-40 -25 -106.5 -24t-105.5 27z" />
    <glyph glyph-name="K" unicode="K" horiz-adv-x="591" 
d="M80 0v732h74v-328h82l230 328h90l-252 -365l252 -367h-90l-230 330h-81v-330h-75z" />
    <glyph glyph-name="L" unicode="L" horiz-adv-x="557" 
d="M80 126v606h74v-606q0 -19 5 -30.5t16 -15.5t18.5 -5t22.5 -1h306v-74h-306q-29 0 -50 4t-42 16t-32.5 39t-11.5 67z" />
    <glyph glyph-name="M" unicode="M" horiz-adv-x="801" 
d="M55 0l48 732h102l195 -609l189 609h101l56 -732h-74l-45 598l-188 -598h-76l-194 598l-40 -598h-74z" />
    <glyph glyph-name="N" unicode="N" horiz-adv-x="680" 
d="M80 0v732h76l390 -594v594h74v-732h-74l-391 594v-594h-75z" />
    <glyph glyph-name="O" unicode="O" horiz-adv-x="676" 
d="M65 361q0 84 9 146.5t28 103.5t41.5 66.5t57.5 38.5t68 17t80 4q41 0 70.5 -3t61 -12t52.5 -25t41 -44t31.5 -67.5t18.5 -95.5t7 -129q0 -95 -12.5 -161.5t-34 -106.5t-59 -61.5t-77.5 -28.5t-99 -7q-50 0 -84 4t-69 16.5t-57 37t-40 64.5t-26 100.5t-8 142.5zM139 361
q0 -97 9.5 -154t37 -88t63.5 -40t100 -9q50 0 82 6.5t58 24t40 50.5t21 83.5t7 126.5q0 50 -3 89.5t-7 69.5t-14 52.5t-18 37.5t-24 25.5t-27.5 16t-34 8t-37.5 3t-43 0.5t-42.5 -0.5t-37 -3t-34.5 -8t-28 -16t-24.5 -25.5t-18.5 -37.5t-14.5 -52.5t-7.5 -70t-3 -89z" />
    <glyph glyph-name="P" unicode="P" horiz-adv-x="581" 
d="M60 0v732h301q175 0 175 -212q0 -60 -11.5 -103t-28 -65.5t-42.5 -35t-46 -15.5t-47 -3q-29 0 -126 9t-101 11v-318h-74zM134 372h227q48 0 74 29t26 119q-1 46 -11 76t-27.5 42t-30.5 15.5t-31 3.5h-227v-285z" />
    <glyph glyph-name="Q" unicode="Q" horiz-adv-x="676" 
d="M65 361q0 101 13.5 171t35.5 110t60.5 61.5t76.5 27.5t96 6q49 0 82 -4t68 -17t57.5 -38.5t41 -66.5t27 -103.5t8.5 -146.5q0 -95 -13 -161.5t-34.5 -106.5t-59.5 -61.5t-78 -28.5t-99 -7q-50 0 -84 4t-69 16.5t-56 37t-39 64.5t-26 100.5t-8 142.5zM139 361
q0 -97 9.5 -154t36 -88t62.5 -40t100 -9q63 0 99.5 10.5t63.5 42t37 88t10 150.5q0 50 -3 89.5t-7.5 69.5t-14 52.5t-18 37.5t-24.5 25.5t-27.5 16t-34.5 8t-38 3t-43 0.5t-42.5 -0.5t-37 -3t-34 -8t-27.5 -16t-24 -25.5t-18 -37.5t-14.5 -52.5t-7.5 -70t-3 -89zM317 -33h52
q44 -31 85.5 -34.5t82.5 14.5v-80q-40 -11 -85.5 -8.5t-86 32t-48.5 76.5z" />
    <glyph glyph-name="R" unicode="R" horiz-adv-x="593" 
d="M60 0v732h312q169 0 169 -220q0 -192 -127 -210l154 -302h-80l-154 299l-200 14v-313h-74zM134 379h238q18 0 28 1t24.5 7.5t22 20t13.5 40t6 64.5q0 88 -26 116.5t-68 28.5h-238v-278z" />
    <glyph glyph-name="S" unicode="S" horiz-adv-x="584" 
d="M65 494v66q0 101 52 139.5t146 38.5q68 0 250 -24v-60l-250 10q-63 3 -93.5 -16.5t-30.5 -87.5v-66q0 -62 24.5 -80t77.5 -18h142q156 0 156 -172v-68q0 -51 -17 -85t-48 -50.5t-63 -22.5t-74 -6q-35 0 -123.5 9t-126.5 16v60q110 -11 250 -11q128 0 128 90v68
q0 47 -18 72.5t-64 25.5h-140q-57 0 -94.5 14t-54.5 41t-23 53.5t-6 63.5z" />
    <glyph glyph-name="T" unicode="T" horiz-adv-x="578" 
d="M45 658v74h508v-74h-220v-658h-74v658h-214z" />
    <glyph glyph-name="U" unicode="U" horiz-adv-x="677" 
d="M80 320v412h74v-412q0 -91 11.5 -144.5t42.5 -75.5t56 -26.5t79 -4.5h8q21 0 33 0.5t31 2.5t30 6.5t26 13t24 21t19 31.5t15.5 43.5t9 58t3.5 74.5v412h75v-412q0 -93 -17.5 -157.5t-40 -96.5t-64 -49t-68.5 -19.5t-76 -2.5h-9q-27 0 -40.5 0.5t-38 2t-37.5 6t-33.5 12
t-32 20t-26.5 29.5t-23 41.5t-16 55t-11.5 70.5t-3.5 88z" />
    <glyph glyph-name="V" unicode="V" horiz-adv-x="670" 
d="M45 732h81l214 -614l224 614h81l-269 -732h-74z" />
    <glyph glyph-name="W" unicode="W" horiz-adv-x="962" 
d="M45 732h81l213 -603l181 603h84l-68 -234l133 -375l187 609h81l-229 -732h-74l-137 374l-121 -374h-74z" />
    <glyph glyph-name="X" unicode="X" horiz-adv-x="596" 
d="M45 732h81l180 -307l184 307h81l-216 -361l211 -371h-81l-179 308l-177 -308h-81l209 371z" />
    <glyph glyph-name="Y" unicode="Y" horiz-adv-x="630" 
d="M45 732h81l189 -384l209 384h81l-253 -472v-260h-74v260z" />
    <glyph glyph-name="Z" unicode="Z" horiz-adv-x="563" 
d="M35 0v74l396 584h-396v74h493v-74l-396 -584h396v-74h-493z" />
    <glyph glyph-name="bracketleft" unicode="[" horiz-adv-x="321" 
d="M85 -38v708q0 28 4.5 53t17.5 54.5t42 47t72 17.5h80v-74h-80q-28 0 -45 -26.5t-17 -71.5v-708q0 -45 17 -71.5t45 -26.5h80v-74h-80q-43 0 -72 17.5t-42 47t-17.5 54.5t-4.5 53z" />
    <glyph glyph-name="backslash" unicode="\" horiz-adv-x="400" 
d="M20 770h79l281 -842h-79z" />
    <glyph glyph-name="bracketright" unicode="]" horiz-adv-x="321" 
d="M20 -136h80q28 0 45 26.5t17 71.5v708q0 45 -17 71.5t-45 26.5h-80v74h80q43 0 72 -17.5t42 -47t17.5 -54.5t4.5 -53v-708q0 -28 -4.5 -53t-17.5 -54.5t-42 -47t-72 -17.5h-80v74z" />
    <glyph glyph-name="asciicircum" unicode="^" horiz-adv-x="392" 
d="M50 531l117 130h71l104 -130h-71l-70 71l-79 -71h-72zM238 661z" />
    <glyph glyph-name="underscore" unicode="_" horiz-adv-x="674" 
d="M20 -1v74h634v-74h-634z" />
    <glyph glyph-name="grave" unicode="`" horiz-adv-x="242" 
d="M20 664h95l107 -133h-69z" />
    <glyph glyph-name="a" unicode="a" horiz-adv-x="519" 
d="M40 126v61q0 61 35.5 97t97.5 36q222 -1 222 0q1 66 0 67q0 82 -82 82q-90 0 -256 -12v54q101 28 259 30q67 1 110 -37.5t43 -116.5v-387h-55l-19 64l-15 -7q-14 -7 -38 -17.5t-52 -21t-60 -17.5t-57 -7q-57 0 -95 35t-38 97zM114 131q0 -63 59 -63q36 0 91.5 13t93.5 25
l37 13v143l-222 -16q-30 -3 -44.5 -21t-14.5 -44v-50z" />
    <glyph glyph-name="b" unicode="b" horiz-adv-x="554" 
d="M60 0v785h72v-286q45 18 102.5 29t94.5 11q54 0 90.5 -23t54 -65.5t24 -86t6.5 -101.5q0 -51 -7.5 -94.5t-25.5 -85t-54 -65.5t-88 -24q-46 0 -108.5 23.5t-87.5 41.5l-20 -59h-53zM133 114q113 -46 196 -46q101 0 101 195q0 116 -24.5 159t-76.5 43q-96 0 -196 -26v-325
z" />
    <glyph glyph-name="c" unicode="c" horiz-adv-x="500" 
d="M50 266q0 84 12.5 139.5t37.5 83t54 37.5t71 10q88 0 228 -26v-54q-139 6 -228 6q-27 0 -42 -5t-30.5 -23.5t-22 -60.5t-6.5 -111q0 -112 22.5 -152.5t78.5 -40.5q41 0 99.5 2.5t97.5 5.5l38 3v-56q-96 -27 -235 -29q-41 0 -69.5 10t-54 37.5t-38.5 83.5t-13 140z" />
    <glyph glyph-name="d" unicode="d" horiz-adv-x="554" 
d="M50 263q0 58 6.5 101.5t24 86t54 65.5t90.5 23q37 0 94 -11t102 -29v286h73v-785h-53l-20 59q-25 -18 -87.5 -41.5t-108.5 -23.5q-52 0 -88 24t-54 65.5t-25.5 85t-7.5 94.5zM124 263q0 -195 101 -195q83 0 196 46v325q-100 26 -196 26q-52 0 -76.5 -43t-24.5 -159z" />
    <glyph glyph-name="e" unicode="e" horiz-adv-x="525" 
d="M50 268q0 88 12 141.5t43.5 81t70 36t106.5 8.5q55 0 86 -5t61 -23t43 -57t13 -103q0 -122 -137 -122h-224q0 -93 21 -124.5t80 -31.5q182 0 250 10v-56q-99 -28 -250 -28q-101 0 -138 58t-37 215zM124 298h224q63 0 63 49q0 77 -22.5 95.5t-105.5 18.5q-35 0 -51.5 -1
t-39 -5.5t-32 -14.5t-20 -28t-13.5 -46t-3 -68z" />
    <glyph glyph-name="f" unicode="f" horiz-adv-x="400" 
d="M20 457v57l97 17v99q0 22 1 37.5t8 40t19 40t36.5 27t58.5 11.5q62 0 140 -24v-49l-123 1q-23 0 -37 -5.5t-20 -19t-7.5 -25.5t-1.5 -34v-99h148v-74h-148v-457h-74v457h-97z" />
    <glyph glyph-name="g" unicode="g" horiz-adv-x="554" 
d="M48 115q0 28 15 52.5t44 30.5q-58 37 -58 146q0 93 45.5 141t127.5 48h312v-56l-81 -18q1 -2 7 -12.5t9 -17t7 -19t6 -29t2 -37.5q0 -28 -6.5 -57t-22.5 -62.5t-51 -54.5t-85 -21h-156q-41 0 -41 -30q0 -34 41 -34h213q61 0 95 -37.5t34 -100.5v-63q0 -27 -5.5 -50
t-20 -48.5t-46.5 -40.5t-78 -15h-150q-73 0 -116.5 39t-43.5 115v85l40 65q-37 26 -37 81zM119 -116q0 -80 86 -80h150q76 0 76 80v58q0 38 -13.5 53.5t-54.5 15.5h-199q-14 0 -25 2t-15 4l-5 2v-135zM123 344q0 -21 4 -40t13 -38.5t28.5 -31t46.5 -11.5h98q54 0 76.5 38
t20.5 83q-3 58 -23 86.5t-75 28.5h-90q-99 0 -99 -115z" />
    <glyph glyph-name="h" unicode="h" 
d="M60 0v784h74v-315q3 1 22 12.5t23.5 13.5t21.5 11.5t24 11.5t23 8t26.5 8t25.5 4t30 2q76 0 120 -50t44 -120v-370h-74v370q0 48 -24.5 72t-65.5 24q-38 0 -72 -8t-54.5 -16.5t-69.5 -32.5v-409h-74z" />
    <glyph glyph-name="i" unicode="i" horiz-adv-x="197" 
d="M50 617v54q0 25 24 25h50q23 0 23 -25v-54q0 -23 -23 -23h-50q-24 0 -24 23zM60 0v531h74v-531h-74z" />
    <glyph glyph-name="j" unicode="j" horiz-adv-x="217" 
d="M60 617v54q0 25 24 25h50q23 0 23 -25v-54q0 -23 -23 -23h-50q-24 0 -24 23zM71 -270v801h74v-535q2 -176 -26 -266h-48z" />
    <glyph glyph-name="k" unicode="k" horiz-adv-x="500" 
d="M60 0v782h74v-440h40l203 189h103l-236 -226l236 -305h-92l-214 268h-40v-268h-74z" />
    <glyph glyph-name="l" unicode="l" horiz-adv-x="300" 
d="M60 189v594h74v-594q0 -61 14 -84.5t43 -30.5q82 -21 89 -21v-53h-88q-132 0 -132 189z" />
    <glyph glyph-name="m" unicode="m" horiz-adv-x="898" 
d="M60 0v531h52l22 -64q6 4 24.5 14.5t26 15t24 12.5t27 11.5l25.5 8.5t30.5 6.5t31.5 1.5q50 0 90 -21t57 -57q94 78 214 78q70 0 117 -48t47 -123v-366h-74v366q0 44 -25.5 70.5t-64.5 26.5q-60 0 -103.5 -12t-92.5 -44v-39v-368h-74v366q0 44 -25.5 70.5t-65.5 26.5
q-37 0 -69.5 -8t-50.5 -15.5t-69 -32.5v-407h-74z" />
    <glyph glyph-name="n" unicode="n" 
d="M60 0v531h52l22 -62q3 1 22 12.5t23.5 13.5t21.5 11.5t24 11.5t23 8t26.5 8t25.5 4t30 2q76 0 120 -50t44 -120v-370h-74v370q0 47 -25 71.5t-65 24.5q-38 0 -72 -8t-54.5 -16.5t-69.5 -32.5v-409h-74z" />
    <glyph glyph-name="o" unicode="o" horiz-adv-x="568" 
d="M50 258q0 161 51 219.5t183 58.5q134 0 184 -59.5t50 -218.5q0 -149 -50 -206t-184 -57q-132 0 -183 59t-51 204zM124 258q0 -65 9.5 -104t33 -57t48 -23t69.5 -5q46 0 71.5 5t48 23.5t31.5 57t9 103.5q0 71 -7.5 112t-29.5 61.5t-47.5 25.5t-75.5 5q-38 0 -60 -3
t-44 -14t-32.5 -33t-17 -59.5t-6.5 -94.5z" />
    <glyph glyph-name="p" unicode="p" horiz-adv-x="554" 
d="M60 -270v801h53l19 -59q25 18 88 41.5t109 23.5q52 0 88 -24t54 -65.5t25.5 -85t7.5 -94.5q0 -58 -6.5 -101.5t-24 -86t-54 -65.5t-90.5 -23q-37 0 -94.5 11t-102.5 29v-302h-72zM132 92q100 -26 197 -26q52 0 76.5 43t24.5 159q0 195 -101 195q-84 0 -197 -46v-325z" />
    <glyph glyph-name="q" unicode="q" horiz-adv-x="555" 
d="M50 268q0 129 46 199t138 70q47 0 99.5 -4.5t101 -11t60.5 -7.5v-784h-74v299q-96 -39 -187 -39q-56 0 -93 20.5t-56.5 60t-27 86.5t-7.5 111zM124 268q0 -102 14 -140q24 -64 96 -64q56 0 90.5 4.5t96.5 20.5v374h-187q-110 0 -110 -195z" />
    <glyph glyph-name="r" unicode="r" horiz-adv-x="426" 
d="M60 0v531h52l22 -67q5 3 25.5 15t27 15.5t24.5 12.5t28.5 12.5t27 8.5t32.5 7t33 2q58 0 74 -8v-73q-24 6 -74 6q-38 0 -72.5 -8t-55 -17t-70.5 -33v-404h-74z" />
    <glyph glyph-name="s" unicode="s" horiz-adv-x="506" 
d="M40 358v46q0 65 32 98.5t106 33.5q95 0 261 -16v-57h-261q-23 0 -37 -4t-19.5 -13.5t-6.5 -17.5t-1 -24v-46q0 -20 4.5 -32t14.5 -17t19 -6.5t26 -1.5h158q63 0 96.5 -35.5t33.5 -93.5v-49q0 -74 -36 -101t-94 -27q-94 0 -274 19v55h274q0 1 5.5 0t14 2t16.5 7t14 16
t6 29v49q0 28 -12.5 41.5t-43.5 13.5h-158q-73 0 -105.5 28t-32.5 103z" />
    <glyph glyph-name="t" unicode="t" horiz-adv-x="378" 
d="M20 458v56l99 18l18 148h56v-148h155v-74h-155v-268q0 -61 14 -84.5t43 -30.5q82 -21 89 -21v-53h-88q-132 0 -132 189v268h-99z" />
    <glyph glyph-name="u" unicode="u" 
d="M50 161v370h74v-370q0 -47 25 -71.5t65 -24.5q38 0 72 8t54.5 16.5t69.5 32.5v409h74v-531h-52l-22 62q-3 -1 -22 -12.5t-23.5 -13.5t-21.5 -11.5t-24 -11.5t-23 -8t-26.5 -8t-25.5 -4t-30 -2q-76 0 -120 50t-44 120z" />
    <glyph glyph-name="v" unicode="v" horiz-adv-x="536" 
d="M20 531h81l166 -422l168 422h81l-213 -531h-74z" />
    <glyph glyph-name="w" unicode="w" horiz-adv-x="801" 
d="M20 531h81l157 -422l138 422h80l-54 -170l116 -252l162 422h81l-203 -531h-74l-118 260l-87 -260h-80z" />
    <glyph glyph-name="x" unicode="x" horiz-adv-x="524" 
d="M24 0l192 266l-192 265h92l144 -204l148 204h92l-194 -268l186 -263h-84l-146 202l-146 -202h-92z" />
    <glyph glyph-name="y" unicode="y" horiz-adv-x="554" 
d="M21 531h81l129 -415q3 -9 7 -16.5t8.5 -11.5t9.5 -7.5t10 -4.5t9.5 -1.5t8.5 0t7 1t5 0.5l1 1l152 454h83l-234 -699l-75 -102h-46l94 270q-86 0 -120 110z" />
    <glyph glyph-name="z" unicode="z" horiz-adv-x="456" 
d="M30 457v74h396v-74l-284 -382h284v-74h-381v74l289 382h-304z" />
    <glyph glyph-name="braceleft" unicode="{" horiz-adv-x="320" 
d="M20 300v67q2 0 13 1t15.5 1.5t14.5 2t14.5 4t12 6.5t11 9t6.5 12.5t3 16.5v236q0 79 48 132.5t142 53.5v-74q-54 0 -85 -24.5t-31 -87.5v-236q0 -35 -23.5 -57t-61.5 -29q36 -5 60 -28.5t24 -54.5v-289q0 -48 32 -74.5t85 -23.5v-74q-53 0 -92 15.5t-59.5 41.5t-30 54.5
t-9.5 60.5v285q0 29 -27.5 42.5t-61.5 10.5z" />
    <glyph glyph-name="bar" unicode="|" horiz-adv-x="245" 
d="M86 -72v842h74v-842h-74z" />
    <glyph glyph-name="braceright" unicode="}" horiz-adv-x="320" 
d="M20 -136q53 -3 85 23.5t32 74.5v289q0 31 24 54.5t60 28.5q-38 7 -61.5 29t-23.5 57v236q0 63 -31 87.5t-85 24.5v74q94 0 142 -53.5t48 -132.5v-236q0 -9 3 -16.5t6.5 -12.5t11 -9t12 -6.5t14.5 -4t14.5 -2t15.5 -1.5t13 -1v-67q-34 3 -61.5 -10.5t-27.5 -42.5v-285
q0 -32 -9.5 -60.5t-30 -54.5t-59.5 -41.5t-92 -15.5v74z" />
    <glyph glyph-name="asciitilde" unicode="~" horiz-adv-x="438" 
d="M50 572q8 6 27 23.5t28 24t26 13.5t36 7q23 0 55 -17.5t51 -17.5q11 0 21.5 2.5t21 7.5t17.5 9t18 11t15 10l22 -42q-2 -2 -21 -20.5t-28 -26t-28 -16.5t-38 -9q-23 0 -56.5 17.5t-52.5 17.5q-17 0 -31.5 -5.5t-32 -15t-29.5 -14.5z" />
    <glyph glyph-name="exclamdown" unicode="&#xa1;" horiz-adv-x="269" 
d="M83 385v53q0 21 24 23h49q9 -1 16.5 -8.5t7.5 -17.5v-49q-2 -27 -23 -27h-50q-24 0 -24 26zM88 -270l6 531h75l8 -531h-89z" />
    <glyph glyph-name="cent" unicode="&#xa2;" horiz-adv-x="490" 
d="M40 266q0 87 13 143.5t40 84.5t58.5 37t79.5 7v96h60v-101q75 -9 152 -23v-54q-139 8 -228 8q-21 0 -34 -3t-27 -14t-22 -32t-13 -59.5t-5 -93.5q0 -112 23 -153.5t78 -41.5q41 0 99.5 2.5t97.5 5.5l38 3v-56q-73 -21 -159 -26v-92h-60v89q-48 -1 -79 8t-58.5 36.5
t-40.5 84t-13 144.5z" />
    <glyph glyph-name="sterling" unicode="&#xa3;" horiz-adv-x="596" 
d="M50 0v59l72 15v256h-72v45l72 17v113q0 45 6 80t16 58.5t27 40.5t34 26t43 14t47.5 6.5t54.5 1.5q25 0 74 -4t86 -8l36 -4v-57h-194q-37 0 -54.5 -1t-39.5 -5.5t-30.5 -13.5t-17.5 -27t-11.5 -43.5t-2.5 -63.5v-113l271 -17v-45h-271v-256h349v-74h-495z" />
    <glyph glyph-name="currency" unicode="&#xa4;" horiz-adv-x="459" 
d="M51 449l40 36l41 -42q41 30 92 30q55 0 99 -34l48 47l35 -40l-47 -47q24 -38 24 -84q0 -53 -28 -95l53 -53l-42 -37l-49 49q-42 -32 -93 -32q-48 0 -88 29l-47 -47l-37 42l45 44q-31 43 -31 100q0 50 28 90zM122 313q0 -44 29.5 -76t72.5 -32t73 32t30 76q0 43 -30 72.5
t-73 29.5q-42 0 -72 -30t-30 -72z" />
    <glyph glyph-name="yen" unicode="&#xa5;" horiz-adv-x="600" 
d="M20 732h81l189 -338l206 338h84l-252 -411h181v-59h-182v-50h182v-59h-182v-153h-74v153h-171v59h171v50h-171v59h170z" />
    <glyph glyph-name="brokenbar" unicode="&#xa6;" horiz-adv-x="246" 
d="M86 -72v328h74v-328h-74zM86 429v341h74v-341h-74z" />
    <glyph glyph-name="section" unicode="&#xa7;" horiz-adv-x="552" 
d="M56 353v62q0 79 44 93q-45 13 -45 82v70q0 67 37 95.5t93 28.5q93 0 274 -19v-55h-274q-28 0 -41.5 -11t-14.5 -39v-70q0 -47 56 -47h179q79 0 106.5 -32t26.5 -95v-62q0 -83 -42 -89q41 -6 41 -82v-73q0 -39 -11.5 -64t-34 -36t-43 -14.5t-49.5 -3.5q-86 0 -266 19v55
h266q31 0 47 8.5t17 35.5v73q0 30 -12.5 38.5t-45.5 8.5h-179q-66 0 -97.5 25.5t-31.5 97.5zM129 353q0 -31 12.5 -40t43.5 -9h179q21 0 33.5 3.5t17.5 12t6 14.5t1 20v62q0 30 -9.5 42t-48.5 12h-179q-34 0 -45 -10t-11 -46v-61z" />
    <glyph glyph-name="dieresis" unicode="&#xa8;" horiz-adv-x="456" 
d="M50 582q0 21 15 35.5t36 14.5t35.5 -14.5t14.5 -35.5t-14.5 -36t-35.5 -15t-36 15t-15 36zM305 582q0 21 15 35.5t36 14.5t35.5 -14.5t14.5 -35.5t-14.5 -36t-35.5 -15t-36 15t-15 36z" />
    <glyph glyph-name="copyright" unicode="&#xa9;" horiz-adv-x="811" 
d="M55 368q0 364 227 364h270q41 0 73 -14t53 -35.5t36.5 -55t23 -63.5t12 -70t5.5 -66t1 -60q0 -76 -11 -139.5t-34 -116t-63.5 -82.5t-95.5 -30h-270q-53 0 -94 26t-65.5 65t-40.5 90t-21.5 96.5t-5.5 90.5zM119 368q0 -120 42 -211.5t121 -92.5h270q62 1 101 79t39 225
q0 44 -2 78t-10 78.5t-22 73.5t-41 49.5t-65 20.5h-270q-76 0 -119.5 -66t-43.5 -234zM231 365q0 114 39 166t105 52q44 0 178 -24v-52q-84 12 -178 12q-80 0 -80 -157q0 -72 17 -111.5t63 -39.5q72 0 184 16v-52q-100 -28 -184 -28q-67 0 -105.5 47.5t-38.5 170.5z" />
    <glyph glyph-name="ordfeminine" unicode="&#xaa;" horiz-adv-x="364" 
d="M30 268v58h304v-58h-304zM30 463v46q0 41 27 65.5t73 24.5q140 -1 140 0q1 31 0 32q0 50 -61 50q-24 0 -48 -1t-58 -3t-61 -3v42q17 2 50 8.5t62 10.5t63 4q50 1 82.5 -25t32.5 -78v-258h-40l-21 49l-9 -5q-10 -6 -25 -14t-32.5 -15.5t-37.5 -13t-37 -5.5
q-41 0 -70.5 23.5t-29.5 65.5zM92 476q0 -40 44 -40q27 0 60.5 8t53.5 16l20 8v86l-134 -10q-44 -4 -44 -41v-27z" />
    <glyph glyph-name="guillemotleft" unicode="&#xab;" horiz-adv-x="549" 
d="M50 354l206 203l52 -52l-155 -151l160 -156l-52 -52zM236 354l206 203l52 -52l-155 -151l160 -156l-52 -52z" />
    <glyph glyph-name="logicalnot" unicode="&#xac;" horiz-adv-x="527" 
d="M50 256v74h427v-171h-74v97h-353z" />
    <glyph glyph-name="uni00AD" unicode="&#xad;" horiz-adv-x="354" 
d="M20 253v74h314v-74h-314z" />
    <glyph glyph-name="registered" unicode="&#xae;" horiz-adv-x="811" 
d="M55 368q0 364 227 364h270q41 0 73 -14t53 -35.5t36.5 -55t23 -63.5t12 -70t5.5 -66t1 -60q0 -76 -11 -139.5t-34 -116t-63.5 -82.5t-95.5 -30h-270q-53 0 -94 26t-65.5 65t-40.5 90t-21.5 96.5t-5.5 90.5zM119 368q0 -120 42 -211.5t121 -92.5h270q62 1 101 79t39 225
q0 44 -2 78t-10 78.5t-22 73.5t-41 49.5t-65 20.5h-270q-76 0 -119.5 -66t-43.5 -234zM261 153v427h177q134 0 134 -128q0 -41 -9 -68t-28 -39.5t-28.5 -16t-30.5 -7.5l91 -168h-72l-91 170l-79 12v-182h-64zM325 379h119q39 0 51.5 14t12.5 58q0 22 -6 36.5t-17 20t-19.5 7
t-21.5 1.5h-119v-137z" />
    <glyph glyph-name="macron" unicode="&#xaf;" horiz-adv-x="392" 
d="M50 531v63h292v-63h-292z" />
    <glyph glyph-name="degree" unicode="&#xb0;" horiz-adv-x="303" 
d="M50 632q0 43 30 73t72 30t71.5 -30t29.5 -73t-29.5 -72.5t-71.5 -29.5t-72 29.5t-30 72.5zM97 632q0 -22 16 -38t39 -16q22 0 38 16t16 38q0 23 -16 39t-38 16t-38.5 -16.5t-16.5 -38.5z" />
    <glyph glyph-name="plusminus" unicode="&#xb1;" horiz-adv-x="527" 
d="M56 87v74h416v-74h-416zM56 387v74h170v171h74v-171h172v-74h-172v-171h-74v171h-170z" />
    <glyph glyph-name="twosuperior" unicode="&#xb2;" horiz-adv-x="387" 
d="M32 826q-1 0 -1 12t1 24v11q124 15 183 15q130 0 130 -136q0 -35 -18 -75t-37.5 -67.5t-55.5 -63.5t-48 -46t-38 -32h196v-62h-309v58q8 7 40.5 31.5t53.5 41.5t52.5 46.5t50.5 54t33.5 54.5t14.5 57q0 41 -17 59t-59 18h-172z" />
    <glyph glyph-name="threesuperior" unicode="&#xb3;" horiz-adv-x="406" 
d="M30 822v43q9 3 18.5 5.5t21 4.5t19 3.5t21.5 2.5t20.5 1.5t23.5 0.5h22h24.5h24.5q61 0 91 -33.5t30 -83.5v-35q0 -33 -14 -56.5t-35 -31.5q49 -31 49 -94v-28q0 -58 -28 -88.5t-98 -30.5h-23.5h-23.5h-21t-22 0.5t-19 1.5t-20.5 2.5t-18 3.5t-20 4.5t-18.5 5.5l1 43
l177 1q40 0 56 14t16 47v23q0 67 -68 69l-142 5v47l142 7q69 3 69 64v22q0 60 -69 60h-186z" />
    <glyph glyph-name="acute" unicode="&#xb4;" horiz-adv-x="242" 
d="M20 531l107 133h95l-133 -133h-69z" />
    <glyph glyph-name="uni00B5" unicode="&#xb5;" horiz-adv-x="594" 
d="M90 161v370h74v-370q0 -47 25 -71.5t65 -24.5q38 0 72 8t54.5 16.5t69.5 32.5v409h74v-531h-52l-22 62q-3 -1 -22 -12.5t-23.5 -13.5t-21.5 -11.5t-24 -11.5t-23 -8t-26.5 -8t-25.5 -4t-30 -2q-52 0 -90 25v-286h-74v431z" />
    <glyph glyph-name="paragraph" unicode="&#xb6;" horiz-adv-x="581" 
d="M40 499v93q0 67 46.5 103.5t109.5 36.5h365v-76h-69v-656h-74v658h-94v-928h-74v642l-9 -5q-9 -5 -20.5 -8.5t-24.5 -3.5q-74 0 -115 41t-41 103zM114 501q0 -41 26 -56.5t56 -15.5h54v229h-54q-44 0 -63 -21t-19 -47v-89z" />
    <glyph glyph-name="periodcentered" unicode="&#xb7;" horiz-adv-x="272" 
d="M85 354v57q0 25 24 25h53q25 0 25 -25v-57q0 -23 -25 -23h-53q-24 0 -24 23z" />
    <glyph glyph-name="cedilla" unicode="&#xb8;" horiz-adv-x="252" 
d="M50 -136l53 15q32 14 32 84h67q0 -78 -21 -107t-80 -29h-51v37z" />
    <glyph glyph-name="onesuperior" unicode="&#xb9;" horiz-adv-x="271" 
d="M16 778v49l128 55h62v-476h-62v407z" />
    <glyph glyph-name="ordmasculine" unicode="&#xba;" horiz-adv-x="390" 
d="M30 550q0 107 35.5 147t130.5 40t129.5 -40t34.5 -147q0 -98 -35 -137.5t-129 -39.5t-130 39.5t-36 137.5zM41 271v58h307v-58h-307zM92 550q0 -41 6.5 -65t23 -34.5t31 -13t43.5 -2.5q31 0 45 2t29.5 12.5t21 34.5t6.5 66q1 45 -4.5 71t-21.5 37.5t-30.5 14t-45.5 2.5
q-33 0 -47 -2t-30 -13.5t-21.5 -37.5t-5.5 -72z" />
    <glyph glyph-name="guillemotright" unicode="&#xbb;" horiz-adv-x="549" 
d="M50 198l160 156l-155 151l52 52l206 -203l-211 -208zM236 198l160 156l-155 151l52 52l206 -203l-211 -208z" />
    <glyph glyph-name="onequarter" unicode="&#xbc;" horiz-adv-x="903" 
d="M16 628v49l128 55h62v-476h-62v407zM220 0l348 732h65l-348 -732h-65zM496 143l209 331h71l-181 -290h166v121l28 48h34v-169h59v-52l-59 -13v-120h-62v120h-243z" />
    <glyph glyph-name="onehalf" unicode="&#xbd;" horiz-adv-x="974" 
d="M16 628v49l128 55h62v-476h-62v407zM215 0l348 732h65l-348 -732h-65zM620 420q-1 0 -1 12t1 24v11q124 15 183 15q130 0 130 -136q0 -35 -18 -75t-37.5 -67.5t-55.5 -63.5t-48 -46t-38 -32h196v-62h-309v58q8 7 40.5 31.5t53.5 41.5t52.5 46.5t50.5 54t33.5 54.5
t14.5 57q0 41 -17 59t-59 18h-172z" />
    <glyph glyph-name="threequarters" unicode="&#xbe;" horiz-adv-x="1019" 
d="M30 672v43q9 3 18.5 5.5t21 4.5t19 3.5t21.5 2.5t20.5 1.5t23.5 0.5h22h24.5h24.5q61 0 91 -33.5t30 -83.5v-35q0 -33 -14 -56.5t-35 -31.5q49 -31 49 -94v-28q0 -58 -28 -88.5t-98 -30.5h-23.5h-23.5h-21t-22 0.5t-19 1.5t-20.5 2.5t-18 3.5t-20 4.5t-18.5 5.5l1 43
l177 1q40 0 56 14t16 47v23q0 67 -68 69l-142 5v47l142 7q69 3 69 64v22q0 60 -69 60h-186zM319 0l348 732h65l-348 -732h-65zM581 144l208 330h67l-181 -293h175v125l24 48h34v-173h59v-48l-59 -13v-120h-58v120h-247z" />
    <glyph glyph-name="questiondown" unicode="&#xbf;" horiz-adv-x="543" 
d="M40 22q-1 86 68 127.5t173 25.5v101h77l1 -162q-95 2 -143 0q-36 -1 -61 -30t-28 -69q-1 -80 -1 -100q0 -45 30.5 -78t93.5 -31l273 1q-1 0 -1.5 -14.5t0 -26.5t-0.5 -14q-13 -2 -48 -6.5t-45 -5.5t-43.5 -4.5t-44 -3.5t-47.5 -1.5t-54 1.5q-199 -1 -199 188v102z
M270 394v51q0 10 7.5 17.5t16.5 8.5h49q24 -2 24 -23v-54q-2 -24 -21 -25h-56q-18 6 -20 25z" />
    <glyph glyph-name="Agrave" unicode="&#xc0;" horiz-adv-x="670" 
d="M184 930h94l108 -133h-70zM45 0l269 732h74l257 -732h-88l-63 204h-292l-66 -204h-91zM229 278h239l-118 341z" />
    <glyph glyph-name="Aacute" unicode="&#xc1;" horiz-adv-x="670" 
d="M316 797l108 133h94l-132 -133h-70zM45 0l269 732h74l257 -732h-88l-63 204h-292l-66 -204h-91zM229 278h239l-118 341z" />
    <glyph glyph-name="Acircumflex" unicode="&#xc2;" horiz-adv-x="670" 
d="M205 797l117 130h71l104 -130h-71l-71 71l-78 -71h-72zM45 0l269 732h74l257 -732h-88l-63 204h-292l-66 -204h-91zM229 278h239l-118 341z" />
    <glyph glyph-name="Atilde" unicode="&#xc3;" horiz-adv-x="670" 
d="M182 838q27 22 40.5 32.5t36 21t41.5 10.5q28 -2 61.5 -18.5t45.5 -16.5q22 -1 91 36l22 -42q-3 -2 -24.5 -19.5t-31 -23.5t-27 -13.5t-32.5 -6.5q-30 2 -60 18t-47 16q-20 0 -34.5 -5.5t-31 -15t-29.5 -14.5zM45 0l269 732h74l257 -732h-88l-63 204h-292l-66 -204h-91z
M229 278h239l-118 341z" />
    <glyph glyph-name="Adieresis" unicode="&#xc4;" horiz-adv-x="670" 
d="M173 848q0 21 15 35.5t36 14.5t35.5 -14.5t14.5 -35.5t-14.5 -36t-35.5 -15t-36 15t-15 36zM428 848q0 21 15 35.5t36 14.5t35.5 -14.5t14.5 -35.5t-14.5 -36t-35.5 -15t-36 15t-15 36zM45 0l269 732h74l257 -732h-88l-63 204h-292l-66 -204h-91zM229 278h239l-118 341z
" />
    <glyph glyph-name="Aring" unicode="&#xc5;" horiz-adv-x="670" 
d="M250 832.5q0 42.5 29.5 72.5t71.5 30t71.5 -30t29.5 -73t-29 -72.5t-71.5 -29.5t-72 30t-29.5 72.5zM296 832.5q0 -22.5 16.5 -38.5t39 -16t38.5 16t16 38.5t-16 38.5t-38.5 16t-39 -16t-16.5 -38.5zM45 0l269 732h74l257 -732h-88l-63 204h-292l-66 -204h-91zM229 278
h239l-118 341z" />
    <glyph glyph-name="AE" unicode="&#xc6;" horiz-adv-x="921" 
d="M30 0l298 604q12 24 23.5 42.5t25 31.5t23.5 23t25.5 15.5t24.5 9.5t26.5 5t25 1.5t27.5 0t27 -0.5l320 -16v-59h-320q-17 0 -27.5 -3.5t-15 -13.5t-5.5 -15.5t-2 -20.5v-207l330 -10v-59l-330 -10v-197q0 -10 1.5 -17.5t3.5 -12.5t7 -8.5t7.5 -5t10 -2.5t10 -1h11.5h11
l307 -1v-61l-307 -17q-136 -8 -136 126v106h-210l-111 -227h-81zM259 301h173v351z" />
    <glyph glyph-name="Ccedilla" unicode="&#xc7;" horiz-adv-x="578" 
d="M218 -135l53 15q32 14 32 84h67q0 -78 -21 -107t-80 -29h-51v37zM55 368q0 190 51.5 281t192.5 91q109 0 244 -25v-59h-9q-9 1 -24 2t-34.5 2t-42.5 2t-45.5 2t-46 1.5t-42.5 0.5q-65 0 -100.5 -24.5t-52.5 -89t-17 -186.5q0 -298 170 -298l244 7v-59q-118 -22 -244 -22
q-244 0 -244 374z" />
    <glyph glyph-name="Egrave" unicode="&#xc8;" horiz-adv-x="567" 
d="M176 925h95l107 -133h-69zM80 123v479q0 69 35.5 100.5t90.5 29.5l316 -16v-58h-316q-24 0 -36.5 -9.5t-14 -19t-1.5 -27.5v-200l328 -10v-59l-328 -10v-200q0 -25 11 -37t21 -13.5t30 -1.5h306v-57l-306 -17q-136 -8 -136 126z" />
    <glyph glyph-name="Eacute" unicode="&#xc9;" horiz-adv-x="567" 
d="M287 792l107 133h95l-133 -133h-69zM80 123v479q0 69 35.5 100.5t90.5 29.5l316 -16v-58h-316q-24 0 -36.5 -9.5t-14 -19t-1.5 -27.5v-200l328 -10v-59l-328 -10v-200q0 -25 11 -37t21 -13.5t30 -1.5h306v-57l-306 -17q-136 -8 -136 126z" />
    <glyph glyph-name="Ecircumflex" unicode="&#xca;" horiz-adv-x="567" 
d="M170 797l117 130h71l104 -130h-71l-71 71l-78 -71h-72zM80 123v479q0 69 35.5 100.5t90.5 29.5l316 -16v-58h-316q-24 0 -36.5 -9.5t-14 -19t-1.5 -27.5v-200l328 -10v-59l-328 -10v-200q0 -25 11 -37t21 -13.5t30 -1.5h306v-57l-306 -17q-136 -8 -136 126z" />
    <glyph glyph-name="Edieresis" unicode="&#xcb;" horiz-adv-x="567" 
d="M139 843q0 21 15 35.5t36 14.5t35.5 -14.5t14.5 -35.5t-14.5 -36t-35.5 -15t-36 15t-15 36zM394 843q0 21 15 35.5t36 14.5t35.5 -14.5t14.5 -35.5t-14.5 -36t-35.5 -15t-36 15t-15 36zM80 123v479q0 69 35.5 100.5t90.5 29.5l316 -16v-58h-316q-24 0 -36.5 -9.5t-14 -19
t-1.5 -27.5v-200l328 -10v-59l-328 -10v-200q0 -25 11 -37t21 -13.5t30 -1.5h306v-57l-306 -17q-136 -8 -136 126z" />
    <glyph glyph-name="Igrave" unicode="&#xcc;" horiz-adv-x="214" 
d="M-50 930h94l108 -133h-70zM80 0v732h74v-732h-74z" />
    <glyph glyph-name="Iacute" unicode="&#xcd;" horiz-adv-x="214" 
d="M82 797l108 133h94l-132 -133h-70zM80 0v732h74v-732h-74z" />
    <glyph glyph-name="Icircumflex" unicode="&#xce;" horiz-adv-x="214" 
d="M-29 797l117 130h71l104 -130h-71l-71 71l-78 -71h-72zM80 0v732h74v-732h-74z" />
    <glyph glyph-name="Idieresis" unicode="&#xcf;" horiz-adv-x="214" 
d="M-61 848q0 21 15 35.5t36 14.5t35.5 -14.5t14.5 -35.5t-14.5 -36t-35.5 -15t-36 15t-15 36zM194 848q0 21 15 35.5t36 14.5t35.5 -14.5t14.5 -35.5t-14.5 -36t-35.5 -15t-36 15t-15 36zM80 0v732h74v-732h-74z" />
    <glyph glyph-name="Eth" unicode="&#xd0;" horiz-adv-x="657" 
d="M15 346v54h65v331q0 1 273 1q54 0 97 -16.5t70.5 -46.5t46.5 -65t28 -79t13 -82t4 -80q0 -52 -8 -101.5t-27.5 -97.5t-48.5 -84t-74 -58t-101 -22h-273v346h-65zM154 77h199q93 0 137.5 80.5t44.5 206.5q0 289 -182 289l-199 -1v-252h139v-54h-139v-269z" />
    <glyph glyph-name="Ntilde" unicode="&#xd1;" horiz-adv-x="680" 
d="M181 838q27 22 40.5 32.5t36 21t41.5 10.5q28 -2 61.5 -18.5t45.5 -16.5q22 -1 91 36l22 -42q-3 -2 -24.5 -19.5t-31 -23.5t-27 -13.5t-32.5 -6.5q-30 2 -60 18t-47 16q-20 0 -34.5 -5.5t-31 -15t-29.5 -14.5zM80 0v732h76l390 -594v594h74v-732h-74l-391 594v-594h-75z
" />
    <glyph glyph-name="Ograve" unicode="&#xd2;" horiz-adv-x="676" 
d="M182 930h94l108 -133h-70zM65 361q0 84 9 146.5t28 103.5t41.5 66.5t57.5 38.5t68 17t80 4q41 0 70.5 -3t61 -12t52.5 -25t41 -44t31.5 -67.5t18.5 -95.5t7 -129q0 -95 -12.5 -161.5t-34 -106.5t-59 -61.5t-77.5 -28.5t-99 -7q-50 0 -84 4t-69 16.5t-57 37t-40 64.5
t-26 100.5t-8 142.5zM139 361q0 -97 9.5 -154t37 -88t63.5 -40t100 -9q50 0 82 6.5t58 24t40 50.5t21 83.5t7 126.5q0 50 -3 89.5t-7 69.5t-14 52.5t-18 37.5t-24 25.5t-27.5 16t-34 8t-37.5 3t-43 0.5t-42.5 -0.5t-37 -3t-34.5 -8t-28 -16t-24.5 -25.5t-18.5 -37.5
t-14.5 -52.5t-7.5 -70t-3 -89z" />
    <glyph glyph-name="Oacute" unicode="&#xd3;" horiz-adv-x="676" 
d="M314 797l108 133h94l-132 -133h-70zM65 361q0 84 9 146.5t28 103.5t41.5 66.5t57.5 38.5t68 17t80 4q41 0 70.5 -3t61 -12t52.5 -25t41 -44t31.5 -67.5t18.5 -95.5t7 -129q0 -95 -12.5 -161.5t-34 -106.5t-59 -61.5t-77.5 -28.5t-99 -7q-50 0 -84 4t-69 16.5t-57 37
t-40 64.5t-26 100.5t-8 142.5zM139 361q0 -97 9.5 -154t37 -88t63.5 -40t100 -9q50 0 82 6.5t58 24t40 50.5t21 83.5t7 126.5q0 50 -3 89.5t-7 69.5t-14 52.5t-18 37.5t-24 25.5t-27.5 16t-34 8t-37.5 3t-43 0.5t-42.5 -0.5t-37 -3t-34.5 -8t-28 -16t-24.5 -25.5
t-18.5 -37.5t-14.5 -52.5t-7.5 -70t-3 -89z" />
    <glyph glyph-name="Ocircumflex" unicode="&#xd4;" horiz-adv-x="676" 
d="M203 797l117 130h71l104 -130h-71l-71 71l-78 -71h-72zM65 361q0 84 9 146.5t28 103.5t41.5 66.5t57.5 38.5t68 17t80 4q41 0 70.5 -3t61 -12t52.5 -25t41 -44t31.5 -67.5t18.5 -95.5t7 -129q0 -95 -12.5 -161.5t-34 -106.5t-59 -61.5t-77.5 -28.5t-99 -7q-50 0 -84 4
t-69 16.5t-57 37t-40 64.5t-26 100.5t-8 142.5zM139 361q0 -97 9.5 -154t37 -88t63.5 -40t100 -9q50 0 82 6.5t58 24t40 50.5t21 83.5t7 126.5q0 50 -3 89.5t-7 69.5t-14 52.5t-18 37.5t-24 25.5t-27.5 16t-34 8t-37.5 3t-43 0.5t-42.5 -0.5t-37 -3t-34.5 -8t-28 -16
t-24.5 -25.5t-18.5 -37.5t-14.5 -52.5t-7.5 -70t-3 -89z" />
    <glyph glyph-name="Otilde" unicode="&#xd5;" horiz-adv-x="676" 
d="M180 838q27 22 40.5 32.5t36 21t41.5 10.5q28 -2 61.5 -18.5t45.5 -16.5q22 -1 91 36l22 -42q-3 -2 -24.5 -19.5t-31 -23.5t-27 -13.5t-32.5 -6.5q-30 2 -60 18t-47 16q-20 0 -34.5 -5.5t-31 -15t-29.5 -14.5zM65 361q0 84 9 146.5t28 103.5t41.5 66.5t57.5 38.5t68 17
t80 4q41 0 70.5 -3t61 -12t52.5 -25t41 -44t31.5 -67.5t18.5 -95.5t7 -129q0 -95 -12.5 -161.5t-34 -106.5t-59 -61.5t-77.5 -28.5t-99 -7q-50 0 -84 4t-69 16.5t-57 37t-40 64.5t-26 100.5t-8 142.5zM139 361q0 -97 9.5 -154t37 -88t63.5 -40t100 -9q50 0 82 6.5t58 24
t40 50.5t21 83.5t7 126.5q0 50 -3 89.5t-7 69.5t-14 52.5t-18 37.5t-24 25.5t-27.5 16t-34 8t-37.5 3t-43 0.5t-42.5 -0.5t-37 -3t-34.5 -8t-28 -16t-24.5 -25.5t-18.5 -37.5t-14.5 -52.5t-7.5 -70t-3 -89z" />
    <glyph glyph-name="Odieresis" unicode="&#xd6;" horiz-adv-x="676" 
d="M171 848q0 21 15 35.5t36 14.5t35.5 -14.5t14.5 -35.5t-14.5 -36t-35.5 -15t-36 15t-15 36zM426 848q0 21 15 35.5t36 14.5t35.5 -14.5t14.5 -35.5t-14.5 -36t-35.5 -15t-36 15t-15 36zM65 361q0 84 9 146.5t28 103.5t41.5 66.5t57.5 38.5t68 17t80 4q41 0 70.5 -3
t61 -12t52.5 -25t41 -44t31.5 -67.5t18.5 -95.5t7 -129q0 -95 -12.5 -161.5t-34 -106.5t-59 -61.5t-77.5 -28.5t-99 -7q-50 0 -84 4t-69 16.5t-57 37t-40 64.5t-26 100.5t-8 142.5zM139 361q0 -97 9.5 -154t37 -88t63.5 -40t100 -9q50 0 82 6.5t58 24t40 50.5t21 83.5
t7 126.5q0 50 -3 89.5t-7 69.5t-14 52.5t-18 37.5t-24 25.5t-27.5 16t-34 8t-37.5 3t-43 0.5t-42.5 -0.5t-37 -3t-34.5 -8t-28 -16t-24.5 -25.5t-18.5 -37.5t-14.5 -52.5t-7.5 -70t-3 -89z" />
    <glyph glyph-name="multiply" unicode="&#xd7;" horiz-adv-x="458" 
d="M56 235l121 120l-121 121l52 53l121 -121l122 121l52 -52l-122 -122l121 -120l-52 -53l-121 121l-120 -120z" />
    <glyph glyph-name="Oslash" unicode="&#xd8;" horiz-adv-x="676" 
d="M65 361q0 101 14 171t35.5 110t60.5 61.5t77 27.5t96 6q126 0 180 -37l21 32h61l-44 -68q65 -84 65 -303q0 -95 -13 -161.5t-34.5 -106.5t-59 -61.5t-77.5 -28.5t-99 -7q-130 0 -186 38l-22 -34h-61l45 71q-59 80 -59 290zM139 361q0 -158 31 -219l318 496
q-16 12 -40 17.5t-43 6.5t-57 1q-36 0 -54 -1t-45 -6.5t-40 -17t-29 -33t-23.5 -54t-12.5 -80t-5 -110.5zM204 100q41 -30 144 -30q63 0 99.5 10.5t63 42t36.5 88t10 150.5q0 170 -34 235z" />
    <glyph glyph-name="Ugrave" unicode="&#xd9;" horiz-adv-x="677" 
d="M181 930h95l107 -133h-69zM80 320v412h74v-412q0 -91 11.5 -144.5t42.5 -75.5t56 -26.5t79 -4.5h8q21 0 33 0.5t31 2.5t30 6.5t26 13t24 21t19 31.5t15.5 43.5t9 58t3.5 74.5v412h75v-412q0 -93 -17.5 -157.5t-40 -96.5t-64 -49t-68.5 -19.5t-76 -2.5h-9q-27 0 -40.5 0.5
t-38 2t-37.5 6t-33.5 12t-32 20t-26.5 29.5t-23 41.5t-16 55t-11.5 70.5t-3.5 88z" />
    <glyph glyph-name="Uacute" unicode="&#xda;" horiz-adv-x="677" 
d="M314 797l107 133h95l-133 -133h-69zM80 320v412h74v-412q0 -91 11.5 -144.5t42.5 -75.5t56 -26.5t79 -4.5h8q21 0 33 0.5t31 2.5t30 6.5t26 13t24 21t19 31.5t15.5 43.5t9 58t3.5 74.5v412h75v-412q0 -93 -17.5 -157.5t-40 -96.5t-64 -49t-68.5 -19.5t-76 -2.5h-9
q-27 0 -40.5 0.5t-38 2t-37.5 6t-33.5 12t-32 20t-26.5 29.5t-23 41.5t-16 55t-11.5 70.5t-3.5 88z" />
    <glyph glyph-name="Ucircumflex" unicode="&#xdb;" horiz-adv-x="677" 
d="M202 797l118 130h70l104 -130h-70l-72 71l-78 -71h-72zM80 320v412h74v-412q0 -91 11.5 -144.5t42.5 -75.5t56 -26.5t79 -4.5h8q21 0 33 0.5t31 2.5t30 6.5t26 13t24 21t19 31.5t15.5 43.5t9 58t3.5 74.5v412h75v-412q0 -93 -17.5 -157.5t-40 -96.5t-64 -49t-68.5 -19.5
t-76 -2.5h-9q-27 0 -40.5 0.5t-38 2t-37.5 6t-33.5 12t-32 20t-26.5 29.5t-23 41.5t-16 55t-11.5 70.5t-3.5 88z" />
    <glyph glyph-name="Udieresis" unicode="&#xdc;" horiz-adv-x="677" 
d="M170 848q0 21 15 35.5t36 14.5t36 -14.5t15 -35.5t-15 -36t-36 -15t-36 15t-15 36zM426 848q0 21 14.5 35.5t36 14.5t35.5 -14.5t14 -35.5t-14.5 -36t-35 -15t-35.5 15t-15 36zM80 320v412h74v-412q0 -91 11.5 -144.5t42.5 -75.5t56 -26.5t79 -4.5h8q21 0 33 0.5t31 2.5
t30 6.5t26 13t24 21t19 31.5t15.5 43.5t9 58t3.5 74.5v412h75v-412q0 -93 -17.5 -157.5t-40 -96.5t-64 -49t-68.5 -19.5t-76 -2.5h-9q-27 0 -40.5 0.5t-38 2t-37.5 6t-33.5 12t-32 20t-26.5 29.5t-23 41.5t-16 55t-11.5 70.5t-3.5 88z" />
    <glyph glyph-name="Yacute" unicode="&#xdd;" horiz-adv-x="630" 
d="M290 797l108 133h94l-132 -133h-70zM45 732h81l189 -384l209 384h81l-253 -472v-260h-74v260z" />
    <glyph glyph-name="Thorn" unicode="&#xde;" horiz-adv-x="557" 
d="M60 0v729h74v-141h197q176 -2 176 -213q0 -59 -11.5 -102t-28.5 -66t-42.5 -37t-46.5 -17.5t-47 -3.5h-23.5h-23t-23.5 0.5t-31.5 2.5t-40 6t-55.5 10v-168h-74zM134 223h197q46 -1 73.5 31t27.5 123q-1 46 -11 76t-28 41.5t-31 15t-31 3.5h-197v-290z" />
    <glyph glyph-name="germandbls" unicode="&#xdf;" horiz-adv-x="570" 
d="M60 0v566q0 90 60 150.5t163 60.5q71 0 121 -18.5t73.5 -48t31.5 -66t-0.5 -72t-28.5 -67t-47 -50.5q-9 -8 -26 -21t-23.5 -19t-17 -16t-14.5 -16.5t-7.5 -15.5t-3.5 -19q0 -18 21.5 -28.5t52.5 -17.5t61.5 -17.5t52 -37t21.5 -68.5v-47q0 -39 -15 -67.5t-40 -43.5
t-51 -22t-52 -7q-30 0 -63.5 3.5t-66 9t-43.5 6.5v60q16 0 77.5 -2.5t99.5 -2.5q31 0 55 18.5t25 47.5v47q0 21 -21.5 32.5t-52 18t-61.5 16.5t-52.5 35.5t-21.5 66.5q0 47 22.5 77.5t98.5 86.5q50 38 50 100q0 91 -155 91q-65 0 -107 -33t-42 -104v-566h-74z" />
    <glyph glyph-name="agrave" unicode="&#xe0;" horiz-adv-x="519" 
d="M99 734h95l107 -133h-69zM40 126v61q0 61 35.5 97t97.5 36q222 -1 222 0q1 66 0 67q0 82 -82 82q-90 0 -256 -12v54q101 28 259 30q67 1 110 -37.5t43 -116.5v-387h-55l-19 64l-15 -7q-14 -7 -38 -17.5t-52 -21t-60 -17.5t-57 -7q-57 0 -95 35t-38 97zM114 131
q0 -63 59 -63q36 0 91.5 13t93.5 25l37 13v143l-222 -16q-30 -3 -44.5 -21t-14.5 -44v-50z" />
    <glyph glyph-name="aacute" unicode="&#xe1;" horiz-adv-x="519" 
d="M227 601l107 133h95l-133 -133h-69zM40 126v61q0 61 35.5 97t97.5 36q222 -1 222 0q1 66 0 67q0 82 -82 82q-90 0 -256 -12v54q101 28 259 30q67 1 110 -37.5t43 -116.5v-387h-55l-19 64l-15 -7q-14 -7 -38 -17.5t-52 -21t-60 -17.5t-57 -7q-57 0 -95 35t-38 97zM114 131
q0 -63 59 -63q36 0 91.5 13t93.5 25l37 13v143l-222 -16q-30 -3 -44.5 -21t-14.5 -44v-50z" />
    <glyph glyph-name="acircumflex" unicode="&#xe2;" horiz-adv-x="519" 
d="M117 601l117 130h71l104 -130h-71l-71 71l-78 -71h-72zM40 126v61q0 61 35.5 97t97.5 36q222 -1 222 0q1 66 0 67q0 82 -82 82q-90 0 -256 -12v54q101 28 259 30q67 1 110 -37.5t43 -116.5v-387h-55l-19 64l-15 -7q-14 -7 -38 -17.5t-52 -21t-60 -17.5t-57 -7
q-57 0 -95 35t-38 97zM114 131q0 -63 59 -63q36 0 91.5 13t93.5 25l37 13v143l-222 -16q-30 -3 -44.5 -21t-14.5 -44v-50z" />
    <glyph glyph-name="atilde" unicode="&#xe3;" horiz-adv-x="519" 
d="M89 642q27 22 40.5 32.5t36 21t41.5 10.5q28 -2 61.5 -18.5t45.5 -16.5q22 -1 91 36l22 -42q-3 -2 -24.5 -19.5t-31 -23.5t-27 -13.5t-32.5 -6.5q-30 2 -60 18t-47 16q-20 0 -34.5 -5.5t-31 -15t-29.5 -14.5zM40 126v61q0 61 35.5 97t97.5 36q222 -1 222 0q1 66 0 67
q0 82 -82 82q-90 0 -256 -12v54q101 28 259 30q67 1 110 -37.5t43 -116.5v-387h-55l-19 64l-15 -7q-14 -7 -38 -17.5t-52 -21t-60 -17.5t-57 -7q-57 0 -95 35t-38 97zM114 131q0 -63 59 -63q36 0 91.5 13t93.5 25l37 13v143l-222 -16q-30 -3 -44.5 -21t-14.5 -44v-50z" />
    <glyph glyph-name="adieresis" unicode="&#xe4;" horiz-adv-x="519" 
d="M83 652q0 21 15 35.5t36 14.5t35.5 -14.5t14.5 -35.5t-14.5 -36t-35.5 -15t-36 15t-15 36zM338 652q0 21 15 35.5t36 14.5t35.5 -14.5t14.5 -35.5t-14.5 -36t-35.5 -15t-36 15t-15 36zM40 126v61q0 61 35.5 97t97.5 36q222 -1 222 0q1 66 0 67q0 82 -82 82
q-90 0 -256 -12v54q101 28 259 30q67 1 110 -37.5t43 -116.5v-387h-55l-19 64l-15 -7q-14 -7 -38 -17.5t-52 -21t-60 -17.5t-57 -7q-57 0 -95 35t-38 97zM114 131q0 -63 59 -63q36 0 91.5 13t93.5 25l37 13v143l-222 -16q-30 -3 -44.5 -21t-14.5 -44v-50z" />
    <glyph glyph-name="aring" unicode="&#xe5;" horiz-adv-x="519" 
d="M161 673q0 43 30 73t72 30t71.5 -30t29.5 -73t-29.5 -72.5t-71.5 -29.5t-72 29.5t-30 72.5zM208 673q0 -22 16 -38t39 -16t38.5 15.5t15.5 38.5t-16 39t-38 16q-23 0 -39 -16t-16 -39zM40 126v61q0 61 35.5 97t97.5 36q222 -1 222 0q1 66 0 67q0 82 -82 82
q-90 0 -256 -12v54q101 28 259 30q67 1 110 -37.5t43 -116.5v-387h-55l-19 64l-15 -7q-14 -7 -38 -17.5t-52 -21t-60 -17.5t-57 -7q-57 0 -95 35t-38 97zM114 131q0 -63 59 -63q36 0 91.5 13t93.5 25l37 13v143l-222 -16q-30 -3 -44.5 -21t-14.5 -44v-50z" />
    <glyph glyph-name="ae" unicode="&#xe6;" horiz-adv-x="871" 
d="M40 132v40q0 61 35.5 97t97.5 36q222 -1 222 0q1 87 0 88q0 82 -82 82q-85 0 -256 -12v54q85 28 259 30q86 2 127 -58q26 31 69.5 41.5t115.5 10.5q55 0 86 -5t61 -23t43 -57t13 -103q0 -122 -137 -122h-224q0 -93 21 -124.5t80 -31.5q182 0 250 10v-56q-99 -28 -250 -28
q-60 0 -91 16.5t-63 53.5l-17 -7q-17 -8 -44 -18t-58 -20.5t-65.5 -18t-59.5 -7.5q-57 0 -95 35t-38 97zM114 137q0 -63 59 -63q36 0 91.5 13t93.5 25l37 13v128l-222 -16q-30 -3 -44.5 -21t-14.5 -44v-35zM470 304h224q63 0 63 49q0 77 -22.5 95.5t-105.5 18.5
q-35 0 -51.5 -1t-39 -5.5t-32 -14.5t-20 -28t-13.5 -46t-3 -68z" />
    <glyph glyph-name="ccedilla" unicode="&#xe7;" horiz-adv-x="500" 
d="M50 266q0 84 12.5 140t37.5 83.5t54 38t71 10.5q77 0 228 -28v-54q-139 8 -228 8q-21 0 -34 -3t-27 -14t-22 -32t-13 -59.5t-5 -93.5q0 -112 23 -153.5t78 -41.5q41 0 99.5 2.5t97.5 5.5l38 3v-56q-96 -27 -235 -29q-41 0 -70 10.5t-54 38.5t-38 84t-13 140zM175 -136
l53 15q32 14 32 84h67q0 -78 -21 -107t-80 -29h-51v37z" />
    <glyph glyph-name="egrave" unicode="&#xe8;" horiz-adv-x="525" 
d="M114 729h96l106 -133h-68zM50 268q0 88 12 141.5t43.5 81t70 36t106.5 8.5q55 0 86 -5t61 -23t43 -57t13 -103q0 -122 -137 -122h-224q0 -93 21 -124.5t80 -31.5q182 0 250 10v-56q-99 -28 -250 -28q-101 0 -138 58t-37 215zM124 298h224q63 0 63 49q0 77 -22.5 95.5
t-105.5 18.5q-35 0 -51.5 -1t-39 -5.5t-32 -14.5t-20 -28t-13.5 -46t-3 -68z" />
    <glyph glyph-name="eacute" unicode="&#xe9;" horiz-adv-x="525" 
d="M238 596l106 133h96l-134 -133h-68zM50 268q0 88 12 141.5t43.5 81t70 36t106.5 8.5q55 0 86 -5t61 -23t43 -57t13 -103q0 -122 -137 -122h-224q0 -93 21 -124.5t80 -31.5q182 0 250 10v-56q-99 -28 -250 -28q-101 0 -138 58t-37 215zM124 298h224q63 0 63 49
q0 77 -22.5 95.5t-105.5 18.5q-35 0 -51.5 -1t-39 -5.5t-32 -14.5t-20 -28t-13.5 -46t-3 -68z" />
    <glyph glyph-name="ecircumflex" unicode="&#xea;" horiz-adv-x="525" 
d="M128 596l117 130h71l104 -130h-71l-71 71l-78 -71h-72zM50 268q0 88 12 141.5t43.5 81t70 36t106.5 8.5q55 0 86 -5t61 -23t43 -57t13 -103q0 -122 -137 -122h-224q0 -93 21 -124.5t80 -31.5q182 0 250 10v-56q-99 -28 -250 -28q-101 0 -138 58t-37 215zM124 298h224
q63 0 63 49q0 77 -22.5 95.5t-105.5 18.5q-35 0 -51.5 -1t-39 -5.5t-32 -14.5t-20 -28t-13.5 -46t-3 -68z" />
    <glyph glyph-name="edieresis" unicode="&#xeb;" horiz-adv-x="525" 
d="M93 647q0 21 15 35.5t36 14.5t35.5 -14.5t14.5 -35.5t-14.5 -36t-35.5 -15t-36 15t-15 36zM348 647q0 21 15 35.5t36 14.5t35.5 -14.5t14.5 -35.5t-14.5 -36t-35.5 -15t-36 15t-15 36zM50 268q0 88 12 141.5t43.5 81t70 36t106.5 8.5q55 0 86 -5t61 -23t43 -57t13 -103
q0 -122 -137 -122h-224q0 -93 21 -124.5t80 -31.5q182 0 250 10v-56q-99 -28 -250 -28q-101 0 -138 58t-37 215zM124 298h224q63 0 63 49q0 77 -22.5 95.5t-105.5 18.5q-35 0 -51.5 -1t-39 -5.5t-32 -14.5t-20 -28t-13.5 -46t-3 -68z" />
    <glyph glyph-name="igrave" unicode="&#xec;" horiz-adv-x="194" 
d="M-70 729h94l108 -133h-70zM60 0v531h74v-531h-74z" />
    <glyph glyph-name="iacute" unicode="&#xed;" horiz-adv-x="194" 
d="M62 596l108 133h94l-132 -133h-70zM60 0v531h74v-531h-74z" />
    <glyph glyph-name="icircumflex" unicode="&#xee;" horiz-adv-x="194" 
d="M-49 596l117 130h71l104 -130h-71l-71 71l-78 -71h-72zM60 0v531h74v-531h-74z" />
    <glyph glyph-name="idieresis" unicode="&#xef;" horiz-adv-x="194" 
d="M-81 647q0 21 15 35.5t36 14.5t35.5 -14.5t14.5 -35.5t-14.5 -36t-35.5 -15t-36 15t-15 36zM174 647q0 21 15 35.5t36 14.5t35.5 -14.5t14.5 -35.5t-14.5 -36t-35.5 -15t-36 15t-15 36zM60 0v531h74v-531h-74z" />
    <glyph glyph-name="eth" unicode="&#xf0;" horiz-adv-x="538" 
d="M40 264q0 134 40.5 200.5t137.5 66.5h100q56 0 70 -15q-25 83 -74 132l-145 -58l-24 60l109 44q-53 28 -130 24v65q132 0 209 -59l118 47l25 -60l-91 -36q113 -139 113 -411q0 -142 -47 -203t-133 -61h-100q-100 0 -139 62.5t-39 201.5zM114 264q0 -65 7.5 -104.5
t23.5 -57t31.5 -22t41.5 -4.5h100q60 0 83 46.5t23 141.5q0 113 -21.5 153t-84.5 40h-100q-36 0 -57 -13.5t-34 -57t-13 -122.5z" />
    <glyph glyph-name="ntilde" unicode="&#xf1;" 
d="M108 641q27 22 40.5 32.5t36 21t41.5 10.5q28 -2 61.5 -18.5t45.5 -16.5q22 -1 91 36l22 -42q-3 -2 -24.5 -19.5t-31 -23.5t-27 -13.5t-32.5 -6.5q-30 2 -60 18t-47 16q-20 0 -34.5 -5.5t-31 -15t-29.5 -14.5zM60 0v531h52l22 -62q3 1 22 12.5t23.5 13.5t21.5 11.5
t24 11.5t23 8t26.5 8t25.5 4t30 2q76 0 120 -50t44 -120v-370h-74v370q0 47 -25 71.5t-65 24.5q-38 0 -72 -8t-54.5 -16.5t-69.5 -32.5v-409h-74z" />
    <glyph glyph-name="ograve" unicode="&#xf2;" horiz-adv-x="568" 
d="M126 729h96l106 -133h-68zM50 258q0 161 51 219.5t183 58.5q134 0 184 -59.5t50 -218.5q0 -149 -50 -206t-184 -57q-132 0 -183 59t-51 204zM124 258q0 -65 9.5 -104t33 -57t48 -23t69.5 -5q46 0 71.5 5t48 23.5t31.5 57t9 103.5q0 71 -7.5 112t-29.5 61.5t-47.5 25.5
t-75.5 5q-38 0 -60 -3t-44 -14t-32.5 -33t-17 -59.5t-6.5 -94.5z" />
    <glyph glyph-name="oacute" unicode="&#xf3;" horiz-adv-x="568" 
d="M250 596l106 133h96l-134 -133h-68zM50 258q0 161 51 219.5t183 58.5q134 0 184 -59.5t50 -218.5q0 -149 -50 -206t-184 -57q-132 0 -183 59t-51 204zM124 258q0 -65 9.5 -104t33 -57t48 -23t69.5 -5q46 0 71.5 5t48 23.5t31.5 57t9 103.5q0 71 -7.5 112t-29.5 61.5
t-47.5 25.5t-75.5 5q-38 0 -60 -3t-44 -14t-32.5 -33t-17 -59.5t-6.5 -94.5z" />
    <glyph glyph-name="ocircumflex" unicode="&#xf4;" horiz-adv-x="568" 
d="M143 596l117 130h71l104 -130h-71l-71 71l-78 -71h-72zM50 258q0 161 51 219.5t183 58.5q134 0 184 -59.5t50 -218.5q0 -149 -50 -206t-184 -57q-132 0 -183 59t-51 204zM124 258q0 -65 9.5 -104t33 -57t48 -23t69.5 -5q46 0 71.5 5t48 23.5t31.5 57t9 103.5
q0 71 -7.5 112t-29.5 61.5t-47.5 25.5t-75.5 5q-38 0 -60 -3t-44 -14t-32.5 -33t-17 -59.5t-6.5 -94.5z" />
    <glyph glyph-name="otilde" unicode="&#xf5;" horiz-adv-x="568" 
d="M124 637q27 22 40.5 32.5t36 21t41.5 10.5q28 -2 61.5 -18.5t45.5 -16.5q22 -1 91 36l22 -42q-3 -2 -24.5 -19.5t-31 -23.5t-27 -13.5t-32.5 -6.5q-30 2 -60 18t-47 16q-20 0 -34.5 -5.5t-31 -15t-29.5 -14.5zM50 258q0 161 51 219.5t183 58.5q134 0 184 -59.5t50 -218.5
q0 -149 -50 -206t-184 -57q-132 0 -183 59t-51 204zM124 258q0 -65 9.5 -104t33 -57t48 -23t69.5 -5q46 0 71.5 5t48 23.5t31.5 57t9 103.5q0 71 -7.5 112t-29.5 61.5t-47.5 25.5t-75.5 5q-38 0 -60 -3t-44 -14t-32.5 -33t-17 -59.5t-6.5 -94.5z" />
    <glyph glyph-name="odieresis" unicode="&#xf6;" horiz-adv-x="568" 
d="M107 647q0 21 15 35.5t36 14.5t35.5 -14.5t14.5 -35.5t-14.5 -36t-35.5 -15t-36 15t-15 36zM362 647q0 21 15 35.5t36 14.5t35.5 -14.5t14.5 -35.5t-14.5 -36t-35.5 -15t-36 15t-15 36zM50 258q0 161 51 219.5t183 58.5q134 0 184 -59.5t50 -218.5q0 -149 -50 -206
t-184 -57q-132 0 -183 59t-51 204zM124 258q0 -65 9.5 -104t33 -57t48 -23t69.5 -5q46 0 71.5 5t48 23.5t31.5 57t9 103.5q0 71 -7.5 112t-29.5 61.5t-47.5 25.5t-75.5 5q-38 0 -60 -3t-44 -14t-32.5 -33t-17 -59.5t-6.5 -94.5z" />
    <glyph glyph-name="divide" unicode="&#xf7;" horiz-adv-x="516" 
d="M50 316v74h416v-74h-416zM212 173v54q0 25 24 25h50q23 0 23 -25v-54q0 -23 -23 -23h-50q-24 0 -24 23zM212 472v54q0 25 24 25h50q23 0 23 -25v-54q0 -23 -23 -23h-50q-24 0 -24 23z" />
    <glyph glyph-name="oslash" unicode="&#xf8;" horiz-adv-x="568" 
d="M50 258q0 161 51 219.5t183 58.5q92 0 141 -25l15 20h66l-39 -53q51 -59 51 -220q0 -149 -50 -206t-184 -57q-100 0 -152 32l-20 -27h-61l44 61q-45 57 -45 197zM124 258q0 -88 20 -131l237 323q-29 12 -97 12q-38 0 -60 -3t-44 -14t-32.5 -33t-17 -59.5t-6.5 -94.5z
M177 88q29 -19 107 -19q46 0 71.5 5t48 23.5t31.5 57t9 103.5q0 115 -24 157z" />
    <glyph glyph-name="ugrave" unicode="&#xf9;" 
d="M110 729h94l108 -133h-70zM50 161v370h74v-370q0 -47 25 -71.5t65 -24.5q38 0 72 8t54.5 16.5t69.5 32.5v409h74v-531h-52l-22 62q-3 -1 -22 -12.5t-23.5 -13.5t-21.5 -11.5t-24 -11.5t-23 -8t-26.5 -8t-25.5 -4t-30 -2q-76 0 -120 50t-44 120z" />
    <glyph glyph-name="uacute" unicode="&#xfa;" 
d="M232 596l108 133h94l-132 -133h-70zM50 161v370h74v-370q0 -47 25 -71.5t65 -24.5q38 0 72 8t54.5 16.5t69.5 32.5v409h74v-531h-52l-22 62q-3 -1 -22 -12.5t-23.5 -13.5t-21.5 -11.5t-24 -11.5t-23 -8t-26.5 -8t-25.5 -4t-30 -2q-76 0 -120 50t-44 120z" />
    <glyph glyph-name="ucircumflex" unicode="&#xfb;" 
d="M121 596l117 130h71l104 -130h-71l-71 71l-78 -71h-72zM50 161v370h74v-370q0 -47 25 -71.5t65 -24.5q38 0 72 8t54.5 16.5t69.5 32.5v409h74v-531h-52l-22 62q-3 -1 -22 -12.5t-23.5 -13.5t-21.5 -11.5t-24 -11.5t-23 -8t-26.5 -8t-25.5 -4t-30 -2q-76 0 -120 50
t-44 120z" />
    <glyph glyph-name="udieresis" unicode="&#xfc;" 
d="M89 647q0 21 15 35.5t36 14.5t35.5 -14.5t14.5 -35.5t-14.5 -36t-35.5 -15t-36 15t-15 36zM344 647q0 21 15 35.5t36 14.5t35.5 -14.5t14.5 -35.5t-14.5 -36t-35.5 -15t-36 15t-15 36zM50 161v370h74v-370q0 -47 25 -71.5t65 -24.5q38 0 72 8t54.5 16.5t69.5 32.5v409h74
v-531h-52l-22 62q-3 -1 -22 -12.5t-23.5 -13.5t-21.5 -11.5t-24 -11.5t-23 -8t-26.5 -8t-25.5 -4t-30 -2q-76 0 -120 50t-44 120z" />
    <glyph glyph-name="yacute" unicode="&#xfd;" horiz-adv-x="554" 
d="M242 596l107 133h95l-133 -133h-69zM21 531h81l129 -415q3 -9 7 -16.5t8.5 -11.5t9.5 -7.5t10 -4.5t9.5 -1.5t8.5 0t7 1t5 0.5l1 1l152 454h83l-234 -699l-75 -102h-46l94 270q-86 0 -120 110z" />
    <glyph glyph-name="thorn" unicode="&#xfe;" horiz-adv-x="554" 
d="M70 -270v1052h74v-311q27 19 88.5 44t106.5 25q49 0 84.5 -23t54.5 -63t27.5 -86t8.5 -101q0 -45 -3.5 -80.5t-14 -74t-29 -64t-51.5 -42t-77 -16.5q-38 0 -94 10.5t-101 28.5v-299h-74zM144 89q23 -7 45 -11.5t45 -6.5t36 -3t37.5 -2.5t31.5 -1.5q50 0 75.5 44.5
t25.5 160.5q0 93 -27 145t-74 52q-78 -5 -195 -50v-327z" />
    <glyph glyph-name="ydieresis" unicode="&#xff;" horiz-adv-x="554" 
d="M98 647q0 21 15 35.5t36 14.5t36 -14.5t15 -35.5t-15 -36t-36 -15t-36 15t-15 36zM354 647q0 21 14.5 35.5t36 14.5t35.5 -14.5t14 -35.5t-14.5 -36t-35 -15t-35.5 15t-15 36zM21 531h81l129 -415q3 -9 7 -16.5t8.5 -11.5t9.5 -7.5t10 -4.5t9.5 -1.5t8.5 0t7 1t5 0.5l1 1
l152 454h83l-234 -699l-75 -102h-46l94 270q-86 0 -120 110z" />
    <glyph glyph-name="Amacron" unicode="&#x100;" horiz-adv-x="670" 
d="M205 797v63h292v-63h-292zM45 0l269 732h74l257 -732h-88l-63 204h-292l-66 -204h-91zM229 278h239l-118 341z" />
    <glyph glyph-name="amacron" unicode="&#x101;" horiz-adv-x="519" 
d="M127 601v63h292v-63h-292zM40 126v61q0 61 35.5 97t97.5 36q222 -1 222 0q1 66 0 67q0 82 -82 82q-90 0 -256 -12v54q101 28 259 30q67 1 110 -37.5t43 -116.5v-387h-55l-19 64l-15 -7q-14 -7 -38 -17.5t-52 -21t-60 -17.5t-57 -7q-57 0 -95 35t-38 97zM114 131
q0 -63 59 -63q36 0 91.5 13t93.5 25l37 13v143l-222 -16q-30 -3 -44.5 -21t-14.5 -44v-50z" />
    <glyph glyph-name="Abreve" unicode="&#x102;" horiz-adv-x="670" 
d="M236 911h47q0 -28 20.5 -47.5t46.5 -19.5q29 0 49 18t20 49h47q0 -53 -35.5 -83.5t-80.5 -30.5q-44 0 -79 31.5t-35 82.5zM45 0l269 732h74l257 -732h-88l-63 204h-292l-66 -204h-91zM229 278h239l-118 341z" />
    <glyph glyph-name="abreve" unicode="&#x103;" horiz-adv-x="519" 
d="M158 715h47q0 -28 20.5 -47.5t46.5 -19.5q29 0 49 18t20 49h47q0 -53 -35.5 -83.5t-80.5 -30.5q-44 0 -79 31.5t-35 82.5zM40 126v61q0 61 35.5 97t97.5 36q222 -1 222 0q1 66 0 67q0 82 -82 82q-90 0 -256 -12v54q101 28 259 30q67 1 110 -37.5t43 -116.5v-387h-55
l-19 64l-15 -7q-14 -7 -38 -17.5t-52 -21t-60 -17.5t-57 -7q-57 0 -95 35t-38 97zM114 131q0 -63 59 -63q36 0 91.5 13t93.5 25l37 13v143l-222 -16q-30 -3 -44.5 -21t-14.5 -44v-50z" />
    <glyph glyph-name="Aogonek" unicode="&#x104;" horiz-adv-x="670" 
d="M584 0h39q-61 -51 -59 -85t62 -36v-60q-33 -5 -62.5 6t-44.5 32.5t-17.5 46.5t19 51.5t63.5 44.5zM45 0l269 732h74l257 -732h-88l-63 204h-292l-66 -204h-91zM229 278h239l-118 341z" />
    <glyph glyph-name="aogonek" unicode="&#x105;" horiz-adv-x="519" 
d="M423 0h39q-61 -51 -59 -85t62 -36v-60q-34 -5 -63.5 6t-44.5 32.5t-17.5 46.5t19 51.5t64.5 44.5zM40 126v61q0 61 35.5 97t97.5 36q222 -1 222 0q1 66 0 67q0 82 -82 82q-90 0 -256 -12v54q101 28 259 30q67 1 110 -37.5t43 -116.5v-387h-55l-19 64l-15 -7
q-14 -7 -38 -17.5t-52 -21t-60 -17.5t-57 -7q-57 0 -95 35t-38 97zM114 131q0 -63 59 -63q36 0 91.5 13t93.5 25l37 13v143l-222 -16q-30 -3 -44.5 -21t-14.5 -44v-50z" />
    <glyph glyph-name="Cacute" unicode="&#x106;" horiz-adv-x="578" 
d="M294 800l108 133h94l-132 -133h-70zM55 368q0 190 51.5 281t192.5 91q109 0 244 -25v-59h-9q-9 1 -24 2t-34.5 2t-42.5 2t-45.5 2t-46 1.5t-42.5 0.5q-65 0 -100.5 -24.5t-52.5 -89t-17 -186.5q0 -298 170 -298l244 7v-59q-118 -22 -244 -22q-244 0 -244 374z" />
    <glyph glyph-name="cacute" unicode="&#x107;" horiz-adv-x="500" 
d="M234 598l107 133h95l-133 -133h-69zM50 266q0 84 12.5 139.5t37.5 83t54 37.5t71 10q88 0 228 -26v-54q-139 6 -228 6q-27 0 -42 -5t-30.5 -23.5t-22 -60.5t-6.5 -111q0 -112 22.5 -152.5t78.5 -40.5q41 0 99.5 2.5t97.5 5.5l38 3v-56q-96 -27 -235 -29q-41 0 -69.5 10
t-54 37.5t-38.5 83.5t-13 140z" />
    <glyph glyph-name="Ccircumflex" unicode="&#x108;" horiz-adv-x="578" 
d="M183 800l117 130h71l104 -130h-71l-71 71l-78 -71h-72zM55 368q0 190 51.5 281t192.5 91q109 0 244 -25v-59h-9q-9 1 -24 2t-34.5 2t-42.5 2t-45.5 2t-46 1.5t-42.5 0.5q-65 0 -100.5 -24.5t-52.5 -89t-17 -186.5q0 -298 170 -298l244 7v-59q-118 -22 -244 -22
q-244 0 -244 374z" />
    <glyph glyph-name="ccircumflex" unicode="&#x109;" horiz-adv-x="500" 
d="M137 598l117 130h71l104 -130h-71l-71 71l-78 -71h-72zM50 266q0 84 12.5 139.5t37.5 83t54 37.5t71 10q88 0 228 -26v-54q-139 6 -228 6q-27 0 -42 -5t-30.5 -23.5t-22 -60.5t-6.5 -111q0 -112 22.5 -152.5t78.5 -40.5q41 0 99.5 2.5t97.5 5.5l38 3v-56
q-96 -27 -235 -29q-41 0 -69.5 10t-54 37.5t-38.5 83.5t-13 140z" />
    <glyph glyph-name="Cdotaccent" unicode="&#x10a;" horiz-adv-x="578" 
d="M290 825v54q0 25 24 25h50q23 0 23 -25v-54q0 -23 -23 -23h-50q-24 0 -24 23zM55 368q0 190 51.5 281t192.5 91q109 0 244 -25v-59h-9q-9 1 -24 2t-34.5 2t-42.5 2t-45.5 2t-46 1.5t-42.5 0.5q-65 0 -100.5 -24.5t-52.5 -89t-17 -186.5q0 -298 170 -298l244 7v-59
q-118 -22 -244 -22q-244 0 -244 374z" />
    <glyph glyph-name="cdotaccent" unicode="&#x10b;" horiz-adv-x="500" 
d="M245 623v54q0 25 24 25h50q23 0 23 -25v-54q0 -23 -23 -23h-50q-24 0 -24 23zM50 266q0 84 12.5 139.5t37.5 83t54 37.5t71 10q88 0 228 -26v-54q-139 6 -228 6q-27 0 -42 -5t-30.5 -23.5t-22 -60.5t-6.5 -111q0 -112 22.5 -152.5t78.5 -40.5q41 0 99.5 2.5t97.5 5.5
l38 3v-56q-96 -27 -235 -29q-41 0 -69.5 10t-54 37.5t-38.5 83.5t-13 140z" />
    <glyph glyph-name="Ccaron" unicode="&#x10c;" horiz-adv-x="578" 
d="M188 930h72l80 -71l69 71h71l-104 -130h-71zM55 368q0 190 51.5 281t192.5 91q109 0 244 -25v-59h-9q-9 1 -24 2t-34.5 2t-42.5 2t-45.5 2t-46 1.5t-42.5 0.5q-65 0 -100.5 -24.5t-52.5 -89t-17 -186.5q0 -298 170 -298l244 7v-59q-118 -22 -244 -22q-244 0 -244 374z
" />
    <glyph glyph-name="ccaron" unicode="&#x10d;" horiz-adv-x="500" 
d="M122 728h72l80 -71l69 71h71l-104 -130h-71zM50 266q0 84 12.5 139.5t37.5 83t54 37.5t71 10q88 0 228 -26v-54q-139 6 -228 6q-27 0 -42 -5t-30.5 -23.5t-22 -60.5t-6.5 -111q0 -112 22.5 -152.5t78.5 -40.5q41 0 99.5 2.5t97.5 5.5l38 3v-56q-96 -27 -235 -29
q-41 0 -69.5 10t-54 37.5t-38.5 83.5t-13 140z" />
    <glyph glyph-name="Dcaron" unicode="&#x10e;" horiz-adv-x="657" 
d="M172 922h72l80 -71l69 71h71l-104 -130h-71zM80 0v732h272q65 0 113.5 -24.5t75.5 -61.5t44 -89t22 -97.5t5 -96.5q0 -52 -8.5 -101.5t-28 -97.5t-48.5 -84t-74 -58t-101 -22h-272zM154 77h198q63 0 106 40.5t61.5 103t18.5 143.5q0 155 -47.5 224.5t-138.5 69.5h-198
v-581z" />
    <glyph glyph-name="dcaron" unicode="&#x10f;" horiz-adv-x="554" 
d="M50 263q0 58 6.5 101.5t24 86t54 65.5t90.5 23q37 0 94 -11t102 -29v286h73v-785h-53l-20 59q-25 -18 -87.5 -41.5t-108.5 -23.5q-52 0 -88 24t-54 65.5t-25.5 85t-7.5 94.5zM124 263q0 -195 101 -195q83 0 196 46v325q-100 26 -196 26q-52 0 -76.5 -43t-24.5 -159z
M541 780h75v-67l-11 -134h-53l-10 134z" />
    <glyph glyph-name="Dcroat" unicode="&#x110;" horiz-adv-x="657" 
d="M15 346v54h65v331q0 1 273 1q54 0 97 -16.5t70.5 -46.5t46.5 -65t28 -79t13 -82t4 -80q0 -52 -8 -101.5t-27.5 -97.5t-48.5 -84t-74 -58t-101 -22h-273v346h-65zM154 77h199q93 0 137.5 80.5t44.5 206.5q0 289 -182 289l-199 -1v-252h139v-54h-139v-269z" />
    <glyph glyph-name="dcroat" unicode="&#x111;" horiz-adv-x="554" 
d="M50 263q0 58 6.5 101.5t24 86t54 65.5t90.5 23q37 0 94 -11t102 -29v117h-122v54h122v115h73v-115h72v-54h-72v-616h-53l-20 59q-25 -18 -87.5 -41.5t-108.5 -23.5q-52 0 -88 24t-54 65.5t-25.5 85t-7.5 94.5zM124 263q0 -195 101 -195q83 0 196 46v325q-100 26 -196 26
q-52 0 -76.5 -43t-24.5 -159z" />
    <glyph glyph-name="Emacron" unicode="&#x112;" horiz-adv-x="567" 
d="M173 795v63h292v-63h-292zM80 123v479q0 69 35.5 100.5t90.5 29.5l316 -16v-58h-316q-24 0 -36.5 -9.5t-14 -19t-1.5 -27.5v-200l328 -10v-59l-328 -10v-200q0 -25 11 -37t21 -13.5t30 -1.5h306v-57l-306 -17q-136 -8 -136 126z" />
    <glyph glyph-name="emacron" unicode="&#x113;" horiz-adv-x="525" 
d="M129 595v63h292v-63h-292zM50 268q0 88 12 141.5t43.5 81t70 36t106.5 8.5q55 0 86 -5t61 -23t43 -57t13 -103q0 -122 -137 -122h-224q0 -93 21 -124.5t80 -31.5q182 0 250 10v-56q-99 -28 -250 -28q-101 0 -138 58t-37 215zM124 298h224q63 0 63 49q0 77 -22.5 95.5
t-105.5 18.5q-35 0 -51.5 -1t-39 -5.5t-32 -14.5t-20 -28t-13.5 -46t-3 -68z" />
    <glyph glyph-name="Edotaccent" unicode="&#x116;" horiz-adv-x="567" 
d="M272 817v54q0 25 24 25h50q23 0 23 -25v-54q0 -23 -23 -23h-50q-24 0 -24 23zM80 123v479q0 69 35.5 100.5t90.5 29.5l316 -16v-58h-316q-24 0 -36.5 -9.5t-14 -19t-1.5 -27.5v-200l328 -10v-59l-328 -10v-200q0 -25 11 -37t21 -13.5t30 -1.5h306v-57l-306 -17
q-136 -8 -136 126z" />
    <glyph glyph-name="edotaccent" unicode="&#x117;" horiz-adv-x="525" 
d="M224 619v54q0 25 24 25h50q11 0 17.5 -7t6.5 -18v-54q0 -23 -24 -23h-50q-10 0 -17 6.5t-7 16.5zM50 268q0 88 12 141.5t43.5 81t70 36t106.5 8.5q55 0 86 -5t61 -23t43 -57t13 -103q0 -122 -137 -122h-224q0 -93 21 -124.5t80 -31.5q182 0 250 10v-56q-99 -28 -250 -28
q-101 0 -138 58t-37 215zM124 298h224q63 0 63 49q0 77 -22.5 95.5t-105.5 18.5q-35 0 -51.5 -1t-39 -5.5t-32 -14.5t-20 -28t-13.5 -46t-3 -68z" />
    <glyph glyph-name="Eogonek" unicode="&#x118;" horiz-adv-x="567" 
d="M483 14h39q-61 -51 -59 -85.5t62 -35.5v-60q-34 -5 -63.5 6t-44.5 32.5t-17.5 46.5t19 51t64.5 45zM80 123v479q0 69 35.5 100.5t90.5 29.5l316 -16v-58h-316q-24 0 -36.5 -9.5t-14 -19t-1.5 -27.5v-200l328 -10v-59l-328 -10v-200q0 -25 11 -37t21 -13.5t30 -1.5h306
v-57l-306 -17q-136 -8 -136 126z" />
    <glyph glyph-name="eogonek" unicode="&#x119;" horiz-adv-x="525" 
d="M436 23h39q-41 -33 -54 -60.5t2.5 -43.5t54.5 -17v-60q-33 -5 -63 6t-45 32.5t-17.5 46.5t19 51.5t64.5 44.5zM50 268q0 88 12 141.5t43.5 81t70 36t106.5 8.5q55 0 86 -5t61 -23t43 -57t13 -103q0 -122 -137 -122h-224q0 -93 21 -124.5t80 -31.5q182 0 250 10v-56
q-99 -28 -250 -28q-101 0 -138 58t-37 215zM124 298h224q63 0 63 49q0 77 -22.5 95.5t-105.5 18.5q-35 0 -51.5 -1t-39 -5.5t-32 -14.5t-20 -28t-13.5 -46t-3 -68z" />
    <glyph glyph-name="Ecaron" unicode="&#x11a;" horiz-adv-x="567" 
d="M169 922h72l80 -71l69 71h71l-104 -130h-71zM80 123v479q0 69 35.5 100.5t90.5 29.5l316 -16v-58h-316q-24 0 -36.5 -9.5t-14 -19t-1.5 -27.5v-200l328 -10v-59l-328 -10v-200q0 -25 11 -37t21 -13.5t30 -1.5h306v-57l-306 -17q-136 -8 -136 126z" />
    <glyph glyph-name="ecaron" unicode="&#x11b;" horiz-adv-x="525" 
d="M130 721h72l80 -71l69 71h71l-104 -130h-71zM50 268q0 88 12 141.5t43.5 81t70 36t106.5 8.5q55 0 86 -5t61 -23t43 -57t13 -103q0 -122 -137 -122h-224q0 -93 21 -124.5t80 -31.5q182 0 250 10v-56q-99 -28 -250 -28q-101 0 -138 58t-37 215zM124 298h224q63 0 63 49
q0 77 -22.5 95.5t-105.5 18.5q-35 0 -51.5 -1t-39 -5.5t-32 -14.5t-20 -28t-13.5 -46t-3 -68z" />
    <glyph glyph-name="Gcircumflex" unicode="&#x11c;" horiz-adv-x="614" 
d="M190 800l117 130h71l104 -130h-71l-71 71l-78 -71h-72zM55 370q0 83 9 143.5t33 115t72 83t120 28.5q39 0 120.5 -8.5t133.5 -18.5v-59q-1 0 -18.5 1t-45 3t-59.5 4t-67.5 3t-63.5 1q-95 0 -127.5 -68.5t-32.5 -229.5q0 -167 36 -233t128 -67q34 0 82 11.5t79 22.5l31 12
v200h-168v50q91 25 174 25q32 0 68 -3v-386h-56l-16 49q-98 -54 -194 -54q-60 -1 -104 18.5t-69.5 51t-40.5 82t-19.5 102t-4.5 121.5z" />
    <glyph glyph-name="gcircumflex" unicode="&#x11d;" horiz-adv-x="554" 
d="M129 597l117 130h71l104 -130h-71l-71 71l-78 -71h-72zM48 115q0 28 15 52.5t44 30.5q-58 37 -58 146q0 93 45.5 141t127.5 48h312v-56l-81 -18q1 -2 7 -12.5t9 -17t7 -19t6 -29t2 -37.5q0 -28 -6.5 -57t-22.5 -62.5t-51 -54.5t-85 -21h-156q-41 0 -41 -30q0 -34 41 -34
h213q61 0 95 -37.5t34 -100.5v-63q0 -27 -5.5 -50t-20 -48.5t-46.5 -40.5t-78 -15h-150q-73 0 -116.5 39t-43.5 115v85l40 65q-37 26 -37 81zM119 -116q0 -80 86 -80h150q76 0 76 80v58q0 38 -13.5 53.5t-54.5 15.5h-199q-14 0 -25 2t-15 4l-5 2v-135zM123 344q0 -21 4 -40
t13 -38.5t28.5 -31t46.5 -11.5h98q54 0 76.5 38t20.5 83q-3 58 -23 86.5t-75 28.5h-90q-99 0 -99 -115z" />
    <glyph glyph-name="Gbreve" unicode="&#x11e;" horiz-adv-x="614" 
d="M221 914h47q0 -28 20.5 -47.5t46.5 -19.5q29 0 49 18t20 49h47q0 -53 -35.5 -83.5t-80.5 -30.5q-44 0 -79 31.5t-35 82.5zM55 370q0 83 9 143.5t33 115t72 83t120 28.5q39 0 120.5 -8.5t133.5 -18.5v-59q-1 0 -18.5 1t-45 3t-59.5 4t-67.5 3t-63.5 1q-95 0 -127.5 -68.5
t-32.5 -229.5q0 -167 36 -233t128 -67q34 0 82 11.5t79 22.5l31 12v200h-168v50q91 25 174 25q32 0 68 -3v-386h-56l-16 49q-98 -54 -194 -54q-60 -1 -104 18.5t-69.5 51t-40.5 82t-19.5 102t-4.5 121.5z" />
    <glyph glyph-name="gbreve" unicode="&#x11f;" horiz-adv-x="554" 
d="M159 711h47q0 -28 20.5 -47.5t46.5 -19.5q29 0 49 18t20 49h47q0 -53 -35.5 -83.5t-80.5 -30.5q-44 0 -79 31.5t-35 82.5zM48 115q0 28 15 52.5t44 30.5q-58 37 -58 146q0 93 45.5 141t127.5 48h312v-56l-81 -18q1 -2 7 -12.5t9 -17t7 -19t6 -29t2 -37.5q0 -28 -6.5 -57
t-22.5 -62.5t-51 -54.5t-85 -21h-156q-41 0 -41 -30q0 -34 41 -34h213q61 0 95 -37.5t34 -100.5v-63q0 -27 -5.5 -50t-20 -48.5t-46.5 -40.5t-78 -15h-150q-73 0 -116.5 39t-43.5 115v85l40 65q-37 26 -37 81zM119 -116q0 -80 86 -80h150q76 0 76 80v58q0 38 -13.5 53.5
t-54.5 15.5h-199q-14 0 -25 2t-15 4l-5 2v-135zM123 344q0 -21 4 -40t13 -38.5t28.5 -31t46.5 -11.5h98q54 0 76.5 38t20.5 83q-3 58 -23 86.5t-75 28.5h-90q-99 0 -99 -115z" />
    <glyph glyph-name="Gdotaccent" unicode="&#x120;" horiz-adv-x="614" 
d="M279 823v54q0 25 24 25h50q23 0 23 -25v-54q0 -23 -23 -23h-50q-24 0 -24 23zM55 370q0 83 9 143.5t33 115t72 83t120 28.5q39 0 120.5 -8.5t133.5 -18.5v-59q-1 0 -18.5 1t-45 3t-59.5 4t-67.5 3t-63.5 1q-95 0 -127.5 -68.5t-32.5 -229.5q0 -167 36 -233t128 -67
q34 0 82 11.5t79 22.5l31 12v200h-168v50q91 25 174 25q32 0 68 -3v-386h-56l-16 49q-98 -54 -194 -54q-60 -1 -104 18.5t-69.5 51t-40.5 82t-19.5 102t-4.5 121.5z" />
    <glyph glyph-name="gdotaccent" unicode="&#x121;" horiz-adv-x="554" 
d="M229 622v54q0 25 24 25h50q23 0 23 -25v-54q0 -23 -23 -23h-50q-24 0 -24 23zM48 115q0 28 15 52.5t44 30.5q-58 37 -58 146q0 93 45.5 141t127.5 48h312v-56l-81 -18q1 -2 7 -12.5t9 -17t7 -19t6 -29t2 -37.5q0 -28 -6.5 -57t-22.5 -62.5t-51 -54.5t-85 -21h-156
q-41 0 -41 -30q0 -34 41 -34h213q61 0 95 -37.5t34 -100.5v-63q0 -27 -5.5 -50t-20 -48.5t-46.5 -40.5t-78 -15h-150q-73 0 -116.5 39t-43.5 115v85l40 65q-37 26 -37 81zM119 -116q0 -80 86 -80h150q76 0 76 80v58q0 38 -13.5 53.5t-54.5 15.5h-199q-14 0 -25 2t-15 4l-5 2
v-135zM123 344q0 -21 4 -40t13 -38.5t28.5 -31t46.5 -11.5h98q54 0 76.5 38t20.5 83q-3 58 -23 86.5t-75 28.5h-90q-99 0 -99 -115z" />
    <glyph glyph-name="Gcommaaccent" unicode="&#x122;" horiz-adv-x="614" 
d="M276 -148v49q0 24 23 24h46q21 0 21 -24v-81q0 -24 -8.5 -40t-21 -21.5t-25 -8t-21.5 -0.5l-9 1v29q28 -1 28 28v22h-10q-23 0 -23 22zM55 370q0 83 9 143.5t33 115t72 83t120 28.5q39 0 120.5 -8.5t133.5 -18.5v-59q-1 0 -18.5 1t-45 3t-59.5 4t-67.5 3t-63.5 1
q-95 0 -127.5 -68.5t-32.5 -229.5q0 -167 36 -233t128 -67q34 0 82 11.5t79 22.5l31 12v200h-168v50q91 25 174 25q32 0 68 -3v-386h-56l-16 49q-98 -54 -194 -54q-60 -1 -104 18.5t-69.5 51t-40.5 82t-19.5 102t-4.5 121.5z" />
    <glyph glyph-name="gcommaaccent" unicode="&#x123;" horiz-adv-x="554" 
d="M228 617v81q0 24 9 40t21.5 21.5t25 8t21.5 1.5l9 -1v-29q-28 1 -28 -28v-23h10q22 0 22 -22v-49q0 -24 -22 -24h-46q-22 0 -22 24zM48 114q0 28 15.5 53t43.5 31q-30 19 -44 59.5t-14 86.5q0 93 45.5 141t127.5 48h312v-56l-81 -18q1 -2 7 -12.5t9 -17t7 -19t6 -29
t2 -37.5t-3.5 -43.5t-14 -51t-27.5 -49.5t-48.5 -36t-71.5 -15h-156q-16 0 -28.5 -7.5t-12.5 -24.5q0 -18 10.5 -24.5t30.5 -9.5l197 -25q66 -8 105.5 -45.5t39.5 -95.5v-33q0 -21 -3 -39.5t-12.5 -40.5t-25 -37.5t-43.5 -26t-66 -10.5h-150q-73 0 -116.5 39t-43.5 115v85
l40 65q-37 26 -37 80zM119 -116q0 -80 86 -80h150q42 0 59 21t17 59v28q0 64 -88 76l-169 22l-55 9v-135zM123 344q0 -21 4 -40t13 -38.5t28.5 -31t46.5 -11.5h98q28 0 49 12t31 31t14 38.5t3 39.5q-3 58 -23 86.5t-75 28.5h-90q-99 0 -99 -115z" />
    <glyph glyph-name="Hcircumflex" unicode="&#x124;" horiz-adv-x="638" 
d="M183 797l117 130h71l104 -130h-71l-71 71l-78 -71h-72zM80 0v732h74v-341h350v341h74v-732h-74v317h-350v-317h-74z" />
    <glyph glyph-name="hcircumflex" unicode="&#x125;" 
d="M-51 844l117 130h71l104 -130h-71l-71 71l-78 -71h-72zM60 0v784h74v-315q3 1 22 12.5t23.5 13.5t21.5 11.5t24 11.5t23 8t26.5 8t25.5 4t30 2q76 0 120 -50t44 -120v-370h-74v370q0 48 -24.5 72t-65.5 24q-38 0 -72 -8t-54.5 -16.5t-69.5 -32.5v-409h-74z" />
    <glyph glyph-name="Hbar" unicode="&#x126;" horiz-adv-x="658" 
d="M19 516v54h61v162h74v-162h350v162h74v-162h59v-54h-59v-516h-74v317h-350v-317h-74v516h-61zM154 391h350v125h-350v-125z" />
    <glyph glyph-name="hbar" unicode="&#x127;" 
d="M-17 610v54h77v120h77v-120h134v-54h-134v-141q126 72 202 71q73 3 114 -47t41 -121v-372h-77v369q-2 48 -23.5 73.5t-71.5 25.5q-71 -4 -185 -59v-409h-77v610h-77z" />
    <glyph glyph-name="Itilde" unicode="&#x128;" horiz-adv-x="214" 
d="M-52 838q27 22 40.5 32.5t36 21t41.5 10.5q28 -2 61.5 -18.5t45.5 -16.5q22 -1 91 36l22 -42q-3 -2 -24.5 -19.5t-31 -23.5t-27 -13.5t-32.5 -6.5q-30 2 -60 18t-47 16q-20 0 -34.5 -5.5t-31 -15t-29.5 -14.5zM80 0v732h74v-732h-74z" />
    <glyph glyph-name="itilde" unicode="&#x129;" horiz-adv-x="194" 
d="M-72 637q27 22 40.5 32.5t36 21t41.5 10.5q28 -2 61.5 -18.5t45.5 -16.5q22 -1 91 36l22 -42q-3 -2 -24.5 -19.5t-31 -23.5t-27 -13.5t-32.5 -6.5q-30 2 -60 18t-47 16q-20 0 -34.5 -5.5t-31 -15t-29.5 -14.5zM60 0v531h74v-531h-74z" />
    <glyph glyph-name="Imacron" unicode="&#x12a;" horiz-adv-x="214" 
d="M-29 797v63h292v-63h-292zM80 0v732h74v-732h-74z" />
    <glyph glyph-name="imacron" unicode="&#x12b;" horiz-adv-x="194" 
d="M-49 596v63h292v-63h-292zM60 0v531h74v-531h-74z" />
    <glyph glyph-name="Iogonek" unicode="&#x12e;" horiz-adv-x="214" 
d="M100 0h39q-41 -33 -54 -60.5t2.5 -43.5t54.5 -17v-60q-33 -5 -63 6t-45 32.5t-17.5 46.5t19 51.5t64.5 44.5zM80 0v732h74v-732h-74z" />
    <glyph glyph-name="iogonek" unicode="&#x12f;" horiz-adv-x="197" 
d="M82 0h39q-41 -33 -54 -60.5t2.5 -43.5t54.5 -17v-60q-33 -5 -63 6t-45 32.5t-17.5 46.5t19 51.5t64.5 44.5zM50 617v54q0 25 24 25h50q23 0 23 -25v-54q0 -23 -23 -23h-50q-24 0 -24 23zM60 0v531h74v-531h-74z" />
    <glyph glyph-name="Idotaccent" unicode="&#x130;" horiz-adv-x="214" 
d="M68 820v54q0 25 24 25h50q11 0 17.5 -7t6.5 -18v-54q0 -23 -24 -23h-50q-10 0 -17 6.5t-7 16.5zM80 0v732h74v-732h-74z" />
    <glyph glyph-name="dotlessi" unicode="&#x131;" horiz-adv-x="194" 
d="M60 0v531h74v-531h-74z" />
    <glyph glyph-name="Jcircumflex" unicode="&#x134;" horiz-adv-x="359" 
d="M116 797l117 130h71l104 -130h-71l-71 71l-78 -71h-72zM35 21l4 54q87 -21 123 -13q62 14 63 103v567h74v-567q0 -114 -52 -147q-40 -25 -106.5 -24t-105.5 27z" />
    <glyph glyph-name="jcircumflex" unicode="&#x135;" horiz-adv-x="217" 
d="M-40 599l117 160h71l104 -160h-60l-82 91l-88 -91h-62zM69 -270v801h79v-535q2 -150 -26 -266h-53zM148 759z" />
    <glyph glyph-name="Kcommaaccent" unicode="&#x136;" horiz-adv-x="591" 
d="M262 -142v48q0 24 22 24h46q22 0 22 -24v-81q0 -24 -9 -40t-21.5 -21.5t-25 -8t-21.5 -0.5l-9 1v29q28 -1 28 27v23h-10q-22 0 -22 23zM80 0v732h74v-328h82l230 328h90l-252 -365l252 -367h-90l-230 330h-81v-330h-75z" />
    <glyph glyph-name="kcommaaccent" unicode="&#x137;" horiz-adv-x="500" 
d="M214 -142v48q0 24 23 24h46q21 0 21 -24v-81q0 -24 -8.5 -40t-21 -21.5t-25 -8t-21.5 -0.5l-9 1v29q28 -1 28 27v23h-10q-23 0 -23 23zM60 0v782h74v-440h40l203 189h103l-236 -226l236 -305h-92l-214 268h-40v-268h-74z" />
    <glyph glyph-name="kgreenlandic" unicode="&#x138;" horiz-adv-x="518" 
d="M60 0v531h74v-231h84l188 231h92l-213 -267l199 -264h-93l-176 226h-80l-1 -226h-74z" />
    <glyph glyph-name="Lacute" unicode="&#x139;" horiz-adv-x="557" 
d="M82 797l108 133h94l-132 -133h-70zM80 126v606h74v-606q0 -19 5 -30.5t16 -15.5t18.5 -5t22.5 -1h306v-74h-306q-29 0 -50 4t-42 16t-32.5 39t-11.5 67z" />
    <glyph glyph-name="lacute" unicode="&#x13a;" horiz-adv-x="300" 
d="M94 843l107 133h95l-133 -133h-69zM60 189v594h74v-594q0 -61 14 -84.5t43 -30.5q82 -21 89 -21v-53h-88q-132 0 -132 189z" />
    <glyph glyph-name="Lcommaaccent" unicode="&#x13b;" horiz-adv-x="557" 
d="M264 -142v48q0 24 23 24h46q21 0 21 -24v-81q0 -24 -8.5 -40t-21 -21.5t-25 -8t-21.5 -0.5l-9 1v29q28 -1 28 27v23h-10q-23 0 -23 23zM80 126v606h74v-606q0 -19 5 -30.5t16 -15.5t18.5 -5t22.5 -1h306v-74h-306q-29 0 -50 4t-42 16t-32.5 39t-11.5 67z" />
    <glyph glyph-name="lcommaaccent" unicode="&#x13c;" horiz-adv-x="300" 
d="M124 -142v48q0 24 22 24h46q22 0 22 -24v-81q0 -24 -9 -40t-21.5 -21.5t-25 -8t-21.5 -0.5l-9 1v29q28 -1 28 27v23h-10q-22 0 -22 23zM60 189v594h74v-594q0 -61 14 -84.5t43 -30.5q82 -21 89 -21v-53h-88q-132 0 -132 189z" />
    <glyph glyph-name="Lcaron" unicode="&#x13d;" horiz-adv-x="557" 
d="M80 126v606h74v-606q0 -19 5 -30.5t16 -15.5t18.5 -5t22.5 -1h306v-74h-306q-29 0 -50 4t-42 16t-32.5 39t-11.5 67zM231 705v67h74v-67l-10 -134h-53z" />
    <glyph glyph-name="lcaron" unicode="&#x13e;" horiz-adv-x="300" 
d="M60 189v594h74v-594q0 -63 11.5 -84.5t45.5 -30.5q82 -21 89 -21v-53h-88q-71 0 -101.5 42t-30.5 147zM210 714v67h74v-67l-10 -134h-53z" />
    <glyph glyph-name="Lslash" unicode="&#x141;" horiz-adv-x="556" 
d="M-3 320v61l83 36v315h74v-283l140 60l-1 -60l-139 -61v-262q0 -19 5 -30.5t16 -15.5t18.5 -5t22.5 -1h306v-74h-306q-29 0 -50 4t-42 16t-32.5 39t-11.5 67v230z" />
    <glyph glyph-name="lslash" unicode="&#x142;" horiz-adv-x="330" 
d="M10 369v61l80 34v319h74v-287l143 62l-1 -60l-142 -62v-247q0 -61 14 -84.5t43 -30.5q82 -21 89 -21v-53h-88q-132 0 -132 189v215z" />
    <glyph glyph-name="Nacute" unicode="&#x143;" horiz-adv-x="680" 
d="M326 797l106 133h96l-134 -133h-68zM80 0v732h76l390 -594v594h74v-732h-74l-391 594v-594h-75z" />
    <glyph glyph-name="nacute" unicode="&#x144;" 
d="M239 600l107 133h95l-133 -133h-69zM60 0v531h52l22 -62q3 1 22 12.5t23.5 13.5t21.5 11.5t24 11.5t23 8t26.5 8t25.5 4t30 2q76 0 120 -50t44 -120v-370h-74v370q0 47 -25 71.5t-65 24.5q-38 0 -72 -8t-54.5 -16.5t-69.5 -32.5v-409h-74z" />
    <glyph glyph-name="Ncommaaccent" unicode="&#x145;" horiz-adv-x="680" 
d="M304 -142v48q0 24 23 24h46q21 0 21 -24v-81q0 -24 -8.5 -40t-21 -21.5t-25 -8t-21.5 -0.5l-9 1v29q28 -1 28 27v23h-10q-23 0 -23 23zM80 0v732h76l390 -594v594h74v-732h-74l-391 594v-594h-75z" />
    <glyph glyph-name="ncommaaccent" unicode="&#x146;" 
d="M234 -142v48q0 24 22 24h46q22 0 22 -24v-81q0 -24 -9 -40t-21.5 -21.5t-25 -8t-21.5 -0.5l-9 1v29q28 -1 28 27v23h-10q-22 0 -22 23zM60 0v531h52l22 -62q3 1 22 12.5t23.5 13.5t21.5 11.5t24 11.5t23 8t26.5 8t25.5 4t30 2q76 0 120 -50t44 -120v-370h-74v370
q0 47 -25 71.5t-65 24.5q-38 0 -72 -8t-54.5 -16.5t-69.5 -32.5v-409h-74z" />
    <glyph glyph-name="Ncaron" unicode="&#x147;" horiz-adv-x="680" 
d="M214 927h72l80 -71l69 71h71l-104 -130h-71zM80 0v732h76l390 -594v594h74v-732h-74l-391 594v-594h-75z" />
    <glyph glyph-name="ncaron" unicode="&#x148;" 
d="M142 730h72l80 -71l69 71h71l-104 -130h-71zM60 0v531h52l22 -62q3 1 22 12.5t23.5 13.5t21.5 11.5t24 11.5t23 8t26.5 8t25.5 4t30 2q76 0 120 -50t44 -120v-370h-74v370q0 47 -25 71.5t-65 24.5q-38 0 -72 -8t-54.5 -16.5t-69.5 -32.5v-409h-74z" />
    <glyph glyph-name="Eng" unicode="&#x14a;" horiz-adv-x="678" 
d="M80 0v732h76l388 -584v584h74v-732v-84q0 -55 -16 -91t-48 -53t-66 -23t-84 -6v57q9 3 30 7t32.5 7t28.5 12t26 20.5t16 33t7 50.5v70l-388 594l-2 -594h-74z" />
    <glyph glyph-name="eng" unicode="&#x14b;" horiz-adv-x="554" 
d="M60 0v531h52l22 -62q3 1 22 12.5t23.5 13.5t21.5 11.5t24 11.5t23 8t26.5 8t25.5 4t30 2q76 0 120 -50t44 -120v-370l-1 -90q-2 -28 -9 -51.5t-14.5 -39.5t-24 -30t-25 -21t-31.5 -16t-29 -11t-30 -9l-30 38q3 1 22.5 11.5t27 15.5t24 18t24 24t15 29t7.5 38v94v370
q0 47 -25 71.5t-65 24.5q-38 0 -72 -8t-54.5 -16.5t-69.5 -32.5v-409h-74z" />
    <glyph glyph-name="Omacron" unicode="&#x14c;" horiz-adv-x="676" 
d="M203 797v63h292v-63h-292zM65 361q0 84 9 146.5t28 103.5t41.5 66.5t57.5 38.5t68 17t80 4q41 0 70.5 -3t61 -12t52.5 -25t41 -44t31.5 -67.5t18.5 -95.5t7 -129q0 -95 -12.5 -161.5t-34 -106.5t-59 -61.5t-77.5 -28.5t-99 -7q-50 0 -84 4t-69 16.5t-57 37t-40 64.5
t-26 100.5t-8 142.5zM139 361q0 -97 9.5 -154t37 -88t63.5 -40t100 -9q50 0 82 6.5t58 24t40 50.5t21 83.5t7 126.5q0 50 -3 89.5t-7 69.5t-14 52.5t-18 37.5t-24 25.5t-27.5 16t-34 8t-37.5 3t-43 0.5t-42.5 -0.5t-37 -3t-34.5 -8t-28 -16t-24.5 -25.5t-18.5 -37.5
t-14.5 -52.5t-7.5 -70t-3 -89z" />
    <glyph glyph-name="omacron" unicode="&#x14d;" horiz-adv-x="568" 
d="M138 596v63h292v-63h-292zM50 258q0 161 51 219.5t183 58.5q134 0 184 -59.5t50 -218.5q0 -149 -50 -206t-184 -57q-132 0 -183 59t-51 204zM124 258q0 -65 9.5 -104t33 -57t48 -23t69.5 -5q46 0 71.5 5t48 23.5t31.5 57t9 103.5q0 71 -7.5 112t-29.5 61.5t-47.5 25.5
t-75.5 5q-38 0 -60 -3t-44 -14t-32.5 -33t-17 -59.5t-6.5 -94.5z" />
    <glyph glyph-name="Ohungarumlaut" unicode="&#x150;" horiz-adv-x="676" 
d="M247 797l107 133h95l-133 -133h-69zM382 797l107 133h95l-133 -133h-69zM65 361q0 84 9 146.5t28 103.5t41.5 66.5t57.5 38.5t68 17t80 4q41 0 70.5 -3t61 -12t52.5 -25t41 -44t31.5 -67.5t18.5 -95.5t7 -129q0 -95 -12.5 -161.5t-34 -106.5t-59 -61.5t-77.5 -28.5
t-99 -7q-50 0 -84 4t-69 16.5t-57 37t-40 64.5t-26 100.5t-8 142.5zM139 361q0 -97 9.5 -154t37 -88t63.5 -40t100 -9q50 0 82 6.5t58 24t40 50.5t21 83.5t7 126.5q0 50 -3 89.5t-7 69.5t-14 52.5t-18 37.5t-24 25.5t-27.5 16t-34 8t-37.5 3t-43 0.5t-42.5 -0.5t-37 -3
t-34.5 -8t-28 -16t-24.5 -25.5t-18.5 -37.5t-14.5 -52.5t-7.5 -70t-3 -89z" />
    <glyph glyph-name="ohungarumlaut" unicode="&#x151;" horiz-adv-x="568" 
d="M182 596l107 133h95l-133 -133h-69zM317 596l107 133h95l-133 -133h-69zM50 258q0 161 51 219.5t183 58.5q134 0 184 -59.5t50 -218.5q0 -149 -50 -206t-184 -57q-132 0 -183 59t-51 204zM124 258q0 -65 9.5 -104t33 -57t48 -23t69.5 -5q46 0 71.5 5t48 23.5t31.5 57
t9 103.5q0 71 -7.5 112t-29.5 61.5t-47.5 25.5t-75.5 5q-38 0 -60 -3t-44 -14t-32.5 -33t-17 -59.5t-6.5 -94.5z" />
    <glyph glyph-name="OE" unicode="&#x152;" horiz-adv-x="1055" 
d="M139 361q0 -97 9.5 -154t36.5 -88t63 -40t100 -9q63 0 99.5 10.5t63 42t36.5 88t10 150.5q0 50 -3 89.5t-7.5 69.5t-14 52.5t-17.5 37.5t-24 25.5t-28 16t-34.5 8t-37.5 3t-43 0.5q-36 0 -54 -1t-45 -6.5t-40 -17t-29 -33t-23.5 -54t-12.5 -80t-5 -110.5zM65 361
q0 100 14 170.5t36.5 110.5t61.5 61.5t76.5 27.5t94.5 6q81 0 133 -15t86 -59q27 74 116 69l317 -16v-58h-317q-24 0 -36.5 -9.5t-14 -19t-1.5 -27.5v-200l329 -10v-59l-329 -10v-200q0 -25 11 -37t21 -13.5t30 -1.5h307v-57l-307 -17q-104 -6 -128 69q-34 -41 -86 -55.5
t-131 -14.5q-50 0 -84 4t-69 16.5t-56.5 37t-39.5 64.5t-26 100.5t-8 142.5z" />
    <glyph glyph-name="oe" unicode="&#x153;" horiz-adv-x="917" 
d="M50 258q0 161 51 219.5t183 58.5q144 0 193 -71q25 42 70.5 56t126.5 14q55 0 86 -5t61 -23t43 -57t13 -103q0 -122 -137 -122h-223q-3 -86 19 -121t81 -35q182 0 250 10v-56q-99 -28 -250 -28q-105 0 -142 66q-49 -66 -191 -66q-132 0 -183 59t-51 204zM124 258
q0 -65 9.5 -104t33 -57t48 -23t69.5 -5q101 0 129.5 37.5t28.5 161.5q0 119 -32 156.5t-126 37.5q-38 0 -60 -3t-44 -14t-32.5 -33t-17 -59.5t-6.5 -94.5zM517 298h223q63 0 63 49q0 77 -22.5 95.5t-105.5 18.5q-39 0 -61.5 -2.5t-44.5 -11t-32.5 -26.5t-16 -48t-3.5 -75z
" />
    <glyph glyph-name="Racute" unicode="&#x154;" horiz-adv-x="593" 
d="M256 792l107 133h95l-133 -133h-69zM60 0v732h312q169 0 169 -220q0 -192 -127 -210l154 -302h-80l-154 299l-200 14v-313h-74zM134 379h238q18 0 28 1t24.5 7.5t22 20t13.5 40t6 64.5q0 88 -26 116.5t-68 28.5h-238v-278z" />
    <glyph glyph-name="racute" unicode="&#x155;" horiz-adv-x="426" 
d="M218 598l107 133h95l-133 -133h-69zM60 0v531h52l22 -67q5 3 25.5 15t27 15.5t24.5 12.5t28.5 12.5t27 8.5t32.5 7t33 2q58 0 74 -8v-73q-24 6 -74 6q-38 0 -72.5 -8t-55 -17t-70.5 -33v-404h-74z" />
    <glyph glyph-name="Rcommaaccent" unicode="&#x156;" horiz-adv-x="593" 
d="M254 -142v48q0 24 23 24h46q21 0 21 -24v-81q0 -24 -8.5 -40t-21 -21.5t-25 -8t-21.5 -0.5l-9 1v29q28 -1 28 27v23h-10q-23 0 -23 23zM60 0v732h312q169 0 169 -220q0 -192 -127 -210l154 -302h-80l-154 299l-200 14v-313h-74zM134 379h238q18 0 28 1t24.5 7.5t22 20
t13.5 40t6 64.5q0 88 -26 116.5t-68 28.5h-238v-278z" />
    <glyph glyph-name="rcommaaccent" unicode="&#x157;" horiz-adv-x="426" 
d="M52 -142v48q0 24 23 24h46q21 0 21 -24v-81q0 -24 -8.5 -40t-21 -21.5t-25 -8t-21.5 -0.5l-9 1v29q28 -1 28 27v23h-10q-23 0 -23 23zM60 0v531h52l22 -67q5 3 25.5 15t27 15.5t24.5 12.5t28.5 12.5t27 8.5t32.5 7t33 2q58 0 74 -8v-73q-24 6 -74 6q-38 0 -72.5 -8
t-55 -17t-70.5 -33v-404h-74z" />
    <glyph glyph-name="Rcaron" unicode="&#x158;" horiz-adv-x="593" 
d="M141 927h72l80 -71l69 71h71l-104 -130h-71zM60 0v732h312q169 0 169 -220q0 -192 -127 -210l154 -302h-80l-154 299l-200 14v-313h-74zM134 379h238q18 0 28 1t24.5 7.5t22 20t13.5 40t6 64.5q0 88 -26 116.5t-68 28.5h-238v-278z" />
    <glyph glyph-name="rcaron" unicode="&#x159;" horiz-adv-x="426" 
d="M87 727h72l80 -71l69 71h71l-104 -130h-71zM60 0v531h52l22 -67q5 3 25.5 15t27 15.5t24.5 12.5t28.5 12.5t27 8.5t32.5 7t33 2q58 0 74 -8v-73q-24 6 -74 6q-38 0 -72.5 -8t-55 -17t-70.5 -33v-404h-74z" />
    <glyph glyph-name="Sacute" unicode="&#x15a;" horiz-adv-x="584" 
d="M272 798l107 133h95l-133 -133h-69zM65 494v66q0 101 52 139.5t146 38.5q68 0 250 -24v-60l-250 10q-63 3 -93.5 -16.5t-30.5 -87.5v-66q0 -62 24.5 -80t77.5 -18h142q156 0 156 -172v-68q0 -51 -17 -85t-48 -50.5t-63 -22.5t-74 -6q-35 0 -123.5 9t-126.5 16v60
q110 -11 250 -11q128 0 128 90v68q0 47 -18 72.5t-64 25.5h-140q-57 0 -94.5 14t-54.5 41t-23 53.5t-6 63.5z" />
    <glyph glyph-name="sacute" unicode="&#x15b;" horiz-adv-x="506" 
d="M215 601l107 133h95l-133 -133h-69zM40 358v46q0 65 32 98.5t106 33.5q95 0 261 -16v-57h-261q-23 0 -37 -4t-19.5 -13.5t-6.5 -17.5t-1 -24v-46q0 -20 4.5 -32t14.5 -17t19 -6.5t26 -1.5h158q63 0 96.5 -35.5t33.5 -93.5v-49q0 -74 -36 -101t-94 -27q-94 0 -274 19v55
h274q0 1 5.5 0t14 2t16.5 7t14 16t6 29v49q0 28 -12.5 41.5t-43.5 13.5h-158q-73 0 -105.5 28t-32.5 103z" />
    <glyph glyph-name="Scircumflex" unicode="&#x15c;" horiz-adv-x="584" 
d="M167 798l117 130h71l104 -130h-71l-71 71l-78 -71h-72zM65 494v66q0 101 52 139.5t146 38.5q68 0 250 -24v-60l-250 10q-63 3 -93.5 -16.5t-30.5 -87.5v-66q0 -62 24.5 -80t77.5 -18h142q156 0 156 -172v-68q0 -51 -17 -85t-48 -50.5t-63 -22.5t-74 -6q-35 0 -123.5 9
t-126.5 16v60q110 -11 250 -11q128 0 128 90v68q0 47 -18 72.5t-64 25.5h-140q-57 0 -94.5 14t-54.5 41t-23 53.5t-6 63.5z" />
    <glyph glyph-name="scircumflex" unicode="&#x15d;" horiz-adv-x="506" 
d="M107 596l117 130h71l104 -130h-71l-71 71l-78 -71h-72zM40 358v46q0 65 32 98.5t106 33.5q95 0 261 -16v-57h-261q-23 0 -37 -4t-19.5 -13.5t-6.5 -17.5t-1 -24v-46q0 -20 4.5 -32t14.5 -17t19 -6.5t26 -1.5h158q63 0 96.5 -35.5t33.5 -93.5v-49q0 -74 -36 -101t-94 -27
q-94 0 -274 19v55h274q0 1 5.5 0t14 2t16.5 7t14 16t6 29v49q0 28 -12.5 41.5t-43.5 13.5h-158q-73 0 -105.5 28t-32.5 103z" />
    <glyph glyph-name="Scedilla" unicode="&#x15e;" horiz-adv-x="584" 
d="M196 -144l53 15q32 14 32 84h67q0 -78 -21 -107t-80 -29h-51v37zM65 494v66q0 101 52 139.5t146 38.5q68 0 250 -24v-60l-250 10q-63 3 -93.5 -16.5t-30.5 -87.5v-66q0 -62 24.5 -80t77.5 -18h142q156 0 156 -172v-68q0 -51 -17 -85t-48 -50.5t-63 -22.5t-74 -6
q-35 0 -123.5 9t-126.5 16v60q110 -11 250 -11q128 0 128 90v68q0 47 -18 72.5t-64 25.5h-140q-57 0 -94.5 14t-54.5 41t-23 53.5t-6 63.5z" />
    <glyph glyph-name="scedilla" unicode="&#x15f;" horiz-adv-x="506" 
d="M149 -138l53 15q32 14 32 84h67q0 -78 -21 -107t-80 -29h-51v37zM40 358v46q0 65 32 98.5t106 33.5q95 0 261 -16v-57h-261q-23 0 -37 -4t-19.5 -13.5t-6.5 -17.5t-1 -24v-46q0 -20 4.5 -32t14.5 -17t19 -6.5t26 -1.5h158q63 0 96.5 -35.5t33.5 -93.5v-49q0 -74 -36 -101
t-94 -27q-94 0 -274 19v55h274q0 1 5.5 0t14 2t16.5 7t14 16t6 29v49q0 28 -12.5 41.5t-43.5 13.5h-158q-73 0 -105.5 28t-32.5 103z" />
    <glyph glyph-name="Scaron" unicode="&#x160;" horiz-adv-x="584" 
d="M159 928h72l80 -71l69 71h71l-104 -130h-71zM65 494v66q0 101 52 139.5t146 38.5q68 0 250 -24v-60l-250 10q-63 3 -93.5 -16.5t-30.5 -87.5v-66q0 -62 24.5 -80t77.5 -18h142q156 0 156 -172v-68q0 -51 -17 -85t-48 -50.5t-63 -22.5t-74 -6q-35 0 -123.5 9t-126.5 16v60
q110 -11 250 -11q128 0 128 90v68q0 47 -18 72.5t-64 25.5h-140q-57 0 -94.5 14t-54.5 41t-23 53.5t-6 63.5z" />
    <glyph glyph-name="scaron" unicode="&#x161;" horiz-adv-x="506" 
d="M110 731h72l80 -71l69 71h71l-104 -130h-71zM40 358v46q0 65 32 98.5t106 33.5q95 0 261 -16v-57h-261q-23 0 -37 -4t-19.5 -13.5t-6.5 -17.5t-1 -24v-46q0 -20 4.5 -32t14.5 -17t19 -6.5t26 -1.5h158q63 0 96.5 -35.5t33.5 -93.5v-49q0 -74 -36 -101t-94 -27
q-94 0 -274 19v55h274q0 1 5.5 0t14 2t16.5 7t14 16t6 29v49q0 28 -12.5 41.5t-43.5 13.5h-158q-73 0 -105.5 28t-32.5 103z" />
    <glyph glyph-name="Tcommaaccent" unicode="&#x162;" horiz-adv-x="578" 
d="M176 -148l53 15q32 14 32 84h67q0 -78 -21 -107t-80 -29h-51v37zM45 658v74h508v-74h-220v-658h-74v658h-214z" />
    <glyph glyph-name="tcommaaccent" unicode="&#x163;" horiz-adv-x="378" 
d="M92 -150l53 15q32 14 32 84h67q0 -78 -21 -107t-80 -29h-51v37zM20 458v56l99 18l18 148h56v-148h155v-74h-155v-268q0 -61 14 -84.5t43 -30.5q82 -21 89 -21v-53h-88q-132 0 -132 189v268h-99z" />
    <glyph glyph-name="Tcaron" unicode="&#x164;" horiz-adv-x="578" 
d="M143 927h72l80 -71l69 71h71l-104 -130h-71zM45 658v74h508v-74h-220v-658h-74v658h-214z" />
    <glyph glyph-name="tcaron" unicode="&#x165;" horiz-adv-x="368" 
d="M20 458v56l99 18l18 148h56v-148h155v-74h-155v-268q0 -61 14 -84.5t43 -30.5q82 -21 89 -21v-53h-88q-132 0 -132 189v268h-99zM256 800h75v-67l-11 -134h-53l-10 134z" />
    <glyph glyph-name="Tbar" unicode="&#x166;" horiz-adv-x="578" 
d="M35 658v74h508v-74h-220v-214h120v-54h-120v-390h-74v390h-120v54h120v214h-214z" />
    <glyph glyph-name="tbar" unicode="&#x167;" horiz-adv-x="368" 
d="M20 458v56l99 18l18 148h56v-148h155v-74h-155v-136h105v-54h-105v-78q1 -70 11.5 -88t47.5 -27q77 -18 78 -18v-56h-78q-72 0 -102.5 42.5t-30.5 146.5v78h-81v54h81v136h-99z" />
    <glyph glyph-name="Utilde" unicode="&#x168;" horiz-adv-x="677" 
d="M179 833q27 22 40.5 32.5t36 21t41.5 10.5q28 -2 61.5 -18.5t45.5 -16.5q22 -1 91 36l22 -42q-3 -2 -24.5 -19.5t-31 -23.5t-27 -13.5t-32.5 -6.5q-30 2 -60 18t-47 16q-20 0 -34.5 -5.5t-31 -15t-29.5 -14.5zM80 320v412h74v-412q0 -91 11.5 -144.5t42.5 -75.5t56 -26.5
t79 -4.5h8q21 0 33 0.5t31 2.5t30 6.5t26 13t24 21t19 31.5t15.5 43.5t9 58t3.5 74.5v412h75v-412q0 -93 -17.5 -157.5t-40 -96.5t-64 -49t-68.5 -19.5t-76 -2.5h-9q-27 0 -40.5 0.5t-38 2t-37.5 6t-33.5 12t-32 20t-26.5 29.5t-23 41.5t-16 55t-11.5 70.5t-3.5 88z" />
    <glyph glyph-name="utilde" unicode="&#x169;" 
d="M98 637q27 22 40.5 32.5t36 21t41.5 10.5q28 -2 61.5 -18.5t45.5 -16.5q22 -1 91 36l22 -42q-3 -2 -24.5 -19.5t-31 -23.5t-27 -13.5t-32.5 -6.5q-30 2 -60 18t-47 16q-20 0 -34.5 -5.5t-31 -15t-29.5 -14.5zM50 161v370h74v-370q0 -47 25 -71.5t65 -24.5q38 0 72 8
t54.5 16.5t69.5 32.5v409h74v-531h-52l-22 62q-3 -1 -22 -12.5t-23.5 -13.5t-21.5 -11.5t-24 -11.5t-23 -8t-26.5 -8t-25.5 -4t-30 -2q-76 0 -120 50t-44 120z" />
    <glyph glyph-name="Umacron" unicode="&#x16a;" horiz-adv-x="677" 
d="M202 797v63h292v-63h-292zM80 320v412h74v-412q0 -91 11.5 -144.5t42.5 -75.5t56 -26.5t79 -4.5h8q21 0 33 0.5t31 2.5t30 6.5t26 13t24 21t19 31.5t15.5 43.5t9 58t3.5 74.5v412h75v-412q0 -93 -17.5 -157.5t-40 -96.5t-64 -49t-68.5 -19.5t-76 -2.5h-9q-27 0 -40.5 0.5
t-38 2t-37.5 6t-33.5 12t-32 20t-26.5 29.5t-23 41.5t-16 55t-11.5 70.5t-3.5 88z" />
    <glyph glyph-name="umacron" unicode="&#x16b;" 
d="M121 596v63h292v-63h-292zM50 161v370h74v-370q0 -47 25 -71.5t65 -24.5q38 0 72 8t54.5 16.5t69.5 32.5v409h74v-531h-52l-22 62q-3 -1 -22 -12.5t-23.5 -13.5t-21.5 -11.5t-24 -11.5t-23 -8t-26.5 -8t-25.5 -4t-30 -2q-76 0 -120 50t-44 120z" />
    <glyph glyph-name="Ubreve" unicode="&#x16c;" horiz-adv-x="677" 
d="M234 911h46q0 -28 21 -47.5t47 -19.5q29 0 48.5 18t19.5 49h48q0 -53 -35.5 -83.5t-80.5 -30.5t-79.5 31.5t-34.5 82.5zM80 320v412h74v-412q0 -91 11.5 -144.5t42.5 -75.5t56 -26.5t79 -4.5h8q21 0 33 0.5t31 2.5t30 6.5t26 13t24 21t19 31.5t15.5 43.5t9 58t3.5 74.5
v412h75v-412q0 -93 -17.5 -157.5t-40 -96.5t-64 -49t-68.5 -19.5t-76 -2.5h-9q-27 0 -40.5 0.5t-38 2t-37.5 6t-33.5 12t-32 20t-26.5 29.5t-23 41.5t-16 55t-11.5 70.5t-3.5 88z" />
    <glyph glyph-name="ubreve" unicode="&#x16d;" 
d="M160 710h47q0 -28 20.5 -47.5t46.5 -19.5q29 0 49 18t20 49h47q0 -53 -35.5 -83.5t-80.5 -30.5q-44 0 -79 31.5t-35 82.5zM50 161v370h74v-370q0 -47 25 -71.5t65 -24.5q38 0 72 8t54.5 16.5t69.5 32.5v409h74v-531h-52l-22 62q-3 -1 -22 -12.5t-23.5 -13.5t-21.5 -11.5
t-24 -11.5t-23 -8t-26.5 -8t-25.5 -4t-30 -2q-76 0 -120 50t-44 120z" />
    <glyph glyph-name="Uring" unicode="&#x16e;" horiz-adv-x="677" 
d="M247 899q0 43 30 73t72 30t71.5 -30t29.5 -73t-29.5 -72.5t-71.5 -29.5t-72 29.5t-30 72.5zM294 899q0 -22 16 -38t39 -16t38.5 15.5t15.5 38.5t-16 39t-38 16q-23 0 -39 -16t-16 -39zM80 320v412h74v-412q0 -91 11.5 -144.5t42.5 -75.5t56 -26.5t79 -4.5h8q21 0 33 0.5
t31 2.5t30 6.5t26 13t24 21t19 31.5t15.5 43.5t9 58t3.5 74.5v412h75v-412q0 -93 -17.5 -157.5t-40 -96.5t-64 -49t-68.5 -19.5t-76 -2.5h-9q-27 0 -40.5 0.5t-38 2t-37.5 6t-33.5 12t-32 20t-26.5 29.5t-23 41.5t-16 55t-11.5 70.5t-3.5 88z" />
    <glyph glyph-name="uring" unicode="&#x16f;" 
d="M166 698q0 43 29.5 73t71.5 30t71.5 -30t29.5 -73t-29 -72.5t-71.5 -29.5t-72 29.5t-29.5 72.5zM212 698q0 -22 16.5 -38t39 -16t38.5 16t16 38.5t-16 38.5t-38.5 16t-39 -16.5t-16.5 -38.5zM50 161v370h74v-370q0 -47 25 -71.5t65 -24.5q38 0 72 8t54.5 16.5t69.5 32.5
v409h74v-531h-52l-22 62q-3 -1 -22 -12.5t-23.5 -13.5t-21.5 -11.5t-24 -11.5t-23 -8t-26.5 -8t-25.5 -4t-30 -2q-76 0 -120 50t-44 120z" />
    <glyph glyph-name="Uhungarumlaut" unicode="&#x170;" horiz-adv-x="677" 
d="M246 797l108 133h94l-132 -133h-70zM382 797l106 133h96l-134 -133h-68zM80 320v412h74v-412q0 -91 11.5 -144.5t42.5 -75.5t56 -26.5t79 -4.5h8q21 0 33 0.5t31 2.5t30 6.5t26 13t24 21t19 31.5t15.5 43.5t9 58t3.5 74.5v412h75v-412q0 -93 -17.5 -157.5t-40 -96.5
t-64 -49t-68.5 -19.5t-76 -2.5h-9q-27 0 -40.5 0.5t-38 2t-37.5 6t-33.5 12t-32 20t-26.5 29.5t-23 41.5t-16 55t-11.5 70.5t-3.5 88z" />
    <glyph glyph-name="uhungarumlaut" unicode="&#x171;" 
d="M165 596l107 133h95l-133 -133h-69zM300 596l107 133h95l-133 -133h-69zM50 161v370h74v-370q0 -47 25 -71.5t65 -24.5q38 0 72 8t54.5 16.5t69.5 32.5v409h74v-531h-52l-22 62q-3 -1 -22 -12.5t-23.5 -13.5t-21.5 -11.5t-24 -11.5t-23 -8t-26.5 -8t-25.5 -4t-30 -2
q-76 0 -120 50t-44 120z" />
    <glyph glyph-name="Uogonek" unicode="&#x172;" horiz-adv-x="677" 
d="M326 -4h39q-41 -33 -54 -60.5t2.5 -43.5t54.5 -17v-60q-33 -5 -63 6t-45 32.5t-17.5 46.5t19 51.5t64.5 44.5zM80 320v412h74v-412q0 -91 11.5 -144.5t42.5 -75.5t56 -26.5t79 -4.5h8q21 0 33 0.5t31 2.5t30 6.5t26 13t24 21t19 31.5t15.5 43.5t9 58t3.5 74.5v412h75
v-412q0 -93 -17.5 -157.5t-40 -96.5t-64 -49t-68.5 -19.5t-76 -2.5h-9q-27 0 -40.5 0.5t-38 2t-37.5 6t-33.5 12t-32 20t-26.5 29.5t-23 41.5t-16 55t-11.5 70.5t-3.5 88z" />
    <glyph glyph-name="uogonek" unicode="&#x173;" 
d="M439 0h39q-61 -51 -59 -85t62 -36v-60q-34 -5 -63.5 6t-44.5 32.5t-17.5 46.5t19 51.5t64.5 44.5zM50 161v370h74v-370q0 -47 25 -71.5t65 -24.5q38 0 72 8t54.5 16.5t69.5 32.5v409h74v-531h-52l-22 62q-3 -1 -22 -12.5t-23.5 -13.5t-21.5 -11.5t-24 -11.5t-23 -8
t-26.5 -8t-25.5 -4t-30 -2q-76 0 -120 50t-44 120z" />
    <glyph glyph-name="Wcircumflex" unicode="&#x174;" horiz-adv-x="962" 
d="M355 792l117 130h71l104 -130h-71l-71 71l-78 -71h-72zM45 732h81l213 -603l181 603h84l-68 -234l133 -375l187 609h81l-229 -732h-74l-137 374l-121 -374h-74z" />
    <glyph glyph-name="wcircumflex" unicode="&#x175;" horiz-adv-x="801" 
d="M260 591l117 130h71l104 -130h-71l-71 71l-78 -71h-72zM20 531h81l157 -422l138 422h80l-54 -170l116 -252l162 422h81l-203 -531h-74l-118 260l-87 -260h-80z" />
    <glyph glyph-name="Ycircumflex" unicode="&#x176;" horiz-adv-x="630" 
d="M169 792l117 130h71l104 -130h-71l-71 71l-78 -71h-72zM45 732h81l189 -384l209 384h81l-253 -472v-260h-74v260z" />
    <glyph glyph-name="ycircumflex" unicode="&#x177;" horiz-adv-x="554" 
d="M131 596l117 130h71l104 -130h-71l-71 71l-78 -71h-72zM21 531h81l129 -415q3 -9 7 -16.5t8.5 -11.5t9.5 -7.5t10 -4.5t9.5 -1.5t8.5 0t7 1t5 0.5l1 1l152 454h83l-234 -699l-75 -102h-46l94 270q-86 0 -120 110z" />
    <glyph glyph-name="Ydieresis" unicode="&#x178;" horiz-adv-x="630" 
d="M147 848q0 21 15 35.5t36 14.5t35.5 -14.5t14.5 -35.5t-14.5 -36t-35.5 -15t-36 15t-15 36zM402 848q0 21 15 35.5t36 14.5t35.5 -14.5t14.5 -35.5t-14.5 -36t-35.5 -15t-36 15t-15 36zM45 732h81l189 -384l209 384h81l-253 -472v-260h-74v260z" />
    <glyph glyph-name="Zacute" unicode="&#x179;" horiz-adv-x="563" 
d="M247 797l107 133h95l-133 -133h-69zM35 0v74l396 584h-396v74h493v-74l-396 -584h396v-74h-493z" />
    <glyph glyph-name="zacute" unicode="&#x17a;" horiz-adv-x="456" 
d="M194 596l106 133h96l-134 -133h-68zM30 457v74h396v-74l-284 -382h284v-74h-381v74l289 382h-304z" />
    <glyph glyph-name="Zdotaccent" unicode="&#x17b;" horiz-adv-x="563" 
d="M233 820v54q0 25 24 25h50q23 0 23 -25v-54q0 -23 -23 -23h-50q-24 0 -24 23zM35 0v74l396 584h-396v74h493v-74l-396 -584h396v-74h-493z" />
    <glyph glyph-name="zdotaccent" unicode="&#x17c;" horiz-adv-x="456" 
d="M180 619v54q0 25 24 25h50q10 0 16 -7t6 -18v-54q0 -23 -22 -23h-50q-11 0 -17.5 6.5t-6.5 16.5zM30 457v74h396v-74l-284 -382h284v-74h-381v74l289 382h-304z" />
    <glyph glyph-name="Zcaron" unicode="&#x17d;" horiz-adv-x="563" 
d="M136 927h72l80 -71l68 71h72l-104 -130h-72zM35 0v74l396 584h-396v74h493v-74l-396 -584h396v-74h-493z" />
    <glyph glyph-name="zcaron" unicode="&#x17e;" horiz-adv-x="456" 
d="M82 726h72l80 -71l69 71h71l-104 -130h-71zM30 457v74h396v-74l-284 -382h284v-74h-381v74l289 382h-304z" />
    <glyph glyph-name="florin" unicode="&#x192;" horiz-adv-x="592" 
d="M20 -179l7 49h90q25 0 44 18.5t31 54.5t19 67.5t14 77.5l48 309h-102l13 75h102l5 34q10 65 23.5 114t34.5 92t53.5 65.5t74.5 22.5q17 0 35 -3.5t28.5 -8t21.5 -8.5l10 -5l-7 -49h-88q-25 0 -43.5 -18.5t-31.5 -56.5t-19.5 -67t-14.5 -78l-5 -35h141l-13 -74h-141
l-48 -309q-7 -47 -13 -77.5t-16.5 -68t-23 -60.5t-31 -44.5t-44 -31.5t-57.5 -10q-25 0 -57 10t-40 15z" />
    <glyph glyph-name="circumflex" unicode="&#x2c6;" horiz-adv-x="392" 
d="M50 531l117 130h71l104 -130h-71l-71 71l-78 -71h-72zM238 661z" />
    <glyph glyph-name="caron" unicode="&#x2c7;" horiz-adv-x="392" 
d="M50 661h72l80 -71l69 71h71l-104 -130h-71zM238 531z" />
    <glyph glyph-name="breve" unicode="&#x2d8;" horiz-adv-x="329" 
d="M50 644h47q0 -28 20.5 -47.5t46.5 -19.5q29 0 49 18t20 49h47q0 -53 -35.5 -83.5t-80.5 -30.5q-44 0 -79 31.5t-35 82.5z" />
    <glyph glyph-name="dotaccent" unicode="&#x2d9;" horiz-adv-x="197" 
d="M50 556v54q0 25 24 25h50q23 0 23 -25v-54q0 -23 -23 -23h-50q-24 0 -24 23z" />
    <glyph glyph-name="ring" unicode="&#x2da;" horiz-adv-x="303" 
d="M50 632q0 43 30 73t72 30t71.5 -30t29.5 -73t-29.5 -72.5t-71.5 -29.5t-72 29.5t-30 72.5zM97 632q0 -22 16 -38t39 -16q22 0 38 16t16 38q0 23 -16 39t-38 16t-38.5 -16.5t-16.5 -38.5z" />
    <glyph glyph-name="ogonek" unicode="&#x2db;" horiz-adv-x="224" 
d="M132 0h39q-41 -33 -54 -60.5t2.5 -43.5t54.5 -17v-60q-33 -5 -63 6t-45 32.5t-17.5 46.5t19 51.5t64.5 44.5z" />
    <glyph glyph-name="tilde" unicode="&#x2dc;" horiz-adv-x="438" 
d="M50 572q27 22 40.5 32.5t36 21t41.5 10.5q28 -2 61.5 -18.5t45.5 -16.5q22 -1 91 36l22 -42q-3 -2 -24.5 -19.5t-31 -23.5t-27 -13.5t-32.5 -6.5q-30 2 -60 18t-47 16q-20 0 -34.5 -5.5t-31 -15t-29.5 -14.5z" />
    <glyph glyph-name="hungarumlaut" unicode="&#x2dd;" horiz-adv-x="380" 
d="M20 531l107 133h95l-133 -133h-69zM155 531l107 133h95l-133 -133h-69z" />
    <glyph glyph-name="uni0338" unicode="&#x338;" horiz-adv-x="643" 
d="M70 162v408q0 78 48.5 120t123.5 42h164q86 0 126.5 -45.5t40.5 -116.5v-408q0 -162 -167 -162h-164q-75 0 -123.5 39t-48.5 123zM144 162q0 -28 10 -45l271 540q-6 1 -19 1h-164q-50 0 -74 -24.5t-24 -63.5v-408zM205 79q20 -5 37 -5h164q93 0 93 88v408q0 39 -17 60z
" />
    <glyph glyph-name="Omega" unicode="&#x3a9;" horiz-adv-x="779" 
d="M65 388q0 50 8.5 96t31 93.5t57.5 82.5t94 57t134 22q89 0 153.5 -29.5t99.5 -81t50.5 -112t15.5 -133.5q0 -54 -3 -87.5t-14 -76.5t-37.5 -77.5t-68.5 -64.5l128 -10v-67h-228v78q42 28 70 56.5t44 53t23.5 59.5t9.5 63t2 75q0 59 -10.5 105.5t-36.5 88t-76 64
t-122 22.5q-251 0 -251 -285q0 -59 3 -88.5t17.5 -67t45.5 -70.5t86 -76v-78h-220v68l133 10q-34 22 -58.5 45t-39.5 49t-24 47t-12.5 52.5t-4 49.5t-0.5 54v13z" />
    <glyph glyph-name="pi" unicode="&#x3c0;" horiz-adv-x="639" 
d="M20 457v74h550v-74h-129v-291q0 -54 16.5 -75t52.5 -21h108v-44q-46 -31 -108 -31q-70 0 -106.5 38.5t-36.5 132.5v291h-187v-457h-74v457h-86z" />
    <glyph glyph-name="uni1E02" unicode="&#x1e02;" horiz-adv-x="596" 
d="M257 816v54q0 25 24 25h50q23 0 23 -25v-54q0 -23 -23 -23h-50q-24 0 -24 23zM80 0v732h282q99 0 144.5 -58t45.5 -132q0 -133 -92 -162q38 -9 67 -53.5t29 -122.5q0 -41 -9 -75.5t-30 -64.5t-60.5 -47t-94.5 -17h-282zM155 74h207q120 0 120 132q0 60 -30 100t-90 40
h-207v-272zM155 420h207q116 0 116 122q0 116 -116 116h-207v-238z" />
    <glyph glyph-name="uni1E03" unicode="&#x1e03;" horiz-adv-x="554" 
d="M50 877v54q0 25 24 25h50q23 0 23 -25v-54q0 -23 -23 -23h-50q-24 0 -24 23zM60 0v785h72v-286q45 18 102.5 29t94.5 11q54 0 90.5 -23t54 -65.5t24 -86t6.5 -101.5q0 -51 -7.5 -94.5t-25.5 -85t-54 -65.5t-88 -24q-46 0 -108.5 23.5t-87.5 41.5l-20 -59h-53zM133 114
q113 -46 196 -46q101 0 101 195q0 116 -24.5 159t-76.5 43q-96 0 -196 -26v-325z" />
    <glyph glyph-name="uni1E0A" unicode="&#x1e0a;" horiz-adv-x="657" 
d="M270 825v54q0 25 24 25h50q23 0 23 -25v-54q0 -23 -23 -23h-50q-24 0 -24 23zM80 0v732h272q65 0 113.5 -24.5t75.5 -61.5t44 -89t22 -97.5t5 -96.5q0 -52 -8.5 -101.5t-28 -97.5t-48.5 -84t-74 -58t-101 -22h-272zM154 77h198q63 0 106 40.5t61.5 103t18.5 143.5
q0 155 -47.5 224.5t-138.5 69.5h-198v-581z" />
    <glyph glyph-name="uni1E0B" unicode="&#x1e0b;" horiz-adv-x="554" 
d="M406 869v54q0 25 24 25h50q23 0 23 -25v-54q0 -23 -23 -23h-50q-24 0 -24 23zM50 263q0 58 6.5 101.5t24 86t54 65.5t90.5 23q37 0 94 -11t102 -29v286h73v-785h-53l-20 59q-25 -18 -87.5 -41.5t-108.5 -23.5q-52 0 -88 24t-54 65.5t-25.5 85t-7.5 94.5zM124 263
q0 -195 101 -195q83 0 196 46v325q-100 26 -196 26q-52 0 -76.5 -43t-24.5 -159z" />
    <glyph glyph-name="uni1E1E" unicode="&#x1e1e;" horiz-adv-x="567" 
d="M268 816v54q0 25 24 25h50q23 0 23 -25v-54q0 -23 -23 -23h-50q-24 0 -24 23zM80 0v602q0 69 35.5 100.5t90.5 29.5l316 -16v-58h-316q-24 0 -36.5 -9.5t-14 -19t-1.5 -27.5v-200l328 -10v-59l-328 -10v-323h-74z" />
    <glyph glyph-name="uni1E1F" unicode="&#x1e1f;" horiz-adv-x="400" 
d="M209 890v54q0 25 24 25h50q23 0 23 -25v-54q0 -23 -23 -23h-50q-24 0 -24 23zM20 457v57l97 17v99q0 22 1 37.5t8 40t19 40t36.5 27t58.5 11.5q62 0 140 -24v-49l-123 1q-23 0 -37 -5.5t-20 -19t-7.5 -25.5t-1.5 -34v-99h148v-74h-148v-457h-74v457h-97z" />
    <glyph glyph-name="uni1E40" unicode="&#x1e40;" horiz-adv-x="801" 
d="M348 820v54q0 25 24 25h50q23 0 23 -25v-54q0 -23 -23 -23h-50q-24 0 -24 23zM55 0l48 732h102l195 -609l189 609h101l56 -732h-74l-45 598l-188 -598h-76l-194 598l-40 -598h-74z" />
    <glyph glyph-name="uni1E41" unicode="&#x1e41;" horiz-adv-x="898" 
d="M455 620v54q0 25 24 25h50q23 0 23 -25v-54q0 -23 -23 -23h-50q-24 0 -24 23zM60 0v531h52l22 -64q6 4 24.5 14.5t26 15t24 12.5t27 11.5l25.5 8.5t30.5 6.5t31.5 1.5q50 0 90 -21t57 -57q94 78 214 78q70 0 117 -48t47 -123v-366h-74v366q0 44 -25.5 70.5t-64.5 26.5
q-60 0 -103.5 -12t-92.5 -44v-39v-368h-74v366q0 44 -25.5 70.5t-65.5 26.5q-37 0 -69.5 -8t-50.5 -15.5t-69 -32.5v-407h-74z" />
    <glyph glyph-name="uni1E56" unicode="&#x1e56;" horiz-adv-x="581" 
d="M244 827v54q0 25 24 25h50q23 0 23 -25v-54q0 -23 -23 -23h-50q-24 0 -24 23zM60 0v732h301q175 0 175 -212q0 -60 -11.5 -103t-28 -65.5t-42.5 -35t-46 -15.5t-47 -3q-29 0 -126 9t-101 11v-318h-74zM134 372h227q48 0 74 29t26 119q-1 46 -11 76t-27.5 42t-30.5 15.5
t-31 3.5h-227v-285z" />
    <glyph glyph-name="uni1E57" unicode="&#x1e57;" horiz-adv-x="554" 
d="M250 632v54q0 25 24 25h50q23 0 23 -25v-54q0 -23 -23 -23h-50q-24 0 -24 23zM60 -270v801h53l19 -59q25 18 88 41.5t109 23.5q52 0 88 -24t54 -65.5t25.5 -85t7.5 -94.5q0 -58 -6.5 -101.5t-24 -86t-54 -65.5t-90.5 -23q-37 0 -94.5 11t-102.5 29v-302h-72zM132 92
q100 -26 197 -26q52 0 76.5 43t24.5 159q0 195 -101 195q-84 0 -197 -46v-325z" />
    <glyph glyph-name="uni1E60" unicode="&#x1e60;" horiz-adv-x="584" 
d="M252 831v54q0 25 24 25h50q23 0 23 -25v-54q0 -23 -23 -23h-50q-24 0 -24 23zM65 494v66q0 101 52 139.5t146 38.5q68 0 250 -24v-60l-250 10q-63 3 -93.5 -16.5t-30.5 -87.5v-66q0 -62 24.5 -80t77.5 -18h142q156 0 156 -172v-68q0 -51 -17 -85t-48 -50.5t-63 -22.5
t-74 -6q-35 0 -123.5 9t-126.5 16v60q110 -11 250 -11q128 0 128 90v68q0 47 -18 72.5t-64 25.5h-140q-57 0 -94.5 14t-54.5 41t-23 53.5t-6 63.5z" />
    <glyph glyph-name="uni1E61" unicode="&#x1e61;" horiz-adv-x="506" 
d="M226 631v54q0 25 24 25h50q23 0 23 -25v-54q0 -23 -23 -23h-50q-24 0 -24 23zM40 358v46q0 65 32 98.5t106 33.5q95 0 261 -16v-57h-261q-23 0 -37 -4t-19.5 -13.5t-6.5 -17.5t-1 -24v-46q0 -20 4.5 -32t14.5 -17t19 -6.5t26 -1.5h158q63 0 96.5 -35.5t33.5 -93.5v-49
q0 -74 -36 -101t-94 -27q-94 0 -274 19v55h274q0 1 5.5 0t14 2t16.5 7t14 16t6 29v49q0 28 -12.5 41.5t-43.5 13.5h-158q-73 0 -105.5 28t-32.5 103z" />
    <glyph glyph-name="uni1E6A" unicode="&#x1e6a;" horiz-adv-x="578" 
d="M240 820v54q0 25 24 25h50q11 0 17.5 -7t6.5 -18v-54q0 -23 -24 -23h-50q-10 0 -17 6.5t-7 16.5zM45 658v74h508v-74h-220v-658h-74v658h-214z" />
    <glyph glyph-name="uni1E6B" unicode="&#x1e6b;" horiz-adv-x="378" 
d="M116 764v54q0 25 24 25h50q23 0 23 -25v-54q0 -23 -23 -23h-50q-24 0 -24 23zM20 458v56l99 18l18 148h56v-148h155v-74h-155v-268q0 -61 14 -84.5t43 -30.5q82 -21 89 -21v-53h-88q-132 0 -132 189v268h-99z" />
    <glyph glyph-name="Wgrave" unicode="&#x1e80;" horiz-adv-x="962" 
d="M333 925h95l107 -133h-69zM45 732h81l213 -603l181 603h84l-68 -234l133 -375l187 609h81l-229 -732h-74l-137 374l-121 -374h-74z" />
    <glyph glyph-name="wgrave" unicode="&#x1e81;" horiz-adv-x="801" 
d="M238 724h95l107 -133h-69zM20 531h81l157 -422l138 422h80l-54 -170l116 -252l162 422h81l-203 -531h-74l-118 260l-87 -260h-80z" />
    <glyph glyph-name="Wacute" unicode="&#x1e82;" horiz-adv-x="962" 
d="M467 792l107 133h95l-133 -133h-69zM45 732h81l213 -603l181 603h84l-68 -234l133 -375l187 609h81l-229 -732h-74l-137 374l-121 -374h-74z" />
    <glyph glyph-name="wacute" unicode="&#x1e83;" horiz-adv-x="801" 
d="M372 591l107 133h95l-133 -133h-69zM20 531h81l157 -422l138 422h80l-54 -170l116 -252l162 422h81l-203 -531h-74l-118 260l-87 -260h-80z" />
    <glyph glyph-name="Wdieresis" unicode="&#x1e84;" horiz-adv-x="962" 
d="M323 843q0 21 15 35.5t36 14.5t35.5 -14.5t14.5 -35.5t-14.5 -36t-35.5 -15t-36 15t-15 36zM578 843q0 21 15 35.5t36 14.5t35.5 -14.5t14.5 -35.5t-14.5 -36t-35.5 -15t-36 15t-15 36zM45 732h81l213 -603l181 603h84l-68 -234l133 -375l187 609h81l-229 -732h-74
l-137 374l-121 -374h-74z" />
    <glyph glyph-name="wdieresis" unicode="&#x1e85;" horiz-adv-x="801" 
d="M228 642q0 21 15 35.5t36 14.5t35.5 -14.5t14.5 -35.5t-14.5 -36t-35.5 -15t-36 15t-15 36zM483 642q0 21 15 35.5t36 14.5t35.5 -14.5t14.5 -35.5t-14.5 -36t-35.5 -15t-36 15t-15 36zM20 531h81l157 -422l138 422h80l-54 -170l116 -252l162 422h81l-203 -531h-74
l-118 260l-87 -260h-80z" />
    <glyph glyph-name="Ygrave" unicode="&#x1ef2;" horiz-adv-x="630" 
d="M158 930h94l108 -133h-70zM45 732h81l189 -384l209 384h81l-253 -472v-260h-74v260z" />
    <glyph glyph-name="ygrave" unicode="&#x1ef3;" horiz-adv-x="554" 
d="M119 729h95l107 -133h-69zM21 531h81l129 -415q3 -9 7 -16.5t8.5 -11.5t9.5 -7.5t10 -4.5t9.5 -1.5t8.5 0t7 1t5 0.5l1 1l152 454h83l-234 -699l-75 -102h-46l94 270q-86 0 -120 110z" />
    <glyph glyph-name="endash" unicode="&#x2013;" horiz-adv-x="513" 
d="M20 250v75h473v-75h-473z" />
    <glyph glyph-name="emdash" unicode="&#x2014;" horiz-adv-x="736" 
d="M20 252v75h696v-75h-696z" />
    <glyph glyph-name="quoteleft" unicode="&#x2018;" horiz-adv-x="270" 
d="M80 557v99q0 21 5.5 37t15 25t20.5 14.5t22 7t20.5 2t14.5 -0.5l6 -1v-35q-34 1 -34 -34v-28h12q28 0 28 -27v-59q0 -30 -28 -30h-56q-26 0 -26 30z" />
    <glyph glyph-name="quoteright" unicode="&#x2019;" horiz-adv-x="270" 
d="M80 653v59q0 30 28 30h56q26 0 26 -30v-99q0 -29 -10.5 -48.5t-26 -26.5t-31 -10t-26.5 -2l-10 2v35q34 -1 34 35v27h-12q-28 0 -28 28z" />
    <glyph glyph-name="quotesinglbase" unicode="&#x201a;" horiz-adv-x="270" 
d="M80 27v59q0 30 28 30h56q26 0 26 -30v-99q0 -29 -10.5 -49t-26 -26.5t-31 -9.5t-26.5 -2l-10 2v35q34 -1 34 35v27h-12q-28 0 -28 28z" />
    <glyph glyph-name="quotedblleft" unicode="&#x201c;" horiz-adv-x="418" 
d="M235 557v99q0 29 11 48.5t26.5 26.5t30.5 9.5t26 1.5l11 -2v-35q-35 1 -35 -34v-27h13q27 0 27 -28v-59q0 -30 -27 -30h-56q-27 0 -27 30zM73 557v99q0 21 5.5 37t15 25t20.5 14.5t22 7t20.5 2t15.5 -0.5l5 -1v-35q-34 1 -34 -34v-27h12q28 0 28 -28v-59q0 -30 -28 -30
h-56q-26 0 -26 30z" />
    <glyph glyph-name="quotedblright" unicode="&#x201d;" horiz-adv-x="418" 
d="M73 653v59q0 30 27 30h56q27 0 27 -30v-99q0 -29 -11 -48.5t-26.5 -26.5t-30.5 -10t-26 -2l-11 2v35q34 -1 34 35v27h-12q-27 0 -27 28zM235 653v59q0 30 28 30h56q26 0 26 -30v-99q0 -29 -10.5 -48.5t-26 -26.5t-31 -10t-25.5 -2l-11 2v35q34 -1 34 35v27h-12
q-28 0 -28 28z" />
    <glyph glyph-name="quotedblbase" unicode="&#x201e;" horiz-adv-x="418" 
d="M73 27v59q0 30 27 30h56q27 0 27 -30v-99q0 -29 -11 -49t-26.5 -26.5t-30.5 -9.5t-26 -2l-11 2v35q34 -1 34 35v27h-12q-27 0 -27 28zM235 27v59q0 30 28 30h56q26 0 26 -30v-99q0 -29 -10.5 -49t-26 -26.5t-31 -9.5t-25.5 -2l-11 2v35q34 -1 34 35v27h-12q-28 0 -28 28z
" />
    <glyph glyph-name="dagger" unicode="&#x2020;" horiz-adv-x="384" 
d="M20 489v59l133 10l8 212h63l8 -212l132 -10v-59l-132 -10l-9 -551h-63l-7 551z" />
    <glyph glyph-name="daggerdbl" unicode="&#x2021;" horiz-adv-x="404" 
d="M20 174v59l134 10l-1 236l-133 10v59l133 10l9 212h62l8 -212l132 -10v-59l-132 -10l-3 -236l135 -10v-59l-137 -10l-4 -236h-63l-4 236z" />
    <glyph glyph-name="bullet" unicode="&#x2022;" horiz-adv-x="312" 
d="M85 341v80q0 35 33 35h74q35 0 35 -35v-80q0 -32 -35 -32h-74q-33 0 -33 32z" />
    <glyph glyph-name="ellipsis" unicode="&#x2026;" horiz-adv-x="816" 
d="M629 23v57q0 25 24 25h53q25 0 25 -25v-57q0 -23 -25 -23h-53q-24 0 -24 23zM357 23v57q0 25 24 25h53q25 0 25 -25v-57q0 -23 -25 -23h-53q-24 0 -24 23zM85 23v57q0 25 24 25h53q25 0 25 -25v-57q0 -23 -25 -23h-53q-24 0 -24 23z" />
    <glyph glyph-name="perthousand" unicode="&#x2030;" horiz-adv-x="1381" 
d="M42 474v133q0 66 28 95.5t101 29.5h101q71 0 99 -29.5t28 -95.5v-133q0 -66 -28 -95.5t-101 -29.5h-101q-71 0 -99 29.5t-28 95.5zM107 474q0 -36 13 -48t49 -12h101q42 0 53 12t11 48v133q0 36 -13 48t-49 12h-101q-41 0 -52.5 -12t-11.5 -48v-133zM227 0l438 732h71
l-438 -732h-71zM556 127v133q0 66 28 95.5t101 29.5h101q71 0 99 -29.5t28 -95.5v-133q0 -66 -28 -95.5t-101 -29.5h-101q-71 0 -99 29.5t-28 95.5zM621 127q0 -36 13 -48t49 -12h101q42 0 53 12t11 48v133q0 36 -13 48t-49 12h-101q-41 0 -52.5 -12t-11.5 -48v-133z
M982 127v133q0 66 28 95.5t101 29.5h101q71 0 99 -29.5t28 -95.5v-133q0 -66 -28 -95.5t-101 -29.5h-101q-71 0 -99 29.5t-28 95.5zM1047 127q0 -36 13 -48t49 -12h101q42 0 53 12t11 48v133q0 36 -13 48t-49 12h-101q-41 0 -52.5 -12t-11.5 -48v-133z" />
    <glyph glyph-name="guilsinglleft" unicode="&#x2039;" horiz-adv-x="357" 
d="M50 354l206 203l52 -52l-155 -151l160 -156l-52 -52z" />
    <glyph glyph-name="guilsinglright" unicode="&#x203a;" horiz-adv-x="357" 
d="M50 198l160 156l-155 151l52 52l206 -203l-211 -208z" />
    <glyph glyph-name="fraction" unicode="&#x2044;" horiz-adv-x="233" 
d="M-90 0l348 732h65l-348 -732h-65z" />
    <glyph glyph-name="zerosuperior" unicode="&#x2070;" horiz-adv-x="468" 
d="M60 515v255q0 60 30 85t87 25h117q113 0 113 -110v-255q0 -66 -28.5 -88t-84.5 -22h-117q-26 0 -44 3.5t-36 14t-27.5 33.5t-9.5 59zM123 519q0 -31 11 -41.5t47 -10.5h109q36 0 46 11.5t10 40.5v247q0 28 -11 40t-45 12h-109q-35 0 -46.5 -12.5t-11.5 -39.5v-247z" />
    <glyph glyph-name="foursuperior" unicode="&#x2074;" horiz-adv-x="417" 
d="M16 550l208 330h71l-181 -289h167v121l28 48h34v-169h59v-52l-59 -13v-120h-62v120h-243z" />
    <glyph glyph-name="fivesuperior" unicode="&#x2075;" horiz-adv-x="419" 
d="M55 415v49h211q51 0 51 55v56v15.5t-2.5 15.5t-7.5 16t-15.5 10t-25.5 5h-115q-44 0 -44 -49h-52l15 292h295v-62h-237l-8 -138q10 10 33 15t40 5.5t46 -0.5t31 -1q56 0 82.5 -32t26.5 -88v-64q0 -59 -29.5 -86.5t-79.5 -27.5q-134 0 -215 14z" />
    <glyph glyph-name="sixsuperior" unicode="&#x2076;" horiz-adv-x="440" 
d="M55 656q1 71 11 118t28.5 70t37.5 31.5t46 10.5q78 6 205 -12v-50h-202q-61 0 -64 -153q128 14 177 14q60 0 82.5 -28t22.5 -73v-73q0 -52 -28.5 -78.5t-76.5 -26.5h-107q-30 0 -52 9.5t-41.5 35t-29.5 77t-9 128.5zM117 623q0 -155 67 -155h106q25 0 36 12t11 39v61
q0 25 -11 34t-36 9h-173z" />
    <glyph glyph-name="sevensuperior" unicode="&#x2077;" horiz-adv-x="367" 
d="M15 820v62h319l17 -31l-182 -445h-70l171 414h-255z" />
    <glyph glyph-name="eightsuperior" unicode="&#x2078;" horiz-adv-x="466" 
d="M66 508v58q0 55 55 72q-55 18 -55 90v40q0 65 30.5 91t85.5 26h110q54 0 81 -27t27 -90v-40q1 -11 -1 -24t-14 -29.5t-33 -21.5q24 -4 36 -32t12 -55v-58q0 -104 -105 -104h-120q-63 0 -86 28t-23 76zM128 512q0 -25 10.5 -35t40.5 -10h112q47 0 47 45v50q0 52 -46 52
h-115q-49 0 -49 -52v-50zM128 732q0 -55 49 -55h111q50 0 50 55v32q0 35 -12.5 47t-42.5 12h-97q-34 0 -46 -12.5t-12 -46.5v-32z" />
    <glyph glyph-name="ninesuperior" unicode="&#x2079;" horiz-adv-x="440" 
d="M45 708v73q0 52 28.5 78.5t76.5 26.5h107q30 0 52 -9.5t41.5 -35t29.5 -77t9 -128.5q-1 -71 -10 -118t-27.5 -69.5t-37.5 -31.5t-47 -11q-107 -8 -206 12v50h201q62 0 65 153q-128 -14 -177 -14q-60 0 -82.5 28t-22.5 73zM107 712q0 -25 11 -34t36 -9h173q0 155 -64 155
h-109q-25 0 -36 -12t-11 -39v-61z" />
    <glyph glyph-name="zeroinferior" unicode="&#x2080;" horiz-adv-x="468" 
d="M60 -90v255q0 60 30 85t87 25h117q113 0 113 -110v-255q0 -66 -28.5 -88t-84.5 -22h-117q-26 0 -44 3.5t-36 14t-27.5 33.5t-9.5 59zM123 -86q0 -31 11 -41.5t47 -10.5h109q36 0 46 11.5t10 40.5v247q0 28 -11 40t-45 12h-109q-35 0 -46.5 -12.5t-11.5 -39.5v-247z" />
    <glyph glyph-name="oneinferior" unicode="&#x2081;" horiz-adv-x="271" 
d="M16 173v49l128 55h62v-476h-62v407z" />
    <glyph glyph-name="twoinferior" unicode="&#x2082;" horiz-adv-x="387" 
d="M32 221q-1 0 -1 12t1 23v12q124 15 183 15q130 0 130 -136q0 -35 -18 -75t-37.5 -67.5t-55.5 -63.5t-48 -46t-38 -32h196v-62h-309v58q8 7 40.5 31.5t53.5 41.5t52.5 46.5t50.5 54t33.5 54.5t14.5 57q0 41 -17 59t-59 18h-172z" />
    <glyph glyph-name="threeinferior" unicode="&#x2083;" horiz-adv-x="406" 
d="M30 217v43q9 3 18.5 5.5t21 4.5t19 3.5t21.5 2.5t20.5 1.5t23.5 0.5h22h24.5h24.5q61 0 91 -33.5t30 -83.5v-35q0 -33 -14 -56.5t-35 -31.5q49 -31 49 -94v-28q0 -58 -28 -88.5t-98 -30.5h-23.5h-23.5h-21t-22 0.5t-19 1.5t-20.5 2.5t-18 3.5t-20 4.5t-18.5 5.5l1 43
l177 1q40 0 56 14t16 47v23q0 67 -68 69l-142 5v47l142 7q69 3 69 64v22q0 60 -69 60h-186z" />
    <glyph glyph-name="fourinferior" unicode="&#x2084;" horiz-adv-x="417" 
d="M16 -55l208 330h71l-181 -289h167v121l28 48h34v-169h59v-52l-59 -13v-120h-62v120h-243z" />
    <glyph glyph-name="fiveinferior" unicode="&#x2085;" horiz-adv-x="419" 
d="M55 -17l15 292h295v-62h-237l-8 -138q10 10 33 15t40 5.5t46 -0.5t31 -1q56 0 82.5 -32t26.5 -88v-64q0 -59 -29.5 -86.5t-79.5 -27.5q-134 0 -215 14v49h211q51 0 51 55v56v15.5t-2.5 15.5t-7.5 16t-15.5 10t-25.5 5h-115q-44 0 -44 -49h-52z" />
    <glyph glyph-name="sixinferior" unicode="&#x2086;" horiz-adv-x="440" 
d="M55 51q1 71 11 118t28.5 70t37.5 31.5t46 10.5q108 7 205 -12v-50h-202q-61 0 -64 -153q128 14 177 14q60 0 82.5 -28t22.5 -73v-73q0 -52 -28.5 -78.5t-76.5 -26.5h-107q-30 0 -52 9.5t-41.5 35t-29.5 77t-9 128.5zM117 18q0 -155 67 -155h106q25 0 36 12t11 39v61
q0 25 -11 34t-36 9h-173z" />
    <glyph glyph-name="seveninferior" unicode="&#x2087;" horiz-adv-x="367" 
d="M15 215v62h319l17 -31l-182 -445h-70l171 414h-255z" />
    <glyph glyph-name="eightinferior" unicode="&#x2088;" horiz-adv-x="466" 
d="M66 -39q0 55 55 72q-55 18 -55 90v40q0 65 30.5 91t85.5 26h110q54 0 81 -27t27 -90v-40q1 -11 -1 -24t-14 -29.5t-33 -21.5q24 -4 36 -32t12 -55v-58q0 -104 -105 -104h-120q-63 0 -86 28t-23 76v58zM128 -43v-50q0 -25 10.5 -35t40.5 -10h112q47 0 47 45v50
q0 52 -46 52h-115q-49 0 -49 -52zM128 127q0 -55 49 -55h111q50 0 50 55v32q0 35 -12.5 47t-42.5 12h-97q-34 0 -46 -12.5t-12 -46.5v-32z" />
    <glyph glyph-name="nineinferior" unicode="&#x2089;" horiz-adv-x="440" 
d="M45 103v73q0 52 28.5 78.5t76.5 26.5h107q30 0 52 -9.5t41.5 -35t29.5 -77t9 -128.5q-1 -71 -10 -118t-27.5 -69.5t-37.5 -31.5t-47 -11q-105 -8 -206 12v50h201q62 0 65 153q-128 -14 -177 -14q-60 0 -82.5 28t-22.5 73zM107 107q0 -25 11 -34t36 -9h173q0 155 -64 155
h-109q-25 0 -36 -12t-11 -39v-61z" />
    <glyph glyph-name="Euro" unicode="&#x20ac;" horiz-adv-x="611" 
d="M20 255v47l88 7v101l-88 8v43l88 9v8q0 25 0.5 40t5 45.5t12.5 51t25 46.5t41.5 41.5t62.5 26.5t87 11q83 0 245 -30v-59q-163 15 -245 15q-54 0 -87.5 -13t-48.5 -42.5t-19.5 -59.5t-4.5 -81l234 -7v-46l-234 -7v-101l234 -7v-47q-15 0 -39.5 -0.5t-76 -2t-85.5 -2.5
t-33 -2q0 -180 160 -180q43 0 105.5 4t102.5 8l41 5v-56q-123 -35 -249 -35q-28 0 -54.5 4.5t-60.5 20.5t-59 42t-42.5 74.5t-17.5 112.5z" />
    <glyph glyph-name="afii61289" unicode="&#x2113;" horiz-adv-x="386" 
d="M30 248q25 23 57 56v328q1 49 33.5 78t79.5 29q57 0 89.5 -40.5t33.5 -100.5q1 -73 -43 -154.5t-119 -149.5v-105q0 -49 6 -72t16 -30t35 -13q0 -1 44 -11.5t45 -9.5v-53h-22h-44h-22q-72 1 -102 44t-30 145v46q-14 -9 -31 -19zM161 396q114 154 81 244q-6 16 -25.5 23.5
t-37.5 -2t-18 -35.5v-230z" />
    <glyph glyph-name="afii61352" unicode="&#x2116;" horiz-adv-x="1061" 
d="M72 0v652q0 48 34 71t75 10.5t59 -53.5l268 -597q6 -13 15 -11t9 14v482q0 86 46.5 126.5t121.5 40.5l189 -1q74 -2 103 -44.5t29 -136.5q0 -86 -29.5 -129t-102.5 -43h-66q-77 0 -104.5 50.5t-27.5 183.5h62q0 -60 5 -96.5t17 -52t23 -19.5t31 -4h54q39 0 57.5 20
t18.5 90q0 52 -9.5 77.5t-23.5 31.5t-43 7q-113 1 -185 1q-42 0 -67 -25t-25 -75v-491q0 -43 -32.5 -68t-72.5 -15.5t-59 53.5l-271 603q-5 11 -15 8.5t-10 -15.5v-645h-74z" />
    <glyph glyph-name="trademark" unicode="&#x2122;" horiz-adv-x="692" 
d="M20 668v64h259v-64h-97v-285h-64v285h-98zM318 383l27 349h63l93 -237l80 237h65l31 -349h-64l-17 202l-67 -202h-53l-79 203l-15 -203h-64z" />
    <glyph glyph-name="estimated" unicode="&#x212e;" horiz-adv-x="722" 
d="M60 266q0 113 84 192q84 75 217 75q123 0 208 -66q87 -67 93 -209h-479h-2h-5.5t-3 -3t-1.5 -8v-133q0 -25 56.5 -59t133.5 -34q55 0 106.5 23.5t84.5 60.5h56q-58 -61 -113 -83q-58 -22 -134 -22q-138 0 -218 74q-83 77 -83 192zM171 284q0 -9 9 -9h357q12 0 12 1
q1 1 1 6v133q0 32 -63 65.5t-127 33.5q-50 0 -96 -19t-69.5 -40t-23.5 -34v-137z" />
    <glyph glyph-name="partialdiff" unicode="&#x2202;" horiz-adv-x="646" 
d="M57 227q0 114 67 176t192 62q100 0 173 -57q-8 148 -53 203t-144 55q-96 0 -178 -51l-23 47q43 28 66 41t60.5 25t77.5 12q269 0 269 -353q0 -76 -15 -144.5t-45.5 -125t-81.5 -89.5t-117 -33q-106 0 -177 59.5t-71 172.5zM131 230q0 -77 49.5 -119t122.5 -42
q52 0 91 32.5t58.5 81t28.5 91t9 77.5q-72 40 -174 40q-96 0 -140.5 -43.5t-44.5 -117.5z" />
    <glyph glyph-name="uni2206" unicode="&#x2206;" horiz-adv-x="724" 
d="M20 0l311 732h74l299 -732h-684zM133 74h462l-226 560z" />
    <glyph glyph-name="product" unicode="&#x220f;" horiz-adv-x="644" 
d="M20 658v74h604v-74h-87v-658h-74v658h-283v-658h-74v658h-86z" />
    <glyph glyph-name="summation" unicode="&#x2211;" horiz-adv-x="586" 
d="M40 -123l214 393l-214 388v74h526v-74h-437l213 -388l-213 -393h437v-77h-526v77z" />
    <glyph glyph-name="minus" unicode="&#x2212;" horiz-adv-x="456" 
d="M20 319v74h416v-74h-416z" />
    <glyph glyph-name="radical" unicode="&#x221a;" horiz-adv-x="628" 
d="M20 284v74h133l130 -255l251 697h74l-285 -800h-68l-147 284h-88z" />
    <glyph glyph-name="infinity" unicode="&#x221e;" horiz-adv-x="786" 
d="M50 341q0 173 166 173q54 0 100.5 -29t76.5 -76q30 47 76.5 76t100.5 29q166 0 166 -173q0 -77 -38.5 -124.5t-127.5 -47.5q-117 0 -178 108q-61 -108 -176 -108q-89 0 -127.5 47.5t-38.5 124.5zM124 341q0 -47 19.5 -72.5t72.5 -25.5q79 0 145 98q-26 41 -66 70t-79 29
q-59 0 -75.5 -24.5t-16.5 -74.5zM425 341q66 -98 145 -98q92 0 92 98q0 50 -17 74.5t-75 24.5q-39 0 -79 -29t-66 -70z" />
    <glyph glyph-name="integral" unicode="&#x222b;" horiz-adv-x="441" 
d="M20 -130h90q17 0 29.5 8.5t20.5 27t12.5 36t6.5 47t3 48t1 51.5v418q0 66 5.5 114t20 91.5t43 66t70.5 22.5q21 0 39 -3t26.5 -6.5t19.5 -9t14 -6.5v-49h-88q-20 0 -34.5 -14t-22 -34t-12 -52.5t-6 -58t-1.5 -61.5v-418q0 -68 -4.5 -114t-18 -90t-42 -66t-71.5 -22
q-63 0 -101 25v49z" />
    <glyph glyph-name="approxequal" unicode="&#x2248;" horiz-adv-x="531" 
d="M50 250q30 24 44 34.5t43.5 23.5t59.5 13t74.5 -18.5t74.5 -18.5q21 0 37.5 5t38.5 16.5t37 17.5l22 -42q-9 -6 -29 -22t-32.5 -25t-33.5 -17t-42 -8q-30 0 -74.5 19t-74.5 19q-23 0 -42 -6t-42 -16.5t-40 -15.5zM50 427q30 24 44 34.5t43.5 23.5t59.5 13t74.5 -18.5
t74.5 -18.5q21 0 37.5 5t38.5 16.5t37 17.5l22 -42q-9 -6 -29 -22t-32.5 -25t-33.5 -17t-42 -8q-30 0 -74.5 19t-74.5 19q-23 0 -42 -6t-42 -16.5t-40 -15.5z" />
    <glyph glyph-name="notequal" unicode="&#x2260;" horiz-adv-x="467" 
d="M20 212v79h147l76 125h-223v79h271l46 75h61l-46 -75h95v-79h-143l-76 -125h219v-79h-267l-52 -86h-61l52 86h-99z" />
    <glyph glyph-name="lessequal" unicode="&#x2264;" horiz-adv-x="475" 
d="M50 104v74h376v-74h-376zM50 394v80l375 162v-80l-276 -122l276 -132v-82z" />
    <glyph glyph-name="greaterequal" unicode="&#x2265;" horiz-adv-x="475" 
d="M50 104v74h376v-74h-376zM51 220v82l276 132l-276 122v80l375 -162v-80z" />
    <glyph glyph-name="lozenge" unicode="&#x25ca;" horiz-adv-x="522" 
d="M20 373l207 359h74l201 -359l-201 -373h-74zM109 373l155 -275l150 275l-150 266z" />
    <glyph glyph-name="f_f" unicode="&#xfb00;" horiz-adv-x="782" 
d="M20 457v57l99 17v89q0 22 1 37.5t8 40t19 40t36.5 27t58.5 11.5q62 0 140 -24v-49l-123 1q-23 0 -37 -5.5t-20 -19t-7.5 -25.5t-1.5 -34v-89h306v99q0 22 1 37.5t8 40t19 40t36.5 27t58.5 11.5q62 0 140 -24v-49l-123 1q-23 0 -37 -5.5t-20 -19t-7.5 -25.5t-1.5 -34v-99
h146v-74h-148v-457h-74v457h-306v-457h-74v457h-97z" />
    <glyph glyph-name="f_f_i" unicode="&#xfb03;" horiz-adv-x="972" 
d="M20 457v57l99 17v89q0 22 1 37.5t8 40t19 40t36.5 27t58.5 11.5q62 0 140 -24v-49l-123 1q-23 0 -37 -5.5t-20 -19t-7.5 -25t-1.5 -34.5l-2 -89h288v53q0 90 53.5 146t142.5 56q77 0 188 -34v-49l-171 11q-57 4 -98 -26t-41 -104v-53l359 -10v-521h-75v457h-286v-457h-74
v457h-286v-457h-74v457h-97z" />
    <glyph glyph-name="ffl" unicode="&#xfb04;" horiz-adv-x="1077" 
d="M20 457v57l99 17v89q0 22 1 37.5t8 40t19 40t36.5 27t58.5 11.5q62 0 140 -24v-49l-123 1q-23 0 -37 -5.5t-20 -19t-7.5 -25t-1.5 -34.5l-2 -89h288v53q0 89 39 144.5t124 55.5h269v-595q0 -63 11.5 -84.5t45.5 -30.5q82 -21 89 -21v-53h-88q-71 0 -101.5 42t-30.5 147
v525h-178q-53 0 -79.5 -27t-26.5 -103v-53h146v-74h-148v-457h-74v457h-286v-457h-74v457h-97z" />
    <glyph glyph-name="s_t" unicode="&#xfb06;" horiz-adv-x="885" 
d="M40 352v48q0 65 32 98.5t106 33.5h452l18 148h56v-148h155v-72h-155v-270q0 -49 6.5 -72t16.5 -30t36 -13q77 -18 78 -18v-56h-78q-72 0 -102.5 42.5t-30.5 146.5v270l-452 -1q-23 0 -37 -4t-19.5 -13.5t-6.5 -17.5t-1 -24v-48q0 -20 4.5 -32t14.5 -17t19 -6.5t26 -1.5
h158q63 0 96.5 -35.5t33.5 -93.5v-43q0 -74 -36 -101t-94 -27q-94 0 -274 19v55h274q0 1 5.5 0t14 2t16.5 7t14 16t6 29v43q0 28 -12.5 41.5t-43.5 13.5h-158q-73 0 -105.5 28t-32.5 103z" />
    <glyph glyph-name="exclamdown.alt" horiz-adv-x="269" 
d="M82 651v57q0 23 23 23h55q24 0 24 -23v-57q0 -25 -24 -25h-55q-23 0 -23 25zM89 0l7 535h75l7 -535h-89z" />
    <glyph glyph-name="zero.oldstyle" horiz-adv-x="643" 
d="M70 162v307q0 78 48.5 120t123.5 42h164q87 0 127 -44t40 -118v-307q0 -162 -167 -162h-164q-75 0 -123.5 39t-48.5 123zM144 162q0 -46 28.5 -67t69.5 -21h164q93 0 93 88v307q0 88 -93 88h-164q-50 0 -74 -24.5t-24 -63.5v-307z" />
    <glyph glyph-name="one.oldstyle" horiz-adv-x="357" 
d="M30 494v53l168 85h74v-632h-74v548z" />
    <glyph glyph-name="two.oldstyle" horiz-adv-x="597" 
d="M41 564v54q178 25 303 20q102 0 152.5 -49.5t50.5 -137.5q0 -48 -31 -102t-74 -96t-95.5 -82.5t-88 -62.5t-58.5 -34h342v-74h-495v68q47 26 77.5 44t88 54t96 67t80 69.5t62.5 77t21 73.5q0 115 -129 111h-302z" />
    <glyph glyph-name="three.oldstyle" horiz-adv-x="614" 
d="M50 565v46q41 15 95.5 21.5t107.5 7t115 -0.5q80 -1 125.5 -47.5t45.5 -117.5v-69q0 -110 -66 -136q66 -42 66 -144v-59q0 -168 -178 -168h-37h-38t-34 0.5t-37 1t-32.5 2t-34.5 3.5l-30 5t-33 7t-29 9l1 47h298q108 0 108 93v59q0 102 -102 106l-243 7v58l243 10
q104 5 104 99v69q0 46 -30.5 68.5t-73.5 22.5h-311z" />
    <glyph glyph-name="four.oldstyle" horiz-adv-x="603" 
d="M20 124l321 508h88l-294 -467h284v207l37 75h37v-282h90v-59l-90 -19v-185h-74v185h-365z" />
    <glyph glyph-name="five.oldstyle" horiz-adv-x="620" 
d="M76 -25h304q47 0 68.5 27t21.5 66v110q0 18 -2 29.5t-9.5 29t-27.5 26.5t-51 9h-154q-33 0 -57.5 -19t-24.5 -56h-66l22 435h422v-74h-354l-12 -242q19 23 74 30q24 3 53 3t59 -1.5t38 -1.5q85 0 124.5 -44.5t39.5 -121.5v-114q0 -48 -16.5 -83.5t-43 -53t-52.5 -25.5
t-52 -8q-101 0 -155 4t-149 20v55z" />
    <glyph glyph-name="six.oldstyle" horiz-adv-x="623" 
d="M65 384q0 183 50.5 268.5t121.5 85.5q163 0 302 -19v-55h-289q-32 0 -55 -27t-34 -71t-16 -82t-6 -77q178 21 263 21q93 0 127 -40t34 -109v-131q0 -149 -161 -149h-149q-44 0 -76 16.5t-58.5 57.5t-40 118.5t-13.5 192.5zM139 354q0 -31 1 -54.5t4 -59.5t11 -62.5
t19.5 -52t32 -39t46.5 -13.5h149q44 0 66 16t22 65v125q0 75 -88 75h-263zM75 384z" />
    <glyph glyph-name="seven.oldstyle" horiz-adv-x="546" 
d="M30 558v74h459l27 -48l-265 -684h-88l258 658h-391z" />
    <glyph glyph-name="eight.oldstyle" horiz-adv-x="634" 
d="M75 154v98q0 34 14 57.5t30 32.5t41 17q-44 15 -64.5 54.5t-20.5 85.5v65q0 95 46 134t130 39h146q82 0 122 -41t40 -132v-65q1 -12 -1 -26t-8.5 -34t-23.5 -35.5t-42 -20.5q37 -7 56.5 -49t18.5 -82v-98q0 -46 -16 -78.5t-42.5 -48t-51.5 -21.5t-53 -6h-145
q-49 0 -84 12.5t-52.5 29t-27 41t-11 39t-1.5 32.5zM149 151q0 -77 102 -77h145q36 0 62.5 20t26.5 57v105q0 40 -25 60.5t-61 20.5h-159q-39 0 -65 -19t-26 -62v-105zM149 494q0 -45 28.5 -64.5t62.5 -19.5h159q86 0 86 84v68q0 54 -21.5 77.5t-66.5 23.5h-146
q-54 0 -78 -19t-24 -82v-68z" />
    <glyph glyph-name="nine.oldstyle" horiz-adv-x="623" 
d="M60 352v131q0 149 161 149h149q44 0 76 -16.5t58.5 -57.5t40 -118.5t13.5 -192.5q0 -183 -50.5 -268.5t-121.5 -85.5q-200 0 -302 19v55h289q32 0 55 27t34 71t16 82t6 77q-178 -21 -263 -21q-93 0 -127 40t-34 109zM133 352q0 -75 88 -75h263q0 31 -1 54.5t-4 59.5
t-11 62.5t-19.5 52t-32 39t-46.5 13.5h-149q-44 0 -66 -16t-22 -65v-125z" />
    <glyph glyph-name="questiondown.alt" horiz-adv-x="541" 
d="M40 179v101q0 97 67.5 135.5t175.5 21.5v101h75v-162q-95 2 -142 0q-42 -2 -72.5 -26t-30.5 -70v-101q0 -59 32 -85t105 -26l271 1v-55q-13 -2 -48 -6.5t-45 -5.5t-43.5 -4.5t-44 -3.5t-47.5 -1.5t-54 1.5q-106 0 -152.5 51.5t-46.5 133.5zM272 653v57q0 23 23 23h55
q24 0 24 -23v-57q0 -25 -24 -25h-55q-23 0 -23 25z" />
    <glyph glyph-name="at.alt" horiz-adv-x="846" 
d="M65 426q0 17 1.5 31.5t10.5 41t25.5 44.5t50.5 32.5t81 14.5h215q63 0 108 -32.5t45 -107.5v-372h-56l-14 64l-10 -8q-10 -7 -27.5 -18t-39 -21.5t-49 -18t-52.5 -7.5q-55 -1 -92 32.5t-36 84.5v53q0 61 34 97t95 36h175q1 76 0 76q0 40 -20 54t-64 14h-212
q-44 0 -69 -18t-25 -72v-348q0 -103 94 -103h349q59 0 81 24.5t22 78.5v512q0 56 -28 85t-75 29h-404v47q135 28 288 27l116 -1q82 -2 129.5 -49t47.5 -138v-512q0 -178 -177 -178h-349q-78 0 -123 46t-45 132zM300 192q0 -17 18.5 -33.5t42.5 -15.5q27 0 62 10t51 17.5
t56 26.5v123l-170 -16q-29 -3 -45 -21.5t-15 -45.5v-45z" />
    <glyph glyph-name="g.salt" horiz-adv-x="555" 
d="M50 268q0 129 46 199t138 70q47 0 99.5 -4.5t101 -11t60.5 -7.5v-618q0 -86 -49.5 -130t-109.5 -38l-258 24v49h258q85 0 85 95v133q-96 -39 -187 -39q-56 0 -93 20.5t-56.5 60t-27 86.5t-7.5 111zM124 268q0 -102 14 -140q24 -64 96 -64q56 0 90.5 4.5t96.5 20.5v374
h-187q-110 0 -110 -195z" />
    <glyph glyph-name="ampersand.salt" horiz-adv-x="946" 
d="M44 286v89q0 96 49.5 126.5t161.5 30.5h441l18 148h56v-150h155v-52l-155 -20v-271q0 -53 -21.5 -91.5t-57 -58.5t-74 -28.5t-80.5 -8.5h-164q-95 0 -141.5 30.5t-46.5 123.5q-53 0 -97 33.5t-44 98.5zM118 286q0 -30 20 -45t47 -15q0 88 41.5 127t126.5 39h129
q29 0 48 -3t42 -14t35 -37t12 -67q0 -70 -30 -94t-107 -24h-223q0 -18 3.5 -31.5t11 -21.5t13.5 -13t19.5 -7.5t20.5 -3.5t23.5 -1.5t22.5 -0.5h164q68 0 113.5 28t45.5 85v271h-441q-35 0 -52.5 -1t-37 -5t-28 -13t-14 -24.5t-5.5 -39.5v-89zM259 226h223q24 0 31 0.5
t17.5 4.5t12.5 13t2 27q0 31 -10.5 39t-52.5 8h-129q-27 0 -40.5 -2t-28 -10.5t-20 -28t-5.5 -51.5z" />
    <glyph glyph-name="a.superior" horiz-adv-x="372" 
d="M31 463v46q0 41 27 65.5t73 24.5q140 0 140 1q1 30 0 31q0 50 -61 50q-62 0 -167 -7v42q69 19 175 23q50 1 82.5 -25t32.5 -78v-258h-40l-21 49l-10 -5q-9 -6 -24 -14t-32.5 -15.5t-37.5 -13t-37 -5.5q-41 0 -70.5 23.5t-29.5 65.5zM93 476q0 -40 44 -40q27 0 60.5 9
t53.5 17l20 9v86l-134 -13q-44 -4 -44 -41v-27z" />
    <glyph glyph-name="b.superior" horiz-adv-x="398" 
d="M38 378v524h62v-193q72 30 130 30q41 0 68.5 -15.5t40.5 -44t18 -57.5t5 -68q0 -180 -132 -180q-60 0 -130 49l-22 -45h-40zM100 465q8 -3 27.5 -10t29 -10t28 -6t39.5 -3q76 0 76 118q0 73 -18 98t-58 25q-17 0 -29.5 -0.5t-25 -2.5t-19 -3t-24 -5t-26.5 -6v-195z" />
    <glyph glyph-name="c.superior" horiz-adv-x="363" 
d="M31 555q0 108 33 145t98 37q51 0 162 -21v-46q-88 5 -155 5q-21 0 -31.5 -2.5t-22.5 -13.5t-17 -37t-5 -69q0 -70 17 -94t59 -24l160 7v-47q-74 -20 -167 -22q-64 0 -97.5 37t-33.5 145z" />
    <glyph glyph-name="d.superior" horiz-adv-x="395" 
d="M31 555q0 39 5 68t17.5 57.5t40 44t68.5 15.5q59 0 131 -30v194h60v-526h-40l-21 45q-70 -49 -130 -49q-131 0 -131 181zM93 555q0 -119 76 -119q21 0 39.5 3t28 6t28.5 10t27 10v196q-6 1 -19.5 4.5t-17.5 4.5t-14.5 3t-15.5 2.5l-15 1.5t-19.5 1h-21.5q-40 0 -58 -25
t-18 -98z" />
    <glyph glyph-name="e.superior" horiz-adv-x="393" 
d="M31 557q0 43 5.5 72t21.5 55.5t50 39t86 12.5q39 0 63.5 -3.5t50 -15.5t38 -39.5t12.5 -70.5q0 -41 -27.5 -63t-77.5 -22h-160q0 -53 15 -70t61 -17q139 0 181 6v-45q-83 -23 -187 -23q-71 0 -101.5 39t-30.5 145zM93 584h156q47 0 47 30q0 38 -20 49t-82 11
q-56 0 -78.5 -19t-22.5 -71z" />
    <glyph glyph-name="f.superior" horiz-adv-x="328" 
d="M26 672v49l75 11v66q0 105 96 105q42 0 105 -17v-43l-90 2q-17 0 -27.5 -3.5t-15 -12t-5.5 -16t-1 -22.5v-57h107v-62h-109v-294h-62v294h-73z" />
    <glyph glyph-name="g.superior" horiz-adv-x="417" 
d="M31 291v42l27 44q-25 18 -25 60q0 21 11 39.5t35 21.5q-45 24 -45 105q0 63 32.5 96t88.5 33h231v-38l-51 -22q6 -7 13.5 -28.5t7.5 -40.5q0 -31 -9.5 -60t-38.5 -53.5t-74 -24.5h-113q-25 0 -25 -21q0 -20 25 -23l147 -17q44 -5 71 -33t27 -68v-8q0 -109 -101 -109h-125
q-50 0 -79.5 26.5t-29.5 78.5zM92 300q0 -19 4.5 -30.5t14.5 -16t18 -5.5t21 -1h105q29 0 40 11.5t11 36.5v5q0 40 -60 48l-125 15l-29 3v-66zM97 603q-2 -77 68 -77h65q63 0 63 77q0 30 -16 49.5t-47 19.5h-61q-39 0 -55 -18t-17 -51z" />
    <glyph glyph-name="h.superior" horiz-adv-x="403" 
d="M38 378v523h62v-216q7 4 25.5 15t27.5 15.5t24.5 11.5t30.5 9.5t33 2.5q57 0 90 -33.5t33 -80.5v-247h-62v236q0 31 -19 47t-48 16q-10 0 -19.5 -1t-16 -1.5t-16.5 -3t-13.5 -3.5t-16 -5.5t-15 -5.5t-18.5 -7.5t-20 -8.5v-263h-62z" />
    <glyph glyph-name="i.superior" horiz-adv-x="145" 
d="M34 796v43q0 19 18 19h40q17 0 17 -19v-43q0 -17 -17 -17h-40q-18 0 -18 17zM39 378v356h62v-356h-62z" />
    <glyph glyph-name="j.superior" horiz-adv-x="147" 
d="M35 800v43q0 19 18 19h40q17 0 17 -19v-43q0 -18 -17 -18h-40q-18 0 -18 18zM39 196v537h64v-358q2 -99 -19 -179h-45z" />
    <glyph glyph-name="k.superior" horiz-adv-x="389" 
d="M38 378v521h62v-294h26l147 125h89l-180 -154l178 -198h-81l-146 165h-33v-165h-62z" />
    <glyph glyph-name="l.superior" horiz-adv-x="231" 
d="M37 504v396h62v-388q0 -42 7.5 -56t32.5 -20q59 -14 64 -14v-44h-67q-54 0 -76.5 28t-22.5 98z" />
    <glyph glyph-name="m.superior" horiz-adv-x="672" 
d="M38 378v354h43l19 -49q8 4 25.5 15t26.5 15.5t24 11t29.5 9t30.5 2.5q37 0 67 -16t43 -43q72 59 162 59q51 0 88 -32t37 -82v-244h-62v233q0 28 -19 45.5t-47 17.5q-72 0 -139 -36v-24v-236h-62v233q0 28 -20 45.5t-48 17.5q-9 0 -17 -0.5t-16 -1.5t-13.5 -2t-14 -3.5
t-12.5 -3.5t-14.5 -5t-14 -5.5t-16.5 -7t-18 -7.5v-260h-62z" />
    <glyph glyph-name="n.superior" horiz-adv-x="403" 
d="M38 378v354h39l22 -46q5 3 25.5 15t28 15.5t24 10.5t31.5 9.5t33 2.5q57 0 90 -33.5t33 -80.5v-247h-62v237q0 31 -18.5 47t-47.5 16q-12 0 -21.5 -0.5t-20 -2.5t-16.5 -3.5t-18 -6t-17 -6.5t-20.5 -8.5t-22.5 -9.5v-263h-62z" />
    <glyph glyph-name="o.superior" horiz-adv-x="398" 
d="M31 550q0 94 37 139.5t130 45.5q91 0 127 -45t36 -140q0 -88 -36.5 -131.5t-126.5 -43.5q-92 0 -129.5 43.5t-37.5 131.5zM93 550q0 -71 24 -92t81 -21q55 0 78 20.5t23 92.5q0 76 -22.5 99.5t-80.5 23.5q-57 0 -80 -24.5t-23 -98.5z" />
    <glyph glyph-name="p.superior" horiz-adv-x="395" 
d="M38 194v540h40l19 -44q18 14 60.5 31.5t74.5 17.5q48 0 78 -30t39.5 -68t9.5 -85q0 -187 -127 -187q-68 0 -135 30v-205h-59zM97 448q67 -17 128 -17q37 0 54.5 25.5t17.5 99.5q0 121 -72 121q-49 0 -128 -30v-199z" />
    <glyph glyph-name="q.superior" horiz-adv-x="399" 
d="M31 556q0 87 35 135t104 48q35 0 72.5 -3.5t71.5 -8t43 -5.5v-528h-62v203q-72 -30 -125 -30q-139 0 -139 189zM93 556q0 -23 0.5 -33.5t4.5 -32t12 -32t25 -20t42 -9.5h27t22 2t16 3t23 5t30 7v231h-118q-84 0 -84 -121z" />
    <glyph glyph-name="r.superior" horiz-adv-x="334" 
d="M38 378v354h45l17 -51q7 4 26 15.5t28 16t25 11.5t31 9.5t32 2.5q42 0 56 -6v-60q-18 4 -56 4q-27 0 -52 -5.5t-37.5 -10t-52.5 -21.5v-259h-62z" />
    <glyph glyph-name="s.superior" horiz-adv-x="378" 
d="M31 616v35q0 91 95 91q79 0 196 -13v-49h-186q-20 0 -30 -5.5t-11.5 -12t-1.5 -19.5v-24q0 -16 6.5 -24t14.5 -9.5t23 -1.5h118q43 0 65.5 -25.5t22.5 -67.5v-37q0 -87 -89 -87q-67 0 -206 16v47h195q4 -1 10.5 -2t17 7t10.5 28v25q0 18 -8.5 26t-29.5 8h-119
q-49 0 -71 21t-22 73z" />
    <glyph glyph-name="t.superior" horiz-adv-x="308" 
d="M27 672v48l74 12l16 101h46v-99h112v-62h-112v-162q0 -46 6.5 -57t33.5 -16q56 -12 57 -12v-46h-59q-54 0 -77 28t-23 96v169h-74z" />
    <glyph glyph-name="u.superior" horiz-adv-x="396" 
d="M36 491v241h62v-237q0 -28 19.5 -45t46.5 -17q10 0 18.5 0.5t15 1t15 3t12.5 3.5t15 5t14.5 5.5t18 7.5t19.5 8v265h62v-354h-40l-22 46q-10 -6 -30.5 -19t-31 -18t-29.5 -10.5t-41 -5.5q-57 0 -90.5 36t-33.5 84z" />
    <glyph glyph-name="v.superior" horiz-adv-x="421" 
d="M25 732h70l117 -261l113 261h69l-157 -354h-51z" />
    <glyph glyph-name="w.superior" horiz-adv-x="613" 
d="M25 732h70l117 -261l113 261h69l-53 -119l63 -142l113 261h69l-157 -354h-51l-72 156l-69 -156h-51z" />
    <glyph glyph-name="x.superior" horiz-adv-x="406" 
d="M26 378l141 179l-141 175h75l102 -125l96 125h77l-136 -175l139 -179h-76l-99 131l-102 -131h-76z" />
    <glyph glyph-name="y.superior" horiz-adv-x="439" 
d="M25 733h68l107 -266q13 -29 34 -29l110 295h68l-172 -469l-59 -68h-44l73 180q-42 4 -68 66z" />
    <glyph glyph-name="z.superior" horiz-adv-x="378" 
d="M31 670v62h310v-56l-214 -235h213v-62h-298v62l212 229h-223z" />
    <glyph glyph-name="zero.tnum" horiz-adv-x="620" 
d="M58 162v408q0 78 48.5 120t123.5 42h164q86 0 127 -45.5t41 -116.5v-408q0 -162 -168 -162h-164q-75 0 -123.5 39t-48.5 123zM132 162q0 -46 28.5 -67t69.5 -21h164q47 0 70.5 23t23.5 65v408q0 88 -94 88h-164q-50 0 -74 -24.5t-24 -63.5v-408z" />
    <glyph glyph-name="one.tnum" horiz-adv-x="620" 
d="M136 591v53l182 88h75v-658h163v-74h-410v74h172v574z" />
    <glyph glyph-name="two.tnum" horiz-adv-x="619" 
d="M56 667v55q157 20 304 20q101 0 152 -62t51 -148q0 -55 -31 -118t-73 -113.5t-97 -101t-90.5 -78t-65.5 -47.5h357v-74h-500v68q44 30 87 61.5t108.5 86t112.5 104.5t82 108.5t35 105.5q0 59 -32 96t-97 37h-303z" />
    <glyph glyph-name="three.tnum" horiz-adv-x="620" 
d="M66 660v46q41 15 95.5 21.5t107.5 7t115 -0.5q80 -1 125 -47.5t45 -117.5v-69q0 -110 -66 -136q66 -42 66 -144v-59q0 -168 -178 -168h-37h-38t-34 0.5t-36.5 1t-32 2t-34.5 3.5l-30 5t-33 7t-29 9v47h298q23 0 39.5 3t33.5 12t26 28.5t9 49.5v59q0 102 -102 106l-242 7
v58l242 10q104 5 104 99v69q0 45 -30.5 68t-73.5 23h-310z" />
    <glyph glyph-name="four.tnum" horiz-adv-x="620" 
d="M28 224l322 508h88l-294 -467h284v207l36 75h38v-282h90v-59l-90 -19v-185h-74v185h-366z" />
    <glyph glyph-name="five.tnum" horiz-adv-x="620" 
d="M76 20v55h304q47 0 68.5 27t21.5 66v110q0 18 -2 29.5t-9.5 29t-27.5 26.5t-51 9h-154q-33 0 -57.5 -19t-24.5 -56h-66l22 435h422v-74h-354l-12 -242q18 22 72 29q24 3 53.5 3.5t60.5 -1t38 -1.5q85 0 124.5 -44.5t39.5 -121.5v-114q0 -48 -16.5 -83.5t-43 -53
t-52.5 -25.5t-52 -8q-101 0 -155 4t-149 20z" />
    <glyph glyph-name="six.tnum" horiz-adv-x="620" 
d="M61 384q0 183 50.5 268.5t121.5 85.5q157 0 302 -19v-55h-289q-32 0 -55 -27t-34 -71t-16 -82t-6 -77q179 21 263 21q93 0 127 -40t34 -109v-131q0 -149 -161 -149h-149q-44 0 -76 16.5t-58.5 57.5t-40 118.5t-13.5 192.5zM135 354q0 -31 1 -54.5t4 -59.5t11 -62.5
t19.5 -52t32 -39t46.5 -13.5h149q44 0 66 16t22 65v125q0 75 -88 75h-263z" />
    <glyph glyph-name="seven.tnum" horiz-adv-x="620" 
d="M67 658v74h459l27 -48l-265 -684h-88l258 658h-391z" />
    <glyph glyph-name="eight.tnum" horiz-adv-x="620" 
d="M68 154v98q0 34 14 57.5t30 32.5t41 17q-44 15 -64.5 54.5t-20.5 85.5v65q0 95 46 134t130 39h146q82 0 122 -41t40 -132v-65q1 -12 -1 -26t-8.5 -34t-23.5 -35.5t-42 -20.5q37 -7 56.5 -49t18.5 -82v-98q0 -46 -16 -78.5t-42.5 -48t-51.5 -21.5t-53 -6h-145
q-49 0 -84 12.5t-52.5 29t-27 41t-11 39t-1.5 32.5zM142 151q0 -77 102 -77h145q36 0 62.5 20t26.5 57v105q0 40 -25 60.5t-61 20.5h-159q-39 0 -65 -19t-26 -62v-105zM142 494q0 -45 28.5 -64.5t62.5 -19.5h159q86 0 86 84v68q0 54 -21.5 77.5t-66.5 23.5h-146
q-54 0 -78 -19t-24 -82v-68z" />
    <glyph glyph-name="nine.tnum" horiz-adv-x="620" 
d="M61 458v131q0 149 161 149h149q44 0 76 -16.5t58.5 -57.5t40 -118.5t13.5 -192.5q0 -183 -50.5 -268.5t-121.5 -85.5q-195 0 -302 19v55h289q32 0 55 27t34 71t16 82t6 77q-178 -21 -263 -21q-93 0 -127 40t-34 109zM134 458q0 -75 88 -75h263q0 31 -1 54.5t-4 59.5
t-11 62.5t-19.5 52t-32 39t-46.5 13.5h-149q-44 0 -66 -16t-22 -65v-125z" />
    <glyph glyph-name="zero.tosf" horiz-adv-x="620" 
d="M58 162v307q0 78 48.5 120t123.5 42h164q87 0 127.5 -44.5t40.5 -117.5v-307q0 -162 -168 -162h-164q-75 0 -123.5 39t-48.5 123zM132 162q0 -46 28.5 -67t69.5 -21h164q47 0 70.5 23t23.5 65v307q0 88 -94 88h-164q-50 0 -74 -24.5t-24 -63.5v-307z" />
    <glyph glyph-name="one.tosf" horiz-adv-x="620" 
d="M143 494v53l168 85h74v-558h154v-74h-390v74h162v474z" />
    <glyph glyph-name="two.tosf" horiz-adv-x="620" 
d="M57 564v54q178 25 303 20q102 0 152.5 -49.5t50.5 -137.5q0 -48 -31 -102t-74 -96t-95.5 -82.5t-88 -62.5t-58.5 -34h342v-74h-495v68q47 26 77.5 44t88 54t96 67t80 69.5t62.5 77t21 73.5q0 115 -129 111h-302z" />
    <glyph glyph-name="three.tosf" horiz-adv-x="620" 
d="M66 564v46q41 15 95.5 21.5t107.5 7t115 -0.5q80 -1 125 -47.5t45 -117.5v-69q0 -110 -66 -136q66 -42 66 -144v-59q0 -168 -178 -168h-37h-38t-34 0.5t-36.5 1t-32 2t-34.5 3.5l-30 5t-33 7t-29 9v47h298q23 0 39.5 3t33.5 12t26 28.5t9 49.5v59q0 102 -102 106l-242 7
v58l242 10q104 5 104 99v69q0 45 -30.5 68t-73.5 23h-310z" />
    <glyph glyph-name="four.tosf" horiz-adv-x="620" 
d="M28 124l322 508h88l-294 -467h284v207l36 75h38v-282h90v-59l-90 -19v-185h-74v185h-366z" />
    <glyph glyph-name="five.tosf" horiz-adv-x="620" 
d="M76 -25h304q47 0 68.5 27t21.5 66v110q0 18 -2 29.5t-9.5 29t-27.5 26.5t-51 9h-154q-33 0 -57.5 -19t-24.5 -56h-66l22 435h422v-74h-354l-12 -242q19 23 74 30q24 3 53 3t59 -1.5t38 -1.5q85 0 124.5 -44.5t39.5 -121.5v-114q0 -48 -16.5 -83.5t-43 -53t-52.5 -25.5
t-52 -8q-101 0 -155 4t-149 20v55z" />
    <glyph glyph-name="six.tosf" horiz-adv-x="620" 
d="M61 384q0 183 50.5 268.5t121.5 85.5q157 0 302 -19v-55h-289q-32 0 -55 -27t-34 -71t-16 -82t-6 -77q179 21 263 21q93 0 127 -40t34 -109v-131q0 -149 -161 -149h-149q-44 0 -76 16.5t-58.5 57.5t-40 118.5t-13.5 192.5zM135 354q0 -31 1 -54.5t4 -59.5t11 -62.5
t19.5 -52t32 -39t46.5 -13.5h149q44 0 66 16t22 65v125q0 75 -88 75h-263z" />
    <glyph glyph-name="seven.tosf" horiz-adv-x="620" 
d="M67 558v74h459l27 -48l-265 -684h-88l258 658h-391z" />
    <glyph glyph-name="eight.tosf" horiz-adv-x="620" 
d="M68 154v98q0 34 14 57.5t30 32.5t41 17q-44 15 -64.5 54.5t-20.5 85.5v65q0 95 46 134t130 39h146q82 0 122 -41t40 -132v-65q1 -12 -1 -26t-8.5 -34t-23.5 -35.5t-42 -20.5q37 -7 56.5 -49t18.5 -82v-98q0 -46 -16 -78.5t-42.5 -48t-51.5 -21.5t-53 -6h-145
q-49 0 -84 12.5t-52.5 29t-27 41t-11 39t-1.5 32.5zM142 151q0 -77 102 -77h145q36 0 62.5 20t26.5 57v105q0 40 -25 60.5t-61 20.5h-159q-39 0 -65 -19t-26 -62v-105zM142 494q0 -45 28.5 -64.5t62.5 -19.5h159q86 0 86 84v68q0 54 -21.5 77.5t-66.5 23.5h-146
q-54 0 -78 -19t-24 -82v-68z" />
    <glyph glyph-name="nine.tosf" horiz-adv-x="620" 
d="M61 352v131q0 149 161 149h149q44 0 76 -16.5t58.5 -57.5t40 -118.5t13.5 -192.5q0 -183 -50.5 -268.5t-121.5 -85.5q-200 0 -302 19v55h289q32 0 55 27t34 71t16 82t6 77q-179 -21 -263 -21q-93 0 -127 40t-34 109zM134 352q0 -75 88 -75h263q0 31 -1 54.5t-4 59.5
t-11 62.5t-19.5 52t-32 39t-46.5 13.5h-149q-44 0 -66 -16t-22 -65v-125z" />
    <glyph glyph-name="gbreve.salt" horiz-adv-x="555" 
d="M179 707h47q0 -28 20.5 -47.5t46.5 -19.5q29 0 49 18t20 49h47q0 -53 -35.5 -83.5t-80.5 -30.5q-44 0 -79 31.5t-35 82.5zM50 268q0 129 46 199t138 70q47 0 99.5 -4.5t101 -11t60.5 -7.5v-618q0 -86 -49.5 -130t-109.5 -38l-258 24v49h258q85 0 85 95v133
q-96 -39 -187 -39q-56 0 -93 20.5t-56.5 60t-27 86.5t-7.5 111zM124 268q0 -102 14 -140q24 -64 96 -64q56 0 90.5 4.5t96.5 20.5v374h-187q-110 0 -110 -195z" />
    <glyph glyph-name="gdotaccent.salt" horiz-adv-x="555" 
d="M245 618v54q0 25 24 25h50q23 0 23 -25v-54q0 -23 -23 -23h-50q-24 0 -24 23zM50 268q0 129 46 199t138 70q47 0 99.5 -4.5t101 -11t60.5 -7.5v-618q0 -86 -49.5 -130t-109.5 -38l-258 24v49h258q85 0 85 95v133q-96 -39 -187 -39q-56 0 -93 20.5t-56.5 60t-27 86.5
t-7.5 111zM124 268q0 -102 14 -140q24 -64 96 -64q56 0 90.5 4.5t96.5 20.5v374h-187q-110 0 -110 -195z" />
    <glyph glyph-name="gcircumflex.salt" horiz-adv-x="555" 
d="M154 593l117 130h71l104 -130h-71l-71 71l-78 -71h-72zM50 268q0 129 46 199t138 70q47 0 99.5 -4.5t101 -11t60.5 -7.5v-618q0 -86 -49.5 -130t-109.5 -38l-258 24v49h258q85 0 85 95v133q-96 -39 -187 -39q-56 0 -93 20.5t-56.5 60t-27 86.5t-7.5 111zM124 268
q0 -102 14 -140q24 -64 96 -64q56 0 90.5 4.5t96.5 20.5v374h-187q-110 0 -110 -195z" />
    <glyph glyph-name="c_t" horiz-adv-x="858" 
d="M40 261q0 84 12.5 140t37.5 83.5t54 38t71 10.5h394l18 147h56v-148h155v-76h-155v-266q0 -70 11 -88.5t48 -26.5q77 -18 78 -18v-56h-78q-72 0 -102.5 42.5t-30.5 146.5v266h-394q-27 0 -42 -5t-30.5 -23.5t-22 -60t-6.5 -110.5q0 -111 22.5 -150.5t78.5 -39.5
q41 0 99.5 2.5t97.5 5.5l38 3v-56q-96 -27 -235 -29q-41 0 -69.5 9.5t-54.5 36.5t-38.5 82.5t-12.5 139.5z" />
    <glyph glyph-name="t_t" horiz-adv-x="738" 
d="M20 458v56l99 18l18 148h56v-148h296l18 148h56v-148h155v-74h-155v-268q1 -70 11.5 -88t47.5 -27q77 -18 78 -18v-56h-78q-72 0 -102.5 42.5t-30.5 146.5v268h-296v-268q1 -70 11.5 -88t47.5 -27q77 -18 78 -18v-56h-78q-72 0 -102.5 42.5t-30.5 146.5v268h-99z" />
    <glyph glyph-name="f_t" horiz-adv-x="766" 
d="M20 457v57l99 17v99q0 22 1 37.5t8 40t19 40t36.5 27t58.5 11.5q62 0 140 -24v-49l-123 1q-23 0 -37 -5.5t-20 -19t-7.5 -25.5t-1.5 -34v-98h324l18 148h56v-148h155v-74h-155v-268q1 -70 11.5 -88t47.5 -27q77 -18 78 -18v-56h-78q-72 0 -102.5 42.5t-30.5 146.5v268
h-326v-458h-74v457h-97z" />
    <glyph glyph-name="t_y" horiz-adv-x="948" 
d="M20 458v56l99 18l18 148h56v-148h155q83 0 111.5 -21.5t52.5 -88.5l114 -306q3 -8 7 -14t8.5 -10t9.5 -7t10 -5t9.5 -2.5t8.5 -1t7 -0.5h4l2 1l152 454h84l-233 -699l-77 -102h-50l102 270q-84 0 -124 110l-107 288q-11 31 -30.5 45.5t-60.5 14.5h-155v-268
q0 -49 6.5 -72t16.5 -30t36 -13q77 -18 78 -18v-56h-78q-72 0 -102.5 42.5t-30.5 146.5v268h-99z" />
    <glyph glyph-name="f_y" horiz-adv-x="973" 
d="M20 457v57l99 17v99q0 22 1 37.5t8 40t19 40t36.5 27t58.5 11.5q17 0 36.5 -3.5t32.5 -7.5t36.5 -12t34.5 -11v-49l-123 11q-23 2 -37 -3t-20 -19.5t-7.5 -26.5t-1.5 -35v-99h171q83 0 112.5 -21.5t55.5 -87.5l119 -305q3 -8 7 -14t8.5 -10t9.5 -7t10 -5t9.5 -2.5t8.5 -1
t7 -0.5t5 1h1l151 454h84l-233 -699l-77 -102h-50l102 270q-18 0 -36 5.5t-45 32t-43 72.5l-111 287q-12 31 -33 45t-62 14h-173v-457h-74v457h-97z" />
    <glyph glyph-name="gcommaaccent.salt" horiz-adv-x="555" 
d="M244 617v81q0 24 9 40t21.5 21.5t25 8t21.5 1.5l9 -1v-29q-28 1 -28 -28v-23h10q22 0 22 -22v-49q0 -24 -22 -24h-46q-22 0 -22 24zM50 268q0 129 46 199t138 70q47 0 99.5 -4.5t101 -11t60.5 -7.5v-618q0 -44 -15 -79t-38.5 -54.5t-51 -28.5t-54.5 -6l-258 24v49h258
q41 0 63 24t22 71v133q-45 -18 -97.5 -28.5t-89.5 -10.5q-45 0 -78 14t-53 38t-32 60.5t-16.5 75.5t-4.5 90zM124 268v-9v-38t2.5 -37t6 -38t11.5 -31.5t19.5 -27t29.5 -16.5t41 -7q56 0 90.5 4.5t96.5 20.5v374h-187q-26 0 -45.5 -9.5t-31 -27.5t-18.5 -36.5t-10 -43.5
t-4 -41t-1 -37z" />
    <glyph glyph-name="exclam.smcp" horiz-adv-x="269" 
d="M82 23v57q0 25 24 25h55q23 0 23 -25v-57q0 -23 -23 -23h-55q-24 0 -24 23zM88 570h89l-7 -403h-75z" />
    <glyph glyph-name="quotedbl.smcp" horiz-adv-x="379" 
d="M85 570v67h74v-67l-10 -134h-53zM220 570v67h74v-67l-10 -134h-53z" />
    <glyph glyph-name="numbersign.smcp" horiz-adv-x="565" 
d="M20 174l8 51h123l21 118h-125l7 51h126l30 176h52l-30 -176h124l29 176h52l-29 -176h138l-7 -51h-139l-20 -118h140l-8 -51h-140l-30 -175h-52l29 175h-123l-30 -175h-52l29 175h-123zM204 225h124l19 118h-123z" />
    <glyph glyph-name="dollar.smcp" horiz-adv-x="502" 
d="M50 388v31q0 39 10.5 67.5t26.5 45t40 26.5t46 13.5t49 3.5v65h64v-67q27 -2 81 -8.5t62 -7.5v-57h-207q-48 0 -73 -15.5t-25 -65.5v-31q0 -68 88 -68h82q74 0 114.5 -44t40.5 -99v-38q0 -73 -49 -111t-114 -35v-62h-64v66q-27 3 -87.5 8t-66.5 6v56q10 0 94.5 0.5
t124.5 0.5q20 0 37 4t33.5 21t16.5 46v38q0 32 -21.5 52t-58.5 20h-82q-84 0 -123 38.5t-39 100.5z" />
    <glyph glyph-name="percent.smcp" horiz-adv-x="813" 
d="M29 383v62q0 66 28 95.5t101 29.5h45q71 0 99 -29.5t28 -95.5v-62q0 -66 -28 -95.5t-101 -29.5h-45q-71 0 -99 29.5t-28 95.5zM94 383q0 -36 13 -48t49 -12h45q41 0 52.5 12t11.5 48v62q0 36 -13 48t-49 12h-45q-42 0 -53 -12t-11 -48v-62zM198 0l346 570h71l-346 -570
h-71zM483 124v62q0 66 28 95.5t101 29.5h45q71 0 99 -29.5t28 -95.5v-62q0 -66 -28 -95.5t-101 -29.5h-45q-71 0 -99 29.5t-28 95.5zM548 124q0 -36 13 -48t49 -12h45q41 0 52.5 12t11.5 48v62q0 36 -13 48t-49 12h-45q-42 0 -53 -12t-11 -48v-62z" />
    <glyph glyph-name="ampersand.smcp" horiz-adv-x="567" 
d="M69 62q-43 59 -35 117.5t66 105.5l73 60l-44 54q-34 44 -31.5 80.5t25.5 60.5t55 29q103 15 238 -15v-53h-188q-89 0 -28 -74l180 -217l83 74l24 -26l-39 -83l-23 -23l118 -152h-88l-84 104l-71 -70q-32 -29 -73.5 -38t-84.5 7.5t-73 58.5zM130 104q13 -16 32 -27
t46 -9.5t49 24.5l69 68l-104 127l-73 -58q-28 -22 -35.5 -48.5t-1.5 -44t18 -32.5z" />
    <glyph glyph-name="quotesingle.smcp" horiz-adv-x="244" 
d="M85 570v67h74v-67l-10 -134h-53z" />
    <glyph glyph-name="asterisk.smcp" horiz-adv-x="439" 
d="M50 408v40l139 29l4 -74zM117 256l25 135l72 -17l-60 -130zM176 559l39 16l75 -118l-68 -30zM208 318l41 63l110 -92l-21 -32zM251 414l119 75l20 -35l-91 -97z" />
    <glyph glyph-name="zero.smcp" horiz-adv-x="583" 
d="M70 162v246q0 80 48 121t124 41h104q44 0 76.5 -12.5t49 -30t26.5 -42t12.5 -42t2.5 -35.5v-246q0 -162 -167 -162h-104q-75 0 -123.5 39t-48.5 123zM144 162q0 -46 28.5 -67t69.5 -21h104q93 0 93 88v246q0 88 -93 88h-104q-98 0 -98 -88v-246z" />
    <glyph glyph-name="one.smcp" horiz-adv-x="334" 
d="M40 434v53l140 85h74v-572h-74v488z" />
    <glyph glyph-name="two.smcp" horiz-adv-x="511" 
d="M40 496v51q32 4 74.5 11.5t72.5 10t81 2.5q193 0 193 -187q0 -47 -23 -93t-53.5 -78.5t-72.5 -63.5t-69 -46.5t-54 -28.5h267v-74h-410v68q24 19 73.5 48.5t90.5 56t82.5 59.5t65.5 72.5t24 81.5q0 57 -29 85t-96 26z" />
    <glyph glyph-name="three.smcp" horiz-adv-x="511" 
d="M30 499v52q76 26 273 22q61 -1 97 -43.5t36 -100.5v-34q0 -42 -14 -72t-37 -39q51 -32 51 -117v-26q0 -67 -34.5 -106.5t-103.5 -39.5h-37.5h-42.5t-37.5 0.5t-42.5 2t-35 4t-38 6t-30 8.5v53h238q39 0 63 14.5t24 57.5v26q0 77 -82 79l-195 5v65l195 4q43 1 63.5 17
t20.5 58v34q0 70 -84 70h-248z" />
    <glyph glyph-name="four.smcp" horiz-adv-x="543" 
d="M20 175l228 395h88l-201 -354h224v165l37 75h37v-240h90v-59l-90 -19v-136h-74v136h-305z" />
    <glyph glyph-name="five.smcp" horiz-adv-x="542" 
d="M76 23v55h249q48 0 66 19.5t18 56.5v59q0 17 -1.5 25t-8 21t-25.5 19t-49 6h-103q-32 0 -53.5 -18.5t-21.5 -56.5h-70l17 361h363v-74h-290l-8 -173q29 34 64 34h102q158 0 158 -142v-63q0 -79 -44 -115.5t-114 -37.5q-157 -2 -249 24z" />
    <glyph glyph-name="six.smcp" horiz-adv-x="549" 
d="M65 300q0 78 14 135t38 86t49 42t53 13q112 1 252 -15v-59h-252q-24 0 -41 -19t-25 -49t-11 -55.5t-3 -48.5q99 12 215 12q135 0 135 -122v-94q0 -65 -37.5 -96t-97.5 -31h-129q-35 0 -61.5 12t-50 43t-36 93t-12.5 153zM139 268q0 -195 86 -195h129q30 0 45.5 11.5
t15.5 45.5v90q0 28 -14.5 38t-46.5 10h-215z" />
    <glyph glyph-name="seven.smcp" horiz-adv-x="476" 
d="M30 496v74h389l27 -48l-202 -522h-83l193 496h-324z" />
    <glyph glyph-name="eight.smcp" horiz-adv-x="577" 
d="M75 130v70q0 21 5 35t17.5 22.5t20 12t24.5 8.5q-34 12 -50.5 44t-16.5 68v43q0 77 33 109.5t103 32.5h166q126 0 126 -142v-43q0 -81 -58 -93q29 -5 43.5 -35.5t14.5 -61.5v-70q0 -69 -38 -99.5t-89 -30.5h-165q-38 0 -65.5 10t-40.5 23t-20.5 34t-8.5 33t-1 30z
M149 128q0 -29 15 -41t57 -12h145q63 0 63 53v65q0 59 -61 59h-156q-30 0 -46.5 -12.5t-16.5 -46.5v-65zM149 386q0 -59 63 -59h156q27 0 41.5 9.5t17.5 21t3 28.5v45q0 42 -13.5 55.5t-49.5 13.5h-146q-24 0 -33.5 -1t-20.5 -7t-14.5 -20.5t-3.5 -40.5v-45z" />
    <glyph glyph-name="nine.smcp" horiz-adv-x="549" 
d="M60 355v94q0 65 37.5 96t97.5 31h129q35 0 61.5 -12.5t50 -43.5t36 -92.5t12.5 -152.5q0 -78 -14 -135t-38 -86t-49 -42t-53 -13q-156 -2 -252 15v59h252q24 0 41 19t25 49t11 55.5t3 48.5q-99 -12 -215 -12q-135 0 -135 122zM134 355q0 -28 14.5 -38t46.5 -10h215
q0 195 -86 195h-129q-30 0 -45.5 -11.5t-15.5 -45.5v-90z" />
    <glyph glyph-name="question.smcp" horiz-adv-x="461" 
d="M20 499v58q149 20 227 16q83 0 128.5 -44.5t45.5 -114.5v-45q0 -74 -57.5 -112t-135.5 -26v-64h-76v130q71 -2 106 0q34 2 61.5 20t27.5 52v45q0 85 -100 85h-227zM139 23v57q0 25 24 25h53q25 0 25 -25v-57q0 -23 -25 -23h-53q-24 0 -24 23z" />
    <glyph glyph-name="at.smcp" horiz-adv-x="844" 
d="M65 42v348q0 17 1.5 31.5t10.5 41t25 44.5t50 32.5t81 14.5h215q63 0 108 -32.5t45 -107.5v-372h-56l-14 64l-10 -8q-10 -7 -27.5 -17.5t-39 -21.5t-49 -18.5t-52.5 -7.5q-55 -1 -92 32.5t-36 84.5v53q0 61 34 97t95 36h175q1 76 0 76q0 40 -20 54t-64 14h-212
q-44 0 -69 -18t-25 -72v-348q0 -103 94 -103h349q59 0 81 24.5t22 78.5v512q0 56 -28 85t-75 29h-404v47q135 28 288 27h116q82 -2 129.5 -49.5t47.5 -138.5v-512q0 -178 -177 -178h-349q-78 0 -123 46t-45 132zM299 156q0 -17 18.5 -33.5t42.5 -15.5q27 0 62 10t51 17.5
t56 26.5v123l-170 -16q-29 -3 -45 -21.5t-15 -45.5v-45z" />
    <glyph glyph-name="a.smcp" horiz-adv-x="591" 
d="M35 0l233 570h74l214 -570h-81l-60 152h-235l-64 -152h-81zM210 226h180l-86 238z" />
    <glyph glyph-name="b.smcp" horiz-adv-x="546" 
d="M80 0v571h264q44 0 76 -14t48 -38t23 -48.5t7 -52.5q0 -52 -15 -81t-47 -46q27 -12 46 -44.5t19 -84.5q0 -162 -157 -162h-264zM154 75h190q22 0 38 4.5t30.5 25t14.5 57.5q0 96 -83 96q-154 -2 -190 0v-183zM154 332h190q47 0 63.5 19t16.5 67q0 79 -80 79h-190v-165z
" />
    <glyph glyph-name="c.smcp" horiz-adv-x="520" 
d="M55 295q0 60 8.5 106.5t29.5 88.5t63 65t103 23q35 0 112.5 -8t113.5 -17v-59q-12 2 -95.5 6t-130.5 4q-72 0 -101 -53t-29 -156q0 -38 2.5 -67t10.5 -60t21.5 -51t38 -33t57.5 -14l226 10v-57q-142 -27 -226 -27q-52 0 -90.5 18.5t-60 46.5t-34 70t-16 79.5t-3.5 84.5z
" />
    <glyph glyph-name="d.smcp" horiz-adv-x="601" 
d="M80 0v572h247q63 -1 108 -28t68 -72t33 -91.5t10 -97.5q0 -58 -9.5 -104.5t-23 -75.5t-35.5 -50t-39.5 -31t-42.5 -15.5t-37.5 -6t-31.5 -0.5h-247zM154 74h173q145 0 145 209q0 109 -39.5 162t-105.5 53h-173v-424z" />
    <glyph glyph-name="e.smcp" horiz-adv-x="516" 
d="M80 83v398q0 43 27.5 66.5t76.5 23.5l287 -12v-61h-285q-21 0 -26.5 -6.5t-5.5 -26.5v-142l286 -8v-61l-286 -7v-143q0 -20 9 -26t27 -6h281v-60l-307 -14q-38 0 -61 23t-23 62z" />
    <glyph glyph-name="f.smcp" horiz-adv-x="516" 
d="M80 0v481q0 43 27.5 66.5t76.5 23.5l287 -12v-61h-285q-14 0 -21 -4.5t-8.5 -9.5t-2.5 -19v-145l286 -8v-61l-286 -7v-244h-74z" />
    <glyph glyph-name="g.smcp" horiz-adv-x="578" 
d="M55 286q0 149 45.5 221t167.5 72q33 0 115.5 -8.5t125.5 -16.5v-62q-134 13 -241 13q-78 0 -108.5 -44.5t-30.5 -172.5q0 -34 5.5 -68t19.5 -71t43.5 -60t70.5 -23q54 0 106.5 17.5t74.5 34.5v119h-178v49q91 25 185 25q31 0 67 -3v-308h-56l-15 44q-80 -51 -184 -51
q-42 0 -76.5 14t-56.5 34.5t-38 51t-23.5 56.5t-12 57t-5.5 47.5t-1 32.5z" />
    <glyph glyph-name="h.smcp" horiz-adv-x="599" 
d="M80 -1v571h74v-258h311v258h74v-571h-74v239h-311v-239h-74z" />
    <glyph glyph-name="i.smcp" horiz-adv-x="214" 
d="M80 0v570h74v-570h-74z" />
    <glyph glyph-name="j.smcp" horiz-adv-x="333" 
d="M35 21l4 54q49 -8 84 -8t55 23.5t21 74.5v405h74v-405q0 -111 -57 -146q-48 -26 -94.5 -24t-86.5 26z" />
    <glyph glyph-name="k.smcp" horiz-adv-x="558" 
d="M80 -1v571h74v-254h73l203 254h93l-231 -290l231 -281h-93l-205 243h-71v-243h-74z" />
    <glyph glyph-name="l.smcp" horiz-adv-x="497" 
d="M80 86v484h74v-469q-1 -18 8 -22.5t30 -4.5h270v-74h-296q-40 0 -63 22.5t-23 63.5z" />
    <glyph glyph-name="m.smcp" horiz-adv-x="734" 
d="M55 0l55 571h91l168 -447l167 447h89l54 -571h-72l-41 441l-164 -441h-64l-166 442l-47 -442h-70z" />
    <glyph glyph-name="n.smcp" horiz-adv-x="603" 
d="M80 0v571h71l319 -434v434h73v-571h-70l-319 438v-438h-74z" />
    <glyph glyph-name="o.smcp" horiz-adv-x="609" 
d="M55 280q0 90 15 148.5t48 90.5t76.5 44t109.5 12q54 0 89.5 -5.5t68.5 -22.5t51.5 -48t29.5 -83.5t11 -128.5q0 -91 -14.5 -149t-48 -89t-77 -42.5t-110.5 -11.5q-53 0 -88.5 5.5t-68 23t-51.5 48.5t-30 82.5t-11 125.5zM129 285q0 -73 9.5 -117t34 -65.5t53 -27.5
t78.5 -6q26 0 39.5 0.5t36 4.5t34 12t26.5 24t22 39t12.5 58t5.5 80q0 36 -2.5 64t-6 49.5t-12.5 37.5t-15 26.5t-20.5 18t-23.5 11t-29 5t-31 2t-36 0.5h-6q-23 0 -34.5 -0.5t-31 -3t-29.5 -8t-24 -15.5t-21.5 -26t-15 -38t-10.5 -53.5t-3 -71.5z" />
    <glyph glyph-name="p.smcp" horiz-adv-x="528" 
d="M60 0v569h271q59 0 105.5 -41t46.5 -121q0 -50 -10.5 -86t-24.5 -54.5t-37 -29t-40 -12.5t-40 -2l-196 13v-236h-75zM135 297h196q17 0 27.5 2.5t24 11.5t20 31t6.5 57q2 47 -22.5 71.5t-55.5 24.5h-196v-198z" />
    <glyph glyph-name="q.smcp" horiz-adv-x="609" 
d="M55 280q0 90 15 148.5t48 90.5t76.5 44t109.5 12q54 0 89.5 -5.5t68.5 -22.5t51.5 -48t29.5 -83.5t11 -128.5q0 -91 -14.5 -149t-48 -89t-77 -42.5t-110.5 -11.5q-53 0 -88.5 5.5t-68 23t-51.5 48.5t-30 82.5t-11 125.5zM129 285q0 -73 9.5 -117t34 -65.5t53 -27.5
t78.5 -6q26 0 39.5 0.5t36 4.5t34 12t26.5 24t22 39t12.5 58t5.5 80q0 36 -2.5 64t-6 49.5t-12.5 37.5t-15 26.5t-20.5 18t-23.5 11t-29 5t-31 2t-36 0.5h-6q-23 0 -34.5 -0.5t-31 -3t-29.5 -8t-24 -15.5t-21.5 -26t-15 -38t-10.5 -53.5t-3 -71.5zM280 -33h52
q44 -31 85.5 -34.5t82.5 14.5v-80q-40 -11 -85.5 -8.5t-86 32t-48.5 76.5z" />
    <glyph glyph-name="r.smcp" 
d="M60 0v571h270q26 0 50 -7t48.5 -23t39.5 -50t15 -81q0 -73 -26 -122.5t-84 -54.5l136 -233h-84l-128 224q-160 11 -163 16v-240h-74zM134 298h196q79 0 79 111q0 26 -8 44.5t-17 26.5t-23.5 12.5t-19 4.5h-11.5h-196v-199z" />
    <glyph glyph-name="s.smcp" horiz-adv-x="548" 
d="M55 374v59q0 140 138 140q40 0 131.5 -6.5t141.5 -13.5v-57q-175 4 -273 4q-64 0 -64 -67v-59q0 -22 4 -34.5t15.5 -17t18 -5t26.5 -0.5h170q63 0 96.5 -35.5t33.5 -93.5v-70q0 -128 -130 -128q-49 0 -155 7t-131 15v55q190 -3 286 -3q18 0 32 13.5t19 26.5l5 14v70
q0 28 -12.5 41.5t-43.5 13.5h-170q-72 0 -105 30t-33 101z" />
    <glyph glyph-name="t.smcp" horiz-adv-x="516" 
d="M35 496v74h446v-74h-186v-496h-74v496h-186z" />
    <glyph glyph-name="u.smcp" horiz-adv-x="613" 
d="M80 260v310h75v-310q-1 -116 35 -153.5t129 -37.5q82 0 120.5 38.5t38.5 152.5v310h75v-310q0 -68 -13 -117t-34 -77t-53 -44.5t-62.5 -21.5t-71.5 -5q-38 0 -65.5 3t-57 12.5t-49 27.5t-36 46.5t-24 73t-7.5 102.5z" />
    <glyph glyph-name="v.smcp" horiz-adv-x="596" 
d="M35 570h81l185 -458l179 458h81l-223 -570h-74z" />
    <glyph glyph-name="w.smcp" horiz-adv-x="851" 
d="M35 570h81l172 -461l163 461h80l-67 -194l110 -267l167 461h75l-206 -570h-74l-110 276l-97 -276h-78z" />
    <glyph glyph-name="x.smcp" horiz-adv-x="563" 
d="M35 0l200 286l-198 284h95l150 -217l151 217h96l-201 -284l198 -286h-92l-153 219l-154 -219h-92z" />
    <glyph glyph-name="y.smcp" horiz-adv-x="566" 
d="M35 570h81l169 -302l165 302h81l-210 -380v-191h-74v191z" />
    <glyph glyph-name="z.smcp" horiz-adv-x="496" 
d="M35 0v74l328 422h-328v74h426v-74l-324 -422h324v-74h-426z" />
    <glyph glyph-name="grave.smcp" horiz-adv-x="242" 
d="M20 664h95l107 -133h-69z" />
    <glyph glyph-name="aogonek.smcp" horiz-adv-x="604" 
d="M499 0h39q-41 -33 -54 -60.5t2.5 -43.5t54.5 -17v-60q-33 -5 -63 6t-45 32.5t-17.5 46.5t19 51.5t64.5 44.5zM35 0l233 570h74l214 -570h-81l-60 152h-235l-64 -152h-81zM210 226h180l-86 238z" />
    <glyph glyph-name="rcommaaccent.smcp" 
d="M226 -142v48q0 24 22 24h46q22 0 22 -24v-81q0 -24 -9 -40t-21.5 -21.5t-25 -8t-21.5 -0.5l-9 1v29q28 -1 28 27v23h-10q-22 0 -22 23zM60 0v571h270q26 0 50 -7t48.5 -23t39.5 -50t15 -81q0 -73 -26 -122.5t-84 -54.5l136 -233h-84l-128 224q-160 11 -163 16v-240h-74z
M134 298h196q79 0 79 111q0 26 -8 44.5t-17 26.5t-23.5 12.5t-19 4.5h-11.5h-196v-199z" />
    <glyph glyph-name="itilde.smcp" horiz-adv-x="214" 
d="M-62 671q27 22 40.5 32.5t36 21t41.5 10.5q28 -2 61.5 -18.5t45.5 -16.5q22 -1 91 36l22 -42q-3 -2 -24.5 -19.5t-31 -23.5t-27 -13.5t-32.5 -6.5q-30 2 -60 18t-47 16q-20 0 -34.5 -5.5t-31 -15t-29.5 -14.5zM80 0v570h74v-570h-74z" />
    <glyph glyph-name="lcommaaccent.smcp" horiz-adv-x="497" 
d="M240 -142v48q0 24 23 24h46q21 0 21 -24v-81q0 -24 -8.5 -40t-21 -21.5t-25 -8t-21.5 -0.5l-9 1v29q28 -1 28 27v23h-10q-23 0 -23 23zM80 86v484h74v-469q-1 -18 8 -22.5t30 -4.5h270v-74h-296q-40 0 -63 22.5t-23 63.5z" />
    <glyph glyph-name="dieresis.smcp" horiz-adv-x="456" 
d="M50 581q0 21 15 36t36 15t35.5 -15t14.5 -36t-14.5 -36t-35.5 -15t-36 15t-15 36zM305 581q0 21 15 36t36 15t35.5 -15t14.5 -36t-14.5 -36t-35.5 -15t-36 15t-15 36z" />
    <glyph glyph-name="scaron.smcp" horiz-adv-x="548" 
d="M125 763h72l80 -71l69 71h71l-104 -130h-71zM55 374v59q0 140 138 140q40 0 131.5 -6.5t141.5 -13.5v-57q-175 4 -273 4q-64 0 -64 -67v-59q0 -22 4 -34.5t15.5 -17t18 -5t26.5 -0.5h170q63 0 96.5 -35.5t33.5 -93.5v-70q0 -128 -130 -128q-49 0 -155 7t-131 15v55
q190 -3 286 -3q18 0 32 13.5t19 26.5l5 14v70q0 28 -12.5 41.5t-43.5 13.5h-170q-72 0 -105 30t-33 101z" />
    <glyph glyph-name="emacron.smcp" horiz-adv-x="516" 
d="M143 632v63h292v-63h-292zM80 83v398q0 43 27.5 66.5t76.5 23.5l287 -12v-61h-285q-21 0 -26.5 -6.5t-5.5 -26.5v-142l286 -8v-61l-286 -7v-143q0 -20 9 -26t27 -6h281v-60l-307 -14q-38 0 -61 23t-23 62z" />
    <glyph glyph-name="gcommaaccent.smcp" horiz-adv-x="578" 
d="M55 286q0 147 50 220t177 73q32 0 107.5 -8.5t119.5 -16.5v-61l-222 13q-58 0 -90 -16.5t-49.5 -64.5t-17.5 -137q0 -106 33 -161t118 -59q117 -5 168 34v134h-193v50q91 25 200 25q31 0 67 -3v-308q-5 -1 -27 0.5t-29 -0.5l-15 34q-64 -41 -177 -41q-220 0 -220 293z
M258 -142v48q0 24 23 24h46q21 0 21 -24v-81q0 -24 -8.5 -40t-21 -21.5t-25 -8t-21.5 -0.5l-9 1v29q28 -1 28 27v23h-10q-23 0 -23 23z" />
    <glyph glyph-name="tbar.smcp" horiz-adv-x="486" 
d="M20 496v74h446v-74h-186v-144h97v-54h-97v-298h-74v298h-100v54h100v144h-186z" />
    <glyph glyph-name="zcaron.smcp" horiz-adv-x="496" 
d="M102 760h72l80 -71l69 71h71l-104 -130h-71zM35 0v74l328 422h-328v74h426v-74l-324 -422h324v-74h-426z" />
    <glyph glyph-name="macron.smcp" horiz-adv-x="392" 
d="M50 530v63h292v-63h-292z" />
    <glyph glyph-name="degree.smcp" horiz-adv-x="302" 
d="M50 467q0 43 29.5 73t71.5 30t71.5 -30t29.5 -73t-29.5 -73t-71.5 -30t-71.5 30t-29.5 73zM97 467q0 -23 15.5 -38.5t38.5 -15.5t38.5 15.5t15.5 38.5t-15.5 38.5t-38.5 15.5t-38.5 -15.5t-15.5 -38.5z" />
    <glyph glyph-name="acute.smcp" horiz-adv-x="242" 
d="M20 531l107 133h95l-133 -133h-69z" />
    <glyph glyph-name="caron.smcp" horiz-adv-x="392" 
d="M50 691h60l82 -91l88 91h62l-117 -160h-71zM225 531z" />
    <glyph glyph-name="eng.smcp" horiz-adv-x="603" 
d="M80 0v571h71l319 -434v434h73v-571v-62q-2 -68 -54 -109t-133 -41v62q40 0 77.5 25t37.5 66v62l-317 435v-438h-74z" />
    <glyph glyph-name="amacron.smcp" horiz-adv-x="591" 
d="M159 630v63h292v-63h-292zM35 0l233 570h74l214 -570h-81l-60 152h-235l-64 -152h-81zM210 226h180l-86 238z" />
    <glyph glyph-name="aacute.smcp" horiz-adv-x="591" 
d="M270 630l108 133h94l-132 -133h-70zM35 0l233 570h74l214 -570h-81l-60 152h-235l-64 -152h-81zM210 226h180l-86 238z" />
    <glyph glyph-name="acircumflex.smcp" horiz-adv-x="591" 
d="M159 630l117 130h71l104 -130h-71l-71 71l-78 -71h-72zM35 0l233 570h74l214 -570h-81l-60 152h-235l-64 -152h-81zM210 226h180l-86 238z" />
    <glyph glyph-name="atilde.smcp" horiz-adv-x="591" 
d="M136 671q27 22 40.5 32.5t36 21t41.5 10.5q28 -2 61.5 -18.5t45.5 -16.5q22 -1 91 36l22 -42q-3 -2 -24.5 -19.5t-31 -23.5t-27 -13.5t-32.5 -6.5q-30 2 -60 18t-47 16q-20 0 -34.5 -5.5t-31 -15t-29.5 -14.5zM35 0l233 570h74l214 -570h-81l-60 152h-235l-64 -152h-81z
M210 226h180l-86 238z" />
    <glyph glyph-name="adieresis.smcp" horiz-adv-x="591" 
d="M127 681q0 21 15 35.5t36 14.5t35.5 -14.5t14.5 -35.5t-14.5 -36t-35.5 -15t-36 15t-15 36zM382 681q0 21 15 35.5t36 14.5t35.5 -14.5t14.5 -35.5t-14.5 -36t-35.5 -15t-36 15t-15 36zM35 0l233 570h74l214 -570h-81l-60 152h-235l-64 -152h-81zM210 226h180l-86 238z
" />
    <glyph glyph-name="aring.smcp" horiz-adv-x="591" 
d="M205 666q0 43 30 73t72 30t71.5 -30t29.5 -73t-29.5 -72.5t-71.5 -29.5t-72 29.5t-30 72.5zM252 666q0 -22 16 -38t39 -16t38.5 16t15.5 38q0 23 -16 39t-38 16q-23 0 -39 -16.5t-16 -38.5zM35 0l233 570h74l214 -570h-81l-60 152h-235l-64 -152h-81zM210 226h180
l-86 238z" />
    <glyph glyph-name="ae.smcp" horiz-adv-x="777" 
d="M23 0l244 482q27 53 69.5 70t121.5 18l278 -12v-61h-276q-15 0 -22.5 -4t-9 -9.5t-2.5 -18.5v-147l279 -7v-61l-279 -8v-139q0 -20 9 -25.5t29 -5.5l272 -1v-60l-293 -13q-44 -1 -68 21.5t-24 61.5v77h-164l-81 -158h-83zM223 232h128v256z" />
    <glyph glyph-name="iogonek.smcp" horiz-adv-x="214" 
d="M103 0h39q-41 -33 -54 -60.5t2.5 -43.5t54.5 -17v-60q-33 -5 -63 6t-45 32.5t-17.5 46.5t19 51.5t64.5 44.5zM80 0v570h74v-570h-74z" />
    <glyph glyph-name="ccaron.smcp" horiz-adv-x="520" 
d="M144 773h72l80 -71l69 71h71l-104 -130h-71zM55 295q0 60 8.5 106.5t29.5 88.5t63 65t103 23q35 0 112.5 -8t113.5 -17v-59q-12 2 -95.5 6t-130.5 4q-72 0 -101 -53t-29 -156q0 -38 2.5 -67t10.5 -60t21.5 -51t38 -33t57.5 -14l226 10v-57q-142 -27 -226 -27
q-52 0 -90.5 18.5t-60 46.5t-34 70t-16 79.5t-3.5 84.5z" />
    <glyph glyph-name="eacute.smcp" horiz-adv-x="516" 
d="M252 632l107 133h95l-133 -133h-69zM80 83v398q0 43 27.5 66.5t76.5 23.5l287 -12v-61h-285q-21 0 -26.5 -6.5t-5.5 -26.5v-142l286 -8v-61l-286 -7v-143q0 -20 9 -26t27 -6h281v-60l-307 -14q-38 0 -61 23t-23 62z" />
    <glyph glyph-name="eogonek.smcp" horiz-adv-x="516" 
d="M432 12h39q-41 -33 -54 -60.5t2.5 -43.5t54.5 -17v-60q-33 -5 -63 6t-45 32.5t-17.5 46.5t19 51.5t64.5 44.5zM80 83v398q0 43 27.5 66.5t76.5 23.5l287 -12v-61h-285q-21 0 -26.5 -6.5t-5.5 -26.5v-142l286 -8v-61l-286 -7v-143q0 -20 9 -26t27 -6h281v-60l-307 -14
q-38 0 -61 23t-23 62z" />
    <glyph glyph-name="edieresis.smcp" horiz-adv-x="516" 
d="M110 683q0 21 15 35.5t36 14.5t35.5 -14.5t14.5 -35.5t-14.5 -36t-35.5 -15t-36 15t-15 36zM365 683q0 21 15 35.5t36 14.5t35.5 -14.5t14.5 -35.5t-14.5 -36t-35.5 -15t-36 15t-15 36zM80 83v398q0 43 27.5 66.5t76.5 23.5l287 -12v-61h-285q-21 0 -26.5 -6.5
t-5.5 -26.5v-142l286 -8v-61l-286 -7v-143q0 -20 9 -26t27 -6h281v-60l-307 -14q-38 0 -61 23t-23 62z" />
    <glyph glyph-name="edotaccent.smcp" horiz-adv-x="516" 
d="M247 655v54q0 25 24 25h50q23 0 23 -25v-54q0 -23 -23 -23h-50q-24 0 -24 23zM80 83v398q0 43 27.5 66.5t76.5 23.5l287 -12v-61h-285q-21 0 -26.5 -6.5t-5.5 -26.5v-142l286 -8v-61l-286 -7v-143q0 -20 9 -26t27 -6h281v-60l-307 -14q-38 0 -61 23t-23 62z" />
    <glyph glyph-name="iacute.smcp" horiz-adv-x="214" 
d="M92 630l107 133h95l-133 -133h-69zM80 0v570h74v-570h-74z" />
    <glyph glyph-name="icircumflex.smcp" horiz-adv-x="214" 
d="M-20 630l117 130h71l104 -130h-71l-71 71l-78 -71h-72zM80 0v570h74v-570h-74z" />
    <glyph glyph-name="imacron.smcp" horiz-adv-x="214" 
d="M-20 630v63h292v-63h-292zM80 0v570h74v-570h-74z" />
    <glyph glyph-name="dcroat.smcp" horiz-adv-x="593" 
d="M20 263v54h67v255h61.5t106.5 -0.5t70 -0.5q59 0 102 -27t65 -72t31.5 -91.5t9.5 -97.5q0 -58 -10 -104.5t-24 -75.5t-36 -50t-40 -31t-42 -15.5t-35 -6t-26 -0.5h-233v263h-67zM165 75h140q56 0 90 29.5t45.5 72.5t11.5 106q0 211 -141 211h-146v-177h99v-54h-99v-188z
" />
    <glyph glyph-name="ncommaaccent.smcp" horiz-adv-x="603" 
d="M268 -142v48q0 24 23 24h46q21 0 21 -24v-81q0 -24 -8.5 -40t-21 -21.5t-25 -8t-21.5 -0.5l-9 1v29q28 -1 28 27v23h-10q-23 0 -23 23zM80 0v571h71l319 -434v434h73v-571h-70l-319 438v-438h-74z" />
    <glyph glyph-name="omacron.smcp" horiz-adv-x="609" 
d="M160 646v63h292v-63h-292zM55 280q0 90 15 148.5t48 90.5t76.5 44t109.5 12q54 0 89.5 -5.5t68.5 -22.5t51.5 -48t29.5 -83.5t11 -128.5q0 -91 -14.5 -149t-48 -89t-77 -42.5t-110.5 -11.5q-53 0 -88.5 5.5t-68 23t-51.5 48.5t-30 82.5t-11 125.5zM129 285
q0 -73 9.5 -117t34 -65.5t53 -27.5t78.5 -6q26 0 39.5 0.5t36 4.5t34 12t26.5 24t22 39t12.5 58t5.5 80q0 36 -2.5 64t-6 49.5t-12.5 37.5t-15 26.5t-20.5 18t-23.5 11t-29 5t-31 2t-36 0.5h-6q-23 0 -34.5 -0.5t-31 -3t-29.5 -8t-24 -15.5t-21.5 -26t-15 -38t-10.5 -53.5
t-3 -71.5z" />
    <glyph glyph-name="kcommaaccent.smcp" horiz-adv-x="558" 
d="M240 -144v49q0 24 22 24h46q22 0 22 -24v-81q0 -24 -9 -40t-21.5 -21.5t-25 -8t-21.5 -0.5l-9 1v29q28 -1 28 28v22h-10q-22 0 -22 22zM80 -1v571h74v-254h73l203 254h93l-231 -290l231 -281h-93l-205 243h-71v-243h-74z" />
    <glyph glyph-name="ocircumflex.smcp" horiz-adv-x="609" 
d="M155 630l117 130h71l104 -130h-71l-71 71l-78 -71h-72zM55 280q0 90 15 148.5t48 90.5t76.5 44t109.5 12q54 0 89.5 -5.5t68.5 -22.5t51.5 -48t29.5 -83.5t11 -128.5q0 -91 -14.5 -149t-48 -89t-77 -42.5t-110.5 -11.5q-53 0 -88.5 5.5t-68 23t-51.5 48.5t-30 82.5
t-11 125.5zM129 285q0 -73 9.5 -117t34 -65.5t53 -27.5t78.5 -6q26 0 39.5 0.5t36 4.5t34 12t26.5 24t22 39t12.5 58t5.5 80q0 36 -2.5 64t-6 49.5t-12.5 37.5t-15 26.5t-20.5 18t-23.5 11t-29 5t-31 2t-36 0.5h-6q-23 0 -34.5 -0.5t-31 -3t-29.5 -8t-24 -15.5t-21.5 -26
t-15 -38t-10.5 -53.5t-3 -71.5z" />
    <glyph glyph-name="otilde.smcp" horiz-adv-x="609" 
d="M150 676q27 22 40.5 32.5t36 21t41.5 10.5q28 -2 61.5 -18.5t45.5 -16.5q22 -1 91 36l22 -42q-3 -2 -24.5 -19.5t-31 -23.5t-27 -13.5t-32.5 -6.5q-30 2 -60 18t-47 16q-20 0 -34.5 -5.5t-31 -15t-29.5 -14.5zM55 280q0 90 15 148.5t48 90.5t76.5 44t109.5 12
q54 0 89.5 -5.5t68.5 -22.5t51.5 -48t29.5 -83.5t11 -128.5q0 -91 -14.5 -149t-48 -89t-77 -42.5t-110.5 -11.5q-53 0 -88.5 5.5t-68 23t-51.5 48.5t-30 82.5t-11 125.5zM129 285q0 -73 9.5 -117t34 -65.5t53 -27.5t78.5 -6q26 0 39.5 0.5t36 4.5t34 12t26.5 24t22 39
t12.5 58t5.5 80q0 36 -2.5 64t-6 49.5t-12.5 37.5t-15 26.5t-20.5 18t-23.5 11t-29 5t-31 2t-36 0.5h-6q-23 0 -34.5 -0.5t-31 -3t-29.5 -8t-24 -15.5t-21.5 -26t-15 -38t-10.5 -53.5t-3 -71.5z" />
    <glyph glyph-name="odieresis.smcp" horiz-adv-x="609" 
d="M123 686q0 21 15 35.5t36 14.5t35.5 -14.5t14.5 -35.5t-14.5 -36t-35.5 -15t-36 15t-15 36zM378 686q0 21 15 35.5t36 14.5t35.5 -14.5t14.5 -35.5t-14.5 -36t-35.5 -15t-36 15t-15 36zM55 280q0 90 15 148.5t48 90.5t76.5 44t109.5 12q54 0 89.5 -5.5t68.5 -22.5
t51.5 -48t29.5 -83.5t11 -128.5q0 -91 -14.5 -149t-48 -89t-77 -42.5t-110.5 -11.5q-53 0 -88.5 5.5t-68 23t-51.5 48.5t-30 82.5t-11 125.5zM129 285q0 -73 9.5 -117t34 -65.5t53 -27.5t78.5 -6q26 0 39.5 0.5t36 4.5t34 12t26.5 24t22 39t12.5 58t5.5 80q0 36 -2.5 64
t-6 49.5t-12.5 37.5t-15 26.5t-20.5 18t-23.5 11t-29 5t-31 2t-36 0.5h-6q-23 0 -34.5 -0.5t-31 -3t-29.5 -8t-24 -15.5t-21.5 -26t-15 -38t-10.5 -53.5t-3 -71.5z" />
    <glyph glyph-name="oslash.smcp" horiz-adv-x="594" 
d="M175 97q33 -28 124 -28q26 0 39.5 0.5t35 4.5t32.5 12t25.5 24t21.5 39t12 57.5t5 80.5q0 110 -23 159q-175 -222 -272 -349zM129 285q0 -100 19 -147q47 62 138.5 177.5t130.5 166.5q-28 19 -118 19h-6q-23 0 -34 -0.5t-30 -3t-28.5 -8t-23.5 -15.5t-21 -26t-14 -38
t-10 -53.5t-3 -71.5zM44 0q47 64 52 70q-41 65 -41 210q0 91 14 149t46.5 90t75 44t108.5 12q117 0 164 -32l21 27h61q-8 -10 -23.5 -30t-23.5 -30q46 -62 46 -223q0 -91 -14 -149t-46.5 -89t-75 -42.5t-109.5 -11.5q-120 0 -171 40q-18 -24 -26 -35h-58z" />
    <glyph glyph-name="uogonek.smcp" horiz-adv-x="567" 
d="M302 -2h39q-41 -33 -54 -60.5t2.5 -43.5t54.5 -17v-60q-33 -5 -63 6t-45 32.5t-17.5 46.5t19 51.5t64.5 44.5zM80 260v310h75v-310q-1 -116 35 -153.5t129 -37.5q82 0 120.5 38.5t38.5 152.5v310h75v-310q0 -68 -13 -117t-34 -77t-53 -44.5t-62.5 -21.5t-71.5 -5
q-38 0 -65.5 3t-57 12.5t-49 27.5t-36 46.5t-24 73t-7.5 102.5z" />
    <glyph glyph-name="uacute.smcp" horiz-adv-x="613" 
d="M282 630l107 133h95l-133 -133h-69zM80 260v310h75v-310q-1 -116 35 -153.5t129 -37.5q82 0 120.5 38.5t38.5 152.5v310h75v-310q0 -68 -13 -117t-34 -77t-53 -44.5t-62.5 -21.5t-71.5 -5q-38 0 -65.5 3t-57 12.5t-49 27.5t-36 46.5t-24 73t-7.5 102.5z" />
    <glyph glyph-name="ucircumflex.smcp" horiz-adv-x="613" 
d="M168 630l117 130h71l104 -130h-71l-71 71l-78 -71h-72zM80 260v310h75v-310q-1 -116 35 -153.5t129 -37.5q82 0 120.5 38.5t38.5 152.5v310h75v-310q0 -68 -13 -117t-34 -77t-53 -44.5t-62.5 -21.5t-71.5 -5q-38 0 -65.5 3t-57 12.5t-49 27.5t-36 46.5t-24 73t-7.5 102.5
z" />
    <glyph glyph-name="udieresis.smcp" horiz-adv-x="613" 
d="M135 681q0 21 15 35.5t36 14.5t35.5 -14.5t14.5 -35.5t-14.5 -36t-35.5 -15t-36 15t-15 36zM390 681q0 21 15 35.5t36 14.5t35.5 -14.5t14.5 -35.5t-14.5 -36t-35.5 -15t-36 15t-15 36zM80 260v310h75v-310q-1 -116 35 -153.5t129 -37.5q82 0 120.5 38.5t38.5 152.5v310
h75v-310q0 -68 -13 -117t-34 -77t-53 -44.5t-62.5 -21.5t-71.5 -5q-38 0 -65.5 3t-57 12.5t-49 27.5t-36 46.5t-24 73t-7.5 102.5z" />
    <glyph glyph-name="utilde.smcp" horiz-adv-x="613" 
d="M145 671q27 22 40.5 32.5t36 21t41.5 10.5q28 -2 61.5 -18.5t45.5 -16.5q22 -1 91 36l22 -42q-3 -2 -24.5 -19.5t-31 -23.5t-27 -13.5t-32.5 -6.5q-30 2 -60 18t-47 16q-20 0 -34.5 -5.5t-31 -15t-29.5 -14.5zM80 260v310h75v-310q-1 -116 35 -153.5t129 -37.5
q82 0 120.5 38.5t38.5 152.5v310h75v-310q0 -68 -13 -117t-34 -77t-53 -44.5t-62.5 -21.5t-71.5 -5q-38 0 -65.5 3t-57 12.5t-49 27.5t-36 46.5t-24 73t-7.5 102.5z" />
    <glyph glyph-name="umacron.smcp" horiz-adv-x="613" 
d="M168 630v63h292v-63h-292zM80 260v310h75v-310q-1 -116 35 -153.5t129 -37.5q82 0 120.5 38.5t38.5 152.5v310h75v-310q0 -68 -13 -117t-34 -77t-53 -44.5t-62.5 -21.5t-71.5 -5q-38 0 -65.5 3t-57 12.5t-49 27.5t-36 46.5t-24 73t-7.5 102.5z" />
    <glyph glyph-name="germandbls.smcp" horiz-adv-x="1018" 
d="M37 374q0 -71 33 -101t105 -30h160q31 0 43.5 -13.5t12.5 -41.5v-70q0 -54 -56 -54l-276 3v-55q25 -8 126.5 -15t149.5 -7q130 0 130 128v70q0 58 -33.5 93.5t-96.5 35.5h-160q-20 0 -26.5 0.5t-18 5t-15.5 17t-4 34.5v67q0 28 14 43.5t50 15.5l263 -4v57
q-149 20 -263 20q-74 0 -106 -33.5t-32 -98.5v-67zM546 441q0 65 32 98.5t106 33.5q114 0 263 -20v-57q-165 4 -263 4q-36 0 -50 -15.5t-14 -43.5v-67q0 -22 4 -34.5t15.5 -17t18 -5t26.5 -0.5h160q63 0 96.5 -35.5t33.5 -93.5v-70q0 -128 -130 -128q-48 0 -149.5 7
t-126.5 15v55q180 -3 276 -3q56 0 56 54v70q0 28 -12.5 41.5t-43.5 13.5h-160q-72 0 -105 30t-33 101v67z" />
    <glyph glyph-name="agrave.smcp" horiz-adv-x="591" 
d="M122 763h95l107 -133h-69zM35 0l233 570h74l214 -570h-81l-60 152h-235l-64 -152h-81zM210 226h180l-86 238z" />
    <glyph glyph-name="ccedilla.smcp" horiz-adv-x="520" 
d="M190 -137l53 15q32 14 32 84h67q0 -78 -21 -107t-80 -29h-51v37zM55 295q0 60 8.5 106.5t29.5 88.5t63 65t103 23q35 0 112.5 -8t113.5 -17v-59q-12 2 -95.5 6t-130.5 4q-72 0 -101 -53t-29 -156q0 -38 2.5 -67t10.5 -60t21.5 -51t38 -33t57.5 -14l226 10v-57
q-142 -27 -226 -27q-52 0 -90.5 18.5t-60 46.5t-34 70t-16 79.5t-3.5 84.5z" />
    <glyph glyph-name="eth.smcp" horiz-adv-x="593" 
d="M20 263v54h67v255h61.5t106.5 -0.5t70 -0.5q59 0 102 -27t65 -72t31.5 -91.5t9.5 -97.5q0 -58 -10 -104.5t-24 -75.5t-36 -50t-40 -31t-42 -15.5t-35 -6t-26 -0.5h-233v263h-67zM165 75h140q56 0 90 29.5t45.5 72.5t11.5 106q0 211 -141 211h-146v-177h99v-54h-99v-188z
" />
    <glyph glyph-name="egrave.smcp" horiz-adv-x="516" 
d="M140 765h95l107 -133h-69zM80 83v398q0 43 27.5 66.5t76.5 23.5l287 -12v-61h-285q-21 0 -26.5 -6.5t-5.5 -26.5v-142l286 -8v-61l-286 -7v-143q0 -20 9 -26t27 -6h281v-60l-307 -14q-38 0 -61 23t-23 62z" />
    <glyph glyph-name="ecircumflex.smcp" horiz-adv-x="516" 
d="M146 632l117 130h71l104 -130h-71l-71 71l-78 -71h-72zM80 83v398q0 43 27.5 66.5t76.5 23.5l287 -12v-61h-285q-21 0 -26.5 -6.5t-5.5 -26.5v-142l286 -8v-61l-286 -7v-143q0 -20 9 -26t27 -6h281v-60l-307 -14q-38 0 -61 23t-23 62z" />
    <glyph glyph-name="igrave.smcp" horiz-adv-x="214" 
d="M-40 763h95l107 -133h-69zM80 0v570h74v-570h-74z" />
    <glyph glyph-name="idieresis.smcp" horiz-adv-x="214" 
d="M-52 681q0 21 15 35.5t36 14.5t35.5 -14.5t14.5 -35.5t-14.5 -36t-35.5 -15t-36 15t-15 36zM203 681q0 21 15 35.5t36 14.5t35.5 -14.5t14.5 -35.5t-14.5 -36t-35.5 -15t-36 15t-15 36zM80 0v570h74v-570h-74z" />
    <glyph glyph-name="ntilde.smcp" horiz-adv-x="603" 
d="M132 672q27 22 40.5 32.5t36 21t41.5 10.5q28 -2 61.5 -18.5t45.5 -16.5q22 -1 91 36l22 -42q-3 -2 -24.5 -19.5t-31 -23.5t-27 -13.5t-32.5 -6.5q-30 2 -60 18t-47 16q-20 0 -34.5 -5.5t-31 -15t-29.5 -14.5zM80 0v571h71l319 -434v434h73v-571h-70l-319 438v-438h-74z
" />
    <glyph glyph-name="ograve.smcp" horiz-adv-x="609" 
d="M152 768h95l107 -133h-69zM55 280q0 90 15 148.5t48 90.5t76.5 44t109.5 12q54 0 89.5 -5.5t68.5 -22.5t51.5 -48t29.5 -83.5t11 -128.5q0 -91 -14.5 -149t-48 -89t-77 -42.5t-110.5 -11.5q-53 0 -88.5 5.5t-68 23t-51.5 48.5t-30 82.5t-11 125.5zM129 285
q0 -73 9.5 -117t34 -65.5t53 -27.5t78.5 -6q26 0 39.5 0.5t36 4.5t34 12t26.5 24t22 39t12.5 58t5.5 80q0 36 -2.5 64t-6 49.5t-12.5 37.5t-15 26.5t-20.5 18t-23.5 11t-29 5t-31 2t-36 0.5h-6q-23 0 -34.5 -0.5t-31 -3t-29.5 -8t-24 -15.5t-21.5 -26t-15 -38t-10.5 -53.5
t-3 -71.5z" />
    <glyph glyph-name="oacute.smcp" horiz-adv-x="609" 
d="M284 635l107 133h95l-133 -133h-69zM55 280q0 90 15 148.5t48 90.5t76.5 44t109.5 12q54 0 89.5 -5.5t68.5 -22.5t51.5 -48t29.5 -83.5t11 -128.5q0 -91 -14.5 -149t-48 -89t-77 -42.5t-110.5 -11.5q-53 0 -88.5 5.5t-68 23t-51.5 48.5t-30 82.5t-11 125.5zM129 285
q0 -73 9.5 -117t34 -65.5t53 -27.5t78.5 -6q26 0 39.5 0.5t36 4.5t34 12t26.5 24t22 39t12.5 58t5.5 80q0 36 -2.5 64t-6 49.5t-12.5 37.5t-15 26.5t-20.5 18t-23.5 11t-29 5t-31 2t-36 0.5h-6q-23 0 -34.5 -0.5t-31 -3t-29.5 -8t-24 -15.5t-21.5 -26t-15 -38t-10.5 -53.5
t-3 -71.5z" />
    <glyph glyph-name="ugrave.smcp" horiz-adv-x="613" 
d="M159 763h95l107 -133h-69zM80 260v310h75v-310q-1 -116 35 -153.5t129 -37.5q82 0 120.5 38.5t38.5 152.5v310h75v-310q0 -68 -13 -117t-34 -77t-53 -44.5t-62.5 -21.5t-71.5 -5q-38 0 -65.5 3t-57 12.5t-49 27.5t-36 46.5t-24 73t-7.5 102.5z" />
    <glyph glyph-name="yacute.smcp" horiz-adv-x="566" 
d="M234 630l107 133h95l-133 -133h-69zM35 570h81l169 -302l165 302h81l-210 -380v-191h-74v191z" />
    <glyph glyph-name="thorn.smcp" horiz-adv-x="537" 
d="M75 0v569h73v-103h177q22 0 43.5 -6.5t46.5 -23t40.5 -52.5t15.5 -88q0 -49 -9.5 -85t-23.5 -55t-35 -30t-38.5 -14t-39.5 -3q-119 0 -177 16v-125h-73zM148 187h177q39 0 55.5 22.5t16.5 87.5q0 49 -19 70t-53 25h-177v-205z" />
    <glyph glyph-name="quotesinglbase.smcp" horiz-adv-x="270" 
d="M79 29v66q0 33 30 33h63q29 0 29 -33v-109q0 -32 -12 -53.5t-29 -29.5t-34 -11t-29 -2l-12 2v38q38 -1 38 38v31h-14q-30 0 -30 30z" />
    <glyph glyph-name="quotedblleft.smcp" horiz-adv-x="436" 
d="M242 377v109q0 32 12 54t29 29.5t34.5 10t29.5 0.5l12 -1v-38q-39 1 -39 -38v-30h15q29 0 29 -30v-66q0 -33 -29 -33h-63q-30 0 -30 33zM72 377v109q0 32 12 54t29 29.5t33.5 10t28.5 0.5l12 -1v-38q-37 1 -37 -38v-30h13q31 0 31 -30v-66q0 -33 -31 -33h-62
q-29 0 -29 33z" />
    <glyph glyph-name="quotedblright.smcp" horiz-adv-x="436" 
d="M72 482v66q0 33 29 33h63q30 0 30 -33v-109q0 -32 -12 -54t-29 -29.5t-34.5 -10.5t-29.5 -1l-12 1v38q39 -1 39 38v31h-15q-29 0 -29 30zM242 482v66q0 33 31 33h62q29 0 29 -33v-109q0 -32 -12 -54t-29 -29.5t-33.5 -10.5t-28.5 -1l-12 1v38q37 -1 37 38v31h-13
q-31 0 -31 30z" />
    <glyph glyph-name="quotedblbase.smcp" horiz-adv-x="436" 
d="M72 29v66q0 33 29 33h63q30 0 30 -33v-109q0 -32 -12 -53.5t-29 -29.5t-34.5 -11t-29.5 -2l-12 2v38q39 -1 39 38v31h-15q-29 0 -29 30zM242 29v66q0 33 31 33h62q29 0 29 -33v-109q0 -32 -12 -53.5t-29 -29.5t-33.5 -11t-28.5 -2l-12 2v38q37 -1 37 38v31h-13
q-31 0 -31 30z" />
    <glyph glyph-name="exclamdown.smcp" horiz-adv-x="269" 
d="M82 490v57q0 23 23 23h55q24 0 24 -23v-57q0 -25 -24 -25h-55q-23 0 -23 25zM89 0l7 403h75l7 -403h-89z" />
    <glyph glyph-name="ordmasculine.smcp" horiz-adv-x="421" 
d="M45 396q0 107 35.5 147t130.5 40t129.5 -40t34.5 -147q0 -98 -35 -137.5t-129 -39.5t-130 39.5t-36 137.5zM56 131v58h307v-58h-307zM107 396q0 -41 6.5 -65t23 -34.5t31 -13t43.5 -2.5q31 0 45 2t29.5 12.5t21 34.5t6.5 66q1 45 -4.5 71t-21.5 37.5t-30.5 14t-45.5 2.5
q-33 0 -47 -2t-30 -13.5t-21.5 -37.5t-5.5 -72z" />
    <glyph glyph-name="ordfeminine.smcp" horiz-adv-x="413" 
d="M60 133v58h324v-58h-324zM64 227l127 343h78l113 -343h-59l-29 91h-136l-31 -91h-63zM179 371h96l-44 143z" />
    <glyph glyph-name="Euro.smcp" horiz-adv-x="515" 
d="M16 199v47l68 5v59l-68 6v44l68 7q0 210 193 210q75 0 201 -23v-62q-137 11 -201 11q-33 0 -56.5 -9t-35.5 -20.5t-18 -33t-7 -35.5t-1 -38l185 -6v-46l-185 -5v-59l185 -5v-47q-12 0 -31 -0.5t-60 -1.5t-68 -2t-26 -2q0 -121 118 -121q36 0 87 3t84 7l33 3v-62
q-98 -28 -204 -28q-19 0 -39.5 3.5t-49.5 16t-51 32.5t-37.5 58t-15.5 88z" />
    <glyph glyph-name="lcaron.smcp" horiz-adv-x="497" 
d="M80 86v484h74v-469q-1 -18 8 -22.5t30 -4.5h270v-74h-296q-40 0 -63 22.5t-23 63.5zM226 544v67h74v-67l-10 -134h-53z" />
    <glyph glyph-name="sacute.smcp" horiz-adv-x="548" 
d="M226 639l107 133h95l-133 -133h-69zM55 374v59q0 140 138 140q40 0 131.5 -6.5t141.5 -13.5v-57q-175 4 -273 4q-64 0 -64 -67v-59q0 -22 4 -34.5t15.5 -17t18 -5t26.5 -0.5h170q63 0 96.5 -35.5t33.5 -93.5v-70q0 -128 -130 -128q-49 0 -155 7t-131 15v55q190 -3 286 -3
q18 0 32 13.5t19 26.5l5 14v70q0 28 -12.5 41.5t-43.5 13.5h-170q-72 0 -105 30t-33 101z" />
    <glyph glyph-name="scedilla.smcp" horiz-adv-x="548" 
d="M144 -139l53 15q32 14 32 84h67q0 -78 -21 -107t-80 -29h-51v37zM55 374v59q0 140 138 140q40 0 131.5 -6.5t141.5 -13.5v-57q-175 4 -273 4q-64 0 -64 -67v-59q0 -22 4 -34.5t15.5 -17t18 -5t26.5 -0.5h170q63 0 96.5 -35.5t33.5 -93.5v-70q0 -128 -130 -128
q-49 0 -155 7t-131 15v55q190 -3 286 -3q18 0 32 13.5t19 26.5l5 14v70q0 28 -12.5 41.5t-43.5 13.5h-170q-72 0 -105 30t-33 101z" />
    <glyph glyph-name="tcaron.smcp" horiz-adv-x="606" 
d="M191 773h72l80 -71l69 71h71l-104 -130h-71zM116 496v74h446v-74h-186v-496h-74v496h-186z" />
    <glyph glyph-name="zacute.smcp" horiz-adv-x="496" 
d="M216 630l107 133h95l-133 -133h-69zM35 0v74l328 422h-328v74h426v-74l-324 -422h324v-74h-426z" />
    <glyph glyph-name="zdotaccent.smcp" horiz-adv-x="496" 
d="M200 653v54q0 25 24 25h50q10 0 16 -7t6 -18v-54q0 -23 -22 -23h-50q-11 0 -17.5 6.5t-6.5 16.5zM35 0v74l328 422h-328v74h426v-74l-324 -422h324v-74h-426z" />
    <glyph glyph-name="racute.smcp" 
d="M226 631l107 133h95l-133 -133h-69zM60 0v571h270q26 0 50 -7t48.5 -23t39.5 -50t15 -81q0 -73 -26 -122.5t-84 -54.5l136 -233h-84l-128 224q-160 11 -163 16v-240h-74zM134 298h196q79 0 79 111q0 26 -8 44.5t-17 26.5t-23.5 12.5t-19 4.5h-11.5h-196v-199z" />
    <glyph glyph-name="abreve.smcp" horiz-adv-x="591" 
d="M190 744h47q0 -28 20.5 -47.5t46.5 -19.5q29 0 49 18t20 49h47q0 -53 -35.5 -83.5t-80.5 -30.5q-44 0 -79 31.5t-35 82.5zM35 0l233 570h74l214 -570h-81l-60 152h-235l-64 -152h-81zM210 226h180l-86 238z" />
    <glyph glyph-name="lacute.smcp" horiz-adv-x="497" 
d="M92 630l107 133h95l-133 -133h-69zM80 86v484h74v-469q-1 -18 8 -22.5t30 -4.5h270v-74h-296q-40 0 -63 22.5t-23 63.5z" />
    <glyph glyph-name="cacute.smcp" horiz-adv-x="520" 
d="M248 643l107 133h95l-133 -133h-69zM55 295q0 60 8.5 106.5t29.5 88.5t63 65t103 23q35 0 112.5 -8t113.5 -17v-59q-12 2 -95.5 6t-130.5 4q-72 0 -101 -53t-29 -156q0 -38 2.5 -67t10.5 -60t21.5 -51t38 -33t57.5 -14l226 10v-57q-142 -27 -226 -27q-52 0 -90.5 18.5
t-60 46.5t-34 70t-16 79.5t-3.5 84.5z" />
    <glyph glyph-name="ecaron.smcp" horiz-adv-x="516" 
d="M134 761h72l80 -71l69 71h71l-104 -130h-71zM80 83v398q0 43 27.5 66.5t76.5 23.5l287 -12v-61h-285q-21 0 -26.5 -6.5t-5.5 -26.5v-142l286 -8v-61l-286 -7v-143q0 -20 9 -26t27 -6h281v-60l-307 -14q-38 0 -61 23t-23 62z" />
    <glyph glyph-name="dcaron.smcp" horiz-adv-x="603" 
d="M201 762h72l80 -71l69 71h71l-104 -130h-71zM138 0v572h247q63 -1 108 -28t68 -72t33 -91.5t10 -97.5q0 -58 -9.5 -104.5t-23 -75.5t-35.5 -50t-39.5 -31t-42.5 -15.5t-37.5 -6t-31.5 -0.5h-247zM212 74h173q145 0 145 209q0 109 -39.5 162t-105.5 53h-173v-424z" />
    <glyph glyph-name="nacute.smcp" horiz-adv-x="603" 
d="M294 631l107 133h95l-133 -133h-69zM80 0v571h71l319 -434v434h73v-571h-70l-319 438v-438h-74z" />
    <glyph glyph-name="ncaron.smcp" horiz-adv-x="603" 
d="M169 761h72l80 -71l69 71h71l-104 -130h-71zM80 0v571h71l319 -434v434h73v-571h-70l-319 438v-438h-74z" />
    <glyph glyph-name="ohungarumlaut.smcp" horiz-adv-x="609" 
d="M203 635l107 133h95l-133 -133h-69zM338 635l107 133h95l-133 -133h-69zM55 280q0 90 15 148.5t48 90.5t76.5 44t109.5 12q54 0 89.5 -5.5t68.5 -22.5t51.5 -48t29.5 -83.5t11 -128.5q0 -91 -14.5 -149t-48 -89t-77 -42.5t-110.5 -11.5q-53 0 -88.5 5.5t-68 23
t-51.5 48.5t-30 82.5t-11 125.5zM129 285q0 -73 9.5 -117t34 -65.5t53 -27.5t78.5 -6q26 0 39.5 0.5t36 4.5t34 12t26.5 24t22 39t12.5 58t5.5 80q0 36 -2.5 64t-6 49.5t-12.5 37.5t-15 26.5t-20.5 18t-23.5 11t-29 5t-31 2t-36 0.5h-6q-23 0 -34.5 -0.5t-31 -3t-29.5 -8
t-24 -15.5t-21.5 -26t-15 -38t-10.5 -53.5t-3 -71.5z" />
    <glyph glyph-name="rcaron.smcp" 
d="M110 761h72l80 -71l69 71h71l-104 -130h-71zM60 0v571h270q26 0 50 -7t48.5 -23t39.5 -50t15 -81q0 -73 -26 -122.5t-84 -54.5l136 -233h-84l-128 224q-160 11 -163 16v-240h-74zM134 298h196q79 0 79 111q0 26 -8 44.5t-17 26.5t-23.5 12.5t-19 4.5h-11.5h-196v-199z
" />
    <glyph glyph-name="uring.smcp" horiz-adv-x="613" 
d="M215 702q0 43 30 73t72 30t71.5 -30t29.5 -73t-29.5 -72.5t-71.5 -29.5t-72 29.5t-30 72.5zM262 702q0 -22 16 -38t39 -16t38.5 16t15.5 38q0 23 -16 39t-38 16q-23 0 -39 -16.5t-16 -38.5zM80 260v310h75v-310q-1 -116 35 -153.5t129 -37.5q82 0 120.5 38.5t38.5 152.5
v310h75v-310q0 -68 -13 -117t-34 -77t-53 -44.5t-62.5 -21.5t-71.5 -5q-38 0 -65.5 3t-57 12.5t-49 27.5t-36 46.5t-24 73t-7.5 102.5z" />
    <glyph glyph-name="uhungarumlaut.smcp" horiz-adv-x="613" 
d="M210 630l107 133h95l-133 -133h-69zM345 630l107 133h95l-133 -133h-69zM80 260v310h75v-310q-1 -116 35 -153.5t129 -37.5q82 0 120.5 38.5t38.5 152.5v310h75v-310q0 -68 -13 -117t-34 -77t-53 -44.5t-62.5 -21.5t-71.5 -5q-38 0 -65.5 3t-57 12.5t-49 27.5t-36 46.5
t-24 73t-7.5 102.5z" />
    <glyph glyph-name="tcommaaccent.smcp" horiz-adv-x="516" 
d="M124 -146l53 15q32 14 32 84h67q0 -78 -21 -107t-80 -29h-51v37zM35 496v74h446v-74h-186v-496h-74v496h-186z" />
    <glyph glyph-name="lslash.smcp" horiz-adv-x="488" 
d="M20 225v66l66 27v252h74v-223l118 48v-65l-118 -48v-181q-1 -18 8 -22.5t30 -4.5h270v-74h-296q-40 0 -63 22.5t-23 63.5v166z" />
    <glyph glyph-name="questiondown.smcp" horiz-adv-x="492" 
d="M56 155v46q0 74 57.5 112t135.5 26v64h76v-130q-71 2 -106 0q-34 -2 -61.5 -20t-27.5 -52v-46q0 -85 100 -85h227v-58q-149 -20 -227 -16q-83 0 -128.5 44.5t-45.5 114.5zM236 490v57q0 23 25 23h53q24 0 24 -23v-57q0 -25 -24 -25h-53q-25 0 -25 25z" />
    <glyph glyph-name="oe.smcp" horiz-adv-x="893" 
d="M40 280q0 90 15 148.5t48 90.5t76.5 44t109.5 12q69 0 113 -11t72 -41q23 48 95 48l287 -12v-61h-285q-21 0 -26.5 -6.5t-5.5 -26.5v-142l286 -8v-61l-286 -7v-143q0 -20 9 -26t27 -6h281v-60l-307 -14q-59 0 -78 50q-49 -53 -182 -53q-53 0 -88.5 5.5t-68 23t-51.5 48.5
t-30 82.5t-11 125.5zM114 285q0 -73 9.5 -117t34 -65.5t53 -27.5t78.5 -6q26 0 39.5 0.5t36 4.5t34 12t26.5 24t22 39t12.5 58t5.5 80q0 36 -2.5 64t-6 49.5t-12.5 37.5t-15 26.5t-20.5 18t-23.5 11t-29 5t-31 2t-36 0.5h-6q-23 0 -34.5 -0.5t-31 -3t-29.5 -8t-24 -15.5
t-21.5 -26t-15 -38t-10.5 -53.5t-3 -71.5z" />
    <glyph glyph-name="ydieresis.smcp" horiz-adv-x="566" 
d="M105 681q0 21 15 35.5t36 14.5t35.5 -14.5t14.5 -35.5t-14.5 -36t-35.5 -15t-36 15t-15 36zM360 681q0 21 15 35.5t36 14.5t35.5 -14.5t14.5 -35.5t-14.5 -36t-35.5 -15t-36 15t-15 36zM35 570h81l169 -302l165 302h81l-210 -380v-191h-74v191z" />
    <glyph glyph-name="sterling.smcp" horiz-adv-x="516" 
d="M50 0v48l56 20v183h-56v41l57 16v83q0 180 196 180l164 -13v-59h-163q-72 0 -98 -25.5t-26 -84.5v-77l225 -15v-48h-225v-176h286v-73h-416z" />
    <glyph glyph-name="yen.smcp" horiz-adv-x="518" 
d="M20 571h85l154 -253l153 253h86l-191 -313h145v-58h-156v-31h156v-58h-156v-111h-74v111h-148v58h148v31h-148v58h135z" />
    <glyph glyph-name="perthousand.smcp" horiz-adv-x="1187" 
d="M29 383v62q0 66 28 95.5t101 29.5h45q71 0 99 -29.5t28 -95.5v-62q0 -66 -28 -95.5t-101 -29.5h-45q-71 0 -99 29.5t-28 95.5zM94 383q0 -36 13 -48t49 -12h45q41 0 52.5 12t11.5 48v62q0 36 -13 48t-49 12h-45q-42 0 -53 -12t-11 -48v-62zM198 0l346 570h71l-346 -570
h-71zM485 124v62q0 66 28 95.5t101 29.5h45q71 0 99 -29.5t28 -95.5v-62q0 -66 -28 -95.5t-101 -29.5h-45q-71 0 -99 29.5t-28 95.5zM550 124q0 -36 13 -48t49 -12h45q41 0 52.5 12t11.5 48v62q0 36 -13 48t-49 12h-45q-42 0 -53 -12t-11 -48v-62zM846 124v62q0 66 28 95.5
t101 29.5h45q71 0 99 -29.5t28 -95.5v-62q0 -66 -28 -95.5t-101 -29.5h-45q-71 0 -99 29.5t-28 95.5zM911 124q0 -36 13 -48t49 -12h45q42 0 53 12t11 48v62q0 36 -13 48t-49 12h-45q-41 0 -52.5 -12t-11.5 -48v-62z" />
    <glyph glyph-name="circumflex.smcp" horiz-adv-x="392" 
d="M50 531l117 130h71l104 -130h-71l-71 71l-78 -71h-72zM238 661z" />
    <glyph glyph-name="tilde.smcp" horiz-adv-x="438" 
d="M50 572q27 22 40.5 32.5t36 21t41.5 10.5q28 -2 61.5 -18.5t45.5 -16.5q22 -1 91 36l22 -42q-3 -2 -24.5 -19.5t-31 -23.5t-27 -13.5t-32.5 -6.5q-30 2 -60 18t-47 16q-20 0 -34.5 -5.5t-31 -15t-29.5 -14.5z" />
    <glyph glyph-name="ring.smcp" horiz-adv-x="302" 
d="M50 632q0 43 29.5 73t71.5 30t71.5 -30t29.5 -73t-29.5 -73t-71.5 -30t-71.5 30t-29.5 73zM97 632q0 -22 15.5 -38t38.5 -16t38.5 16t15.5 38t-15.5 38t-38.5 16t-38.5 -16t-15.5 -38z" />
    <glyph glyph-name="hbar.smcp" horiz-adv-x="599" 
d="M32 399v51h48v120h74v-120h311v120h74v-120h46v-51h-46v-400h-74v240h-311v-240h-74v400h-48zM154 313h311v86h-311v-86z" />
    <glyph glyph-name="hcircumflex.smcp" horiz-adv-x="599" 
d="M158 630l117 130h71l104 -130h-71l-71 71l-78 -71h-72zM80 -1v571h74v-258h311v258h74v-571h-74v239h-311v-239h-74z" />
    <glyph glyph-name="gbreve.smcp" horiz-adv-x="578" 
d="M205 753h47q0 -28 20.5 -47.5t46.5 -19.5q29 0 49 18t20 49h47q0 -53 -35.5 -83.5t-80.5 -30.5q-44 0 -79 31.5t-35 82.5zM55 286q0 149 45.5 221t167.5 72q33 0 115.5 -8.5t125.5 -16.5v-62q-134 13 -241 13q-78 0 -108.5 -44.5t-30.5 -172.5q0 -34 5.5 -68t19.5 -71
t43.5 -60t70.5 -23q54 0 106.5 17.5t74.5 34.5v119h-178v49q91 25 185 25q31 0 67 -3v-308h-56l-15 44q-80 -51 -184 -51q-42 0 -76.5 14t-56.5 34.5t-38 51t-23.5 56.5t-12 57t-5.5 47.5t-1 32.5z" />
    <glyph glyph-name="jcircumflex.smcp" horiz-adv-x="333" 
d="M75 630l117 130h71l104 -130h-71l-71 71l-78 -71h-72zM35 21l4 54q49 -8 84 -8t55 23.5t21 74.5v405h74v-405q0 -111 -57 -146q-48 -26 -94.5 -24t-86.5 26z" />
    <glyph glyph-name="cdotaccent.smcp" horiz-adv-x="520" 
d="M260 666v54q0 25 24 25h50q23 0 23 -25v-54q0 -23 -23 -23h-50q-24 0 -24 23zM55 295q0 60 8.5 106.5t29.5 88.5t63 65t103 23q35 0 112.5 -8t113.5 -17v-59q-12 2 -95.5 6t-130.5 4q-72 0 -101 -53t-29 -156q0 -38 2.5 -67t10.5 -60t21.5 -51t38 -33t57.5 -14l226 10
v-57q-142 -27 -226 -27q-52 0 -90.5 18.5t-60 46.5t-34 70t-16 79.5t-3.5 84.5z" />
    <glyph glyph-name="ccircumflex.smcp" horiz-adv-x="520" 
d="M163 643l117 130h71l104 -130h-71l-71 71l-78 -71h-72zM55 295q0 60 8.5 106.5t29.5 88.5t63 65t103 23q35 0 112.5 -8t113.5 -17v-59q-12 2 -95.5 6t-130.5 4q-72 0 -101 -53t-29 -156q0 -38 2.5 -67t10.5 -60t21.5 -51t38 -33t57.5 -14l226 10v-57q-142 -27 -226 -27
q-52 0 -90.5 18.5t-60 46.5t-34 70t-16 79.5t-3.5 84.5z" />
    <glyph glyph-name="gdotaccent.smcp" horiz-adv-x="578" 
d="M271 662v54q0 25 24 25h50q23 0 23 -25v-54q0 -23 -23 -23h-50q-24 0 -24 23zM55 286q0 149 45.5 221t167.5 72q33 0 115.5 -8.5t125.5 -16.5v-62q-134 13 -241 13q-78 0 -108.5 -44.5t-30.5 -172.5q0 -34 5.5 -68t19.5 -71t43.5 -60t70.5 -23q54 0 106.5 17.5t74.5 34.5
v119h-178v49q91 25 185 25q31 0 67 -3v-308h-56l-15 44q-80 -51 -184 -51q-42 0 -76.5 14t-56.5 34.5t-38 51t-23.5 56.5t-12 57t-5.5 47.5t-1 32.5z" />
    <glyph glyph-name="gcircumflex.smcp" horiz-adv-x="578" 
d="M173 638l117 130h71l104 -130h-71l-71 71l-78 -71h-72zM55 286q0 149 45.5 221t167.5 72q33 0 115.5 -8.5t125.5 -16.5v-62q-134 13 -241 13q-78 0 -108.5 -44.5t-30.5 -172.5q0 -34 5.5 -68t19.5 -71t43.5 -60t70.5 -23q54 0 106.5 17.5t74.5 34.5v119h-178v49
q91 25 185 25q31 0 67 -3v-308h-56l-15 44q-80 -51 -184 -51q-42 0 -76.5 14t-56.5 34.5t-38 51t-23.5 56.5t-12 57t-5.5 47.5t-1 32.5z" />
    <glyph glyph-name="ubreve.smcp" horiz-adv-x="613" 
d="M202 744h47q0 -28 20.5 -47.5t46.5 -19.5q29 0 49 18t20 49h47q0 -53 -35.5 -83.5t-80.5 -30.5q-44 0 -79 31.5t-35 82.5zM80 260v310h75v-310q-1 -116 35 -153.5t129 -37.5q82 0 120.5 38.5t38.5 152.5v310h75v-310q0 -68 -13 -117t-34 -77t-53 -44.5t-62.5 -21.5
t-71.5 -5q-38 0 -65.5 3t-57 12.5t-49 27.5t-36 46.5t-24 73t-7.5 102.5z" />
    <glyph glyph-name="scircumflex.smcp" horiz-adv-x="548" 
d="M110 639l117 130h71l104 -130h-71l-71 71l-78 -71h-72zM55 374v59q0 140 138 140q40 0 131.5 -6.5t141.5 -13.5v-57q-175 4 -273 4q-64 0 -64 -67v-59q0 -22 4 -34.5t15.5 -17t18 -5t26.5 -0.5h170q63 0 96.5 -35.5t33.5 -93.5v-70q0 -128 -130 -128q-49 0 -155 7
t-131 15v55q190 -3 286 -3q18 0 32 13.5t19 26.5l5 14v70q0 28 -12.5 41.5t-43.5 13.5h-170q-72 0 -105 30t-33 101z" />
    <glyph glyph-name="Idotaccent.smcp" horiz-adv-x="200" 
d="M60 0v570h74v-570h-74zM51 662v54q0 25 24 25h50q23 0 23 -25v-54q0 -23 -23 -23h-50q-24 0 -24 23z" />
    <glyph glyph-name="periodcentered.smcp" horiz-adv-x="272" 
d="M89 265v57q0 25 24 25h53q25 0 25 -25v-57q0 -23 -25 -23h-53q-24 0 -24 23z" />
    <glyph glyph-name="bullet.smcp" horiz-adv-x="312" 
d="M85 284v80q0 35 33 35h74q35 0 35 -35v-80q0 -32 -35 -32h-74q-33 0 -33 32z" />
    <glyph glyph-name="quoteleft.smcp" horiz-adv-x="281" 
d="M79 377v109q0 32 12 54t29.5 29.5t34.5 10t29 0.5l12 -1v-38q-39 1 -39 -38v-31h15q29 0 29 -29v-66q0 -33 -29 -33h-63q-30 0 -30 33z" />
    <glyph glyph-name="quoteright.smcp" horiz-adv-x="281" 
d="M79 482v66q0 33 30 33h63q29 0 29 -33v-109q0 -32 -12 -54t-29 -29.5t-34 -10.5t-29 -1l-12 1v38q38 -1 38 38v31h-14q-30 0 -30 30z" />
    <glyph glyph-name="uni1E03.smcp" horiz-adv-x="546" 
d="M226 654v54q0 25 24 25h50q23 0 23 -25v-54q0 -23 -23 -23h-50q-24 0 -24 23zM80 0v571h264q44 0 76 -14t48 -38t23 -48.5t7 -52.5q0 -52 -15 -81t-47 -46q27 -12 46 -44.5t19 -84.5q0 -162 -157 -162h-264zM154 75h190q22 0 38 4.5t30.5 25t14.5 57.5q0 96 -83 96
q-154 -2 -190 0v-183zM154 332h190q47 0 63.5 19t16.5 67q0 79 -80 79h-190v-165z" />
    <glyph glyph-name="uni1E0B.smcp" horiz-adv-x="601" 
d="M224 655v54q0 25 24 25h50q23 0 23 -25v-54q0 -23 -23 -23h-50q-24 0 -24 23zM80 0v572h247q63 -1 108 -28t68 -72t33 -91.5t10 -97.5q0 -58 -9.5 -104.5t-23 -75.5t-35.5 -50t-39.5 -31t-42.5 -15.5t-37.5 -6t-31.5 -0.5h-247zM154 74h173q145 0 145 209
q0 109 -39.5 162t-105.5 53h-173v-424z" />
    <glyph glyph-name="uni1E1F.smcp" horiz-adv-x="516" 
d="M233 655v54q0 25 24 25h50q23 0 23 -25v-54q0 -23 -23 -23h-50q-24 0 -24 23zM80 0v481q0 43 27.5 66.5t76.5 23.5l287 -12v-61h-285q-14 0 -21 -4.5t-8.5 -9.5t-2.5 -19v-145l286 -8v-61l-286 -7v-244h-74z" />
    <glyph glyph-name="uni1E41.smcp" horiz-adv-x="734" 
d="M334 654v54q0 25 24 25h50q23 0 23 -25v-54q0 -23 -23 -23h-50q-24 0 -24 23zM55 0l55 571h91l168 -447l167 447h89l54 -571h-72l-41 441l-164 -441h-64l-166 442l-47 -442h-70z" />
    <glyph glyph-name="wgrave.smcp" horiz-adv-x="851" 
d="M264 764h95l107 -133h-69zM35 570h81l172 -461l163 461h80l-67 -194l110 -267l167 461h75l-206 -570h-74l-110 276l-97 -276h-78z" />
    <glyph glyph-name="uni1E57.smcp" horiz-adv-x="528" 
d="M222 652v54q0 25 24 25h50q23 0 23 -25v-54q0 -23 -23 -23h-50q-24 0 -24 23zM60 0v569h271q59 0 105.5 -41t46.5 -121q0 -50 -10.5 -86t-24.5 -54.5t-37 -29t-40 -12.5t-40 -2l-196 13v-236h-75zM135 297h196q17 0 27.5 2.5t24 11.5t20 31t6.5 57q2 47 -22.5 71.5
t-55.5 24.5h-196v-198z" />
    <glyph glyph-name="wacute.smcp" horiz-adv-x="851" 
d="M397 631l107 133h95l-133 -133h-69zM35 570h81l172 -461l163 461h80l-67 -194l110 -267l167 461h75l-206 -570h-74l-110 276l-97 -276h-78z" />
    <glyph glyph-name="ygrave.smcp" horiz-adv-x="566" 
d="M121 763h95l107 -133h-69zM35 570h81l169 -302l165 302h81l-210 -380v-191h-74v191z" />
    <glyph glyph-name="wdieresis.smcp" horiz-adv-x="851" 
d="M253 682q0 21 15 35.5t36 14.5t35.5 -14.5t14.5 -35.5t-14.5 -36t-35.5 -15t-36 15t-15 36zM508 682q0 21 15 35.5t36 14.5t35.5 -14.5t14.5 -35.5t-14.5 -36t-35.5 -15t-36 15t-15 36zM35 570h81l172 -461l163 461h80l-67 -194l110 -267l167 461h75l-206 -570h-74
l-110 276l-97 -276h-78z" />
    <glyph glyph-name="uni1E61.smcp" horiz-adv-x="548" 
d="M216 656v54q0 25 24 25h50q23 0 23 -25v-54q0 -23 -23 -23h-50q-24 0 -24 23zM55 374v59q0 140 138 140q40 0 131.5 -6.5t141.5 -13.5v-57q-175 4 -273 4q-64 0 -64 -67v-59q0 -22 4 -34.5t15.5 -17t18 -5t26.5 -0.5h170q63 0 96.5 -35.5t33.5 -93.5v-70
q0 -128 -130 -128q-49 0 -155 7t-131 15v55q190 -3 286 -3q18 0 32 13.5t19 26.5l5 14v70q0 28 -12.5 41.5t-43.5 13.5h-170q-72 0 -105 30t-33 101z" />
    <glyph glyph-name="wcircumflex.smcp" horiz-adv-x="851" 
d="M286 631l117 130h71l104 -130h-71l-71 71l-78 -71h-72zM35 570h81l172 -461l163 461h80l-67 -194l110 -267l167 461h75l-206 -570h-74l-110 276l-97 -276h-78z" />
    <glyph glyph-name="uni1E6B.smcp" horiz-adv-x="516" 
d="M209 653v54q0 25 24 25h50q23 0 23 -25v-54q0 -23 -23 -23h-50q-24 0 -24 23zM35 496v74h446v-74h-186v-496h-74v496h-186z" />
    <glyph glyph-name="ycircumflex.smcp" horiz-adv-x="566" 
d="M137 630l117 130h71l104 -130h-71l-71 71l-78 -71h-72zM35 570h81l169 -302l165 302h81l-210 -380v-191h-74v191z" />
    <glyph glyph-name="c_k" horiz-adv-x="1030" 
d="M40 266q0 84 12.5 140t37.5 83.5t54 38t71 10.5q77 0 228 -28v-54q-139 8 -228 8q-21 0 -34 -3t-27 -14t-22 -32t-13 -59.5t-5 -93.5q0 -108 42 -151.5t119 -43.5q111 0 315 188v527h74v-461l239 211l107 -1l-263 -236l262 -295h-92l-223 248l-30 -27v-221h-74v155
q-186 -162 -315 -162q-33 0 -62.5 5.5t-62.5 23.5t-56 47t-38.5 79.5t-15.5 117.5z" />
    <glyph glyph-name="N.salt" horiz-adv-x="680" 
d="M80 0v652q0 48 34 71t75 10.5t60 -53.5l273 -597q6 -13 15 -11t9 14v646h74v-653q0 -43 -32.5 -68t-72.5 -15.5t-59 53.5l-276 603q-5 11 -15 8.5t-10 -15.5v-645h-75z" />
    <glyph glyph-name="M.salt" horiz-adv-x="801" 
d="M55 0l40 652q0 48 36.5 72t78.5 11.5t55 -55.5l124 -410q3 -9 8 -11.5t9.5 1t6.5 10.5l112 411q13 43 55.5 55.5t79.5 -12t37 -72.5l49 -652h-74l-51 646q0 5 -2.5 9t-6 5.5t-7.5 2t-7 -2t-4 -7.5l-111 -410q-10 -37 -45 -51.5t-70.5 0t-46.5 51.5l-125 409
q-4 12 -14.5 9t-11.5 -16l-42 -645h-73z" />
    <glyph glyph-name="uni1E40.salt" horiz-adv-x="801" 
d="M360 823v54q0 25 24 25h50q23 0 23 -25v-54q0 -23 -23 -23h-50q-24 0 -24 23zM55 0l40 652q0 48 36.5 72t78.5 11.5t55 -55.5l124 -410q3 -9 8 -11.5t9.5 1t6.5 10.5l112 411q13 43 55.5 55.5t79.5 -12t37 -72.5l49 -652h-74l-51 646q0 5 -2.5 9t-6 5.5t-7.5 2t-7 -2
t-4 -7.5l-111 -410q-10 -37 -45 -51.5t-70.5 0t-46.5 51.5l-125 409q-4 12 -14.5 9t-11.5 -16l-42 -645h-73z" />
    <glyph glyph-name="Ntilde.salt" horiz-adv-x="680" 
d="M192 838q27 22 40.5 32.5t36 21t41.5 10.5q28 -2 61.5 -18.5t45.5 -16.5q22 -1 91 36l22 -42q-3 -2 -24.5 -19.5t-31 -23.5t-27 -13.5t-32.5 -6.5q-30 2 -60 18t-47 16q-20 0 -34.5 -5.5t-31 -15t-29.5 -14.5zM80 0v652q0 48 34 71t75 10.5t60 -53.5l273 -597
q6 -13 15 -11t9 14v646h74v-653q0 -43 -32.5 -68t-72.5 -15.5t-59 53.5l-276 603q-5 11 -15 8.5t-10 -15.5v-645h-75z" />
    <glyph glyph-name="Nacute.salt" horiz-adv-x="680" 
d="M338 797l107 133h95l-133 -133h-69zM80 0v652q0 48 34 71t75 10.5t60 -53.5l273 -597q6 -13 15 -11t9 14v646h74v-653q0 -43 -32.5 -68t-72.5 -15.5t-59 53.5l-276 603q-5 11 -15 8.5t-10 -15.5v-645h-75z" />
    <glyph glyph-name="Ncaron.salt" horiz-adv-x="680" 
d="M215 927h72l80 -71l69 71h71l-104 -130h-71zM80 0v652q0 48 34 71t75 10.5t60 -53.5l273 -597q6 -13 15 -11t9 14v646h74v-653q0 -43 -32.5 -68t-72.5 -15.5t-59 53.5l-276 603q-5 11 -15 8.5t-10 -15.5v-645h-75z" />
    <glyph glyph-name="Ncommaaccent.salt" horiz-adv-x="680" 
d="M290 -150v49q0 24 23 24h46q21 0 21 -24v-81q0 -24 -8.5 -40t-21 -21.5t-25 -8t-21.5 -0.5l-9 1v29q28 -1 28 28v22h-10q-23 0 -23 22zM80 0v652q0 48 34 71t75 10.5t60 -53.5l273 -597q6 -13 15 -11t9 14v646h74v-653q0 -43 -32.5 -68t-72.5 -15.5t-59 53.5l-276 603
q-5 11 -15 8.5t-10 -15.5v-645h-75z" />
    <glyph glyph-name="zero.numerator" horiz-adv-x="468" 
d="M60 365v255q0 60 30 85t87 25h117q113 0 113 -110v-255q0 -66 -28.5 -88t-84.5 -22h-117q-26 0 -44 3.5t-36 14t-27.5 33.5t-9.5 59zM123 369q0 -31 11 -41.5t47 -10.5h109q36 0 46 11.5t10 40.5v247q0 28 -11 40t-45 12h-109q-35 0 -46.5 -12.5t-11.5 -39.5v-247z" />
    <glyph glyph-name="one.numerator" horiz-adv-x="271" 
d="M16 628v49l128 55h62v-476h-62v407z" />
    <glyph glyph-name="two.numerator" horiz-adv-x="387" 
d="M32 676q-1 0 -1 12t1 24v11q124 15 183 15q130 0 130 -136q0 -35 -18 -75t-37.5 -67.5t-55.5 -63.5t-48 -46t-38 -32h196v-62h-309v58q8 7 40.5 31.5t53.5 41.5t52.5 46.5t50.5 54t33.5 54.5t14.5 57q0 41 -17 59t-59 18h-172z" />
    <glyph glyph-name="three.numerator" horiz-adv-x="406" 
d="M30 672v43q9 3 18.5 5.5t21 4.5t19 3.5t21.5 2.5t20.5 1.5t23.5 0.5h22h24.5h24.5q61 0 91 -33.5t30 -83.5v-35q0 -33 -14 -56.5t-35 -31.5q49 -31 49 -94v-28q0 -58 -28 -88.5t-98 -30.5h-23.5h-23.5h-21t-22 0.5t-19 1.5t-20.5 2.5t-18 3.5t-20 4.5t-18.5 5.5l1 43
l177 1q40 0 56 14t16 47v23q0 67 -68 69l-142 5v47l142 7q69 3 69 64v22q0 60 -69 60h-186z" />
    <glyph glyph-name="four.numerator" horiz-adv-x="417" 
d="M16 400l208 330h71l-181 -289h167v121l28 48h34v-169h59v-52l-59 -13v-120h-62v120h-243z" />
    <glyph glyph-name="five.numerator" horiz-adv-x="419" 
d="M55 265v49h211q51 0 51 55v56v15.5t-2.5 15.5t-7.5 16t-15.5 10t-25.5 5h-115q-44 0 -44 -49h-52l15 292h295v-62h-237l-8 -138q10 10 33 15t40 5.5t46 -0.5t31 -1q56 0 82.5 -32t26.5 -88v-64q0 -59 -29.5 -86.5t-79.5 -27.5q-134 0 -215 14z" />
    <glyph glyph-name="six.numerator" horiz-adv-x="440" 
d="M55 506q1 71 11 118t28.5 70t37.5 31.5t46 10.5q86 5 205 -12v-50h-202q-61 0 -64 -153q128 14 177 14q60 0 82.5 -28t22.5 -73v-73q0 -52 -28.5 -78.5t-76.5 -26.5h-107q-30 0 -52 9.5t-41.5 35t-29.5 77t-9 128.5zM117 473q0 -155 67 -155h106q25 0 36 12t11 39v61
q0 25 -11 34t-36 9h-173z" />
    <glyph glyph-name="seven.numerator" horiz-adv-x="367" 
d="M15 670v62h319l17 -31l-182 -445h-70l171 414h-255z" />
    <glyph glyph-name="eight.numerator" horiz-adv-x="466" 
d="M66 358v58q0 55 55 72q-55 18 -55 90v40q0 65 30.5 91t85.5 26h110q54 0 81 -27t27 -90v-40q1 -11 -1 -24t-14 -29.5t-33 -21.5q24 -4 36 -32t12 -55v-58q0 -104 -105 -104h-120q-63 0 -86 28t-23 76zM128 362q0 -25 10.5 -35t40.5 -10h112q47 0 47 45v50q0 52 -46 52
h-115q-49 0 -49 -52v-50zM128 582q0 -55 49 -55h111q50 0 50 55v32q0 35 -12.5 47t-42.5 12h-97q-34 0 -46 -12.5t-12 -46.5v-32z" />
    <glyph glyph-name="nine.numerator" horiz-adv-x="440" 
d="M45 558v73q0 52 28.5 78.5t76.5 26.5h107q30 0 52 -9.5t41.5 -35t29.5 -77t9 -128.5q-1 -71 -10 -118t-27.5 -69.5t-37.5 -31.5t-47 -11q-116 -9 -206 12v50h201q62 0 65 153q-128 -14 -177 -14q-60 0 -82.5 28t-22.5 73zM107 562q0 -25 11 -34t36 -9h173q0 155 -64 155
h-109q-25 0 -36 -12t-11 -39v-61z" />
    <glyph glyph-name="zero.denominator" horiz-adv-x="468" 
d="M60 110v255q0 60 30 85t87 25h117q113 0 113 -110v-255q0 -66 -28.5 -88t-84.5 -22h-117q-26 0 -44 3.5t-36 14t-27.5 33.5t-9.5 59zM123 114q0 -31 11 -41.5t47 -10.5h109q36 0 46 11.5t10 40.5v247q0 28 -11 40t-45 12h-109q-35 0 -46.5 -12.5t-11.5 -39.5v-247z" />
    <glyph glyph-name="one.denominator" horiz-adv-x="271" 
d="M16 373v49l128 55h62v-476h-62v407z" />
    <glyph glyph-name="two.denominator" horiz-adv-x="387" 
d="M32 421q-1 0 -1 12t1 23v12q124 15 183 15q130 0 130 -136q0 -35 -18 -75t-37.5 -67.5t-55.5 -63.5t-48 -46t-38 -32h196v-62h-309v58q8 7 40.5 31.5t53.5 41.5t52.5 46.5t50.5 54t33.5 54.5t14.5 57q0 41 -17 59t-59 18h-172z" />
    <glyph glyph-name="three.denominator" horiz-adv-x="406" 
d="M30 417v43q9 3 18.5 5.5t21 4.5t19 3.5t21.5 2.5t20.5 1.5t23.5 0.5h22h24.5h24.5q61 0 91 -33.5t30 -83.5v-35q0 -33 -14 -56.5t-35 -31.5q49 -31 49 -94v-28q0 -58 -28 -88.5t-98 -30.5h-23.5h-23.5h-21t-22 0.5t-19 1.5t-20.5 2.5t-18 3.5t-20 4.5t-18.5 5.5l1 43
l177 1q40 0 56 14t16 47v23q0 67 -68 69l-142 5v47l142 7q69 3 69 64v22q0 60 -69 60h-186z" />
    <glyph glyph-name="four.denominator" horiz-adv-x="417" 
d="M16 145l208 330h71l-181 -289h167v121l28 48h34v-169h59v-52l-59 -13v-120h-62v120h-243z" />
    <glyph glyph-name="five.denominator" horiz-adv-x="419" 
d="M55 10v49h211q51 0 51 55v56v15.5t-2.5 15.5t-7.5 16t-15.5 10t-25.5 5h-115q-44 0 -44 -49h-52l15 292h295v-62h-237l-8 -138q10 10 33 15t40 5.5t46 -0.5t31 -1q56 0 82.5 -32t26.5 -88v-64q0 -59 -29.5 -86.5t-79.5 -27.5q-134 0 -215 14z" />
    <glyph glyph-name="six.denominator" horiz-adv-x="440" 
d="M55 251q1 71 11 118t28.5 70t37.5 31.5t46 10.5q106 6 205 -12v-50h-202q-61 0 -64 -153q128 14 177 14q60 0 82.5 -28t22.5 -73v-73q0 -52 -28.5 -78.5t-76.5 -26.5h-107q-30 0 -52 9.5t-41.5 35t-29.5 77t-9 128.5zM117 218q0 -155 67 -155h106q25 0 36 12t11 39v61
q0 25 -11 34t-36 9h-173z" />
    <glyph glyph-name="seven.denominator" horiz-adv-x="367" 
d="M15 415v62h319l17 -31l-182 -445h-70l171 414h-255z" />
    <glyph glyph-name="eight.denominator" horiz-adv-x="466" 
d="M66 103v58q0 55 55 72q-55 18 -55 90v40q0 65 30.5 91t85.5 26h110q54 0 81 -27t27 -90v-40q1 -11 -1 -24t-14 -29.5t-33 -21.5q24 -4 36 -32t12 -55v-58q0 -104 -105 -104h-120q-63 0 -86 28t-23 76zM128 107q0 -25 10.5 -35t40.5 -10h112q47 0 47 45v50q0 52 -46 52
h-115q-49 0 -49 -52v-50zM128 327q0 -55 49 -55h111q50 0 50 55v32q0 35 -12.5 47t-42.5 12h-97q-34 0 -46 -12.5t-12 -46.5v-32z" />
    <glyph glyph-name="nine.denominator" horiz-adv-x="440" 
d="M45 303v73q0 52 28.5 78.5t76.5 26.5h107q30 0 52 -9.5t41.5 -35t29.5 -77t9 -128.5q-1 -71 -10 -118t-27.5 -69.5t-37.5 -31.5t-47 -11q-113 -9 -206 12v50h201q62 0 65 153q-128 -14 -177 -14q-60 0 -82.5 28t-22.5 73zM107 307q0 -25 11 -34t36 -9h173q0 155 -64 155
h-109q-25 0 -36 -12t-11 -39v-61z" />
    </font>
</defs>
</svg>
